Начать новую тему Ответить на тему
Статистика раздачи
Размер: 370.09 МБ | Добавлен: 23 фев 2014, 01:02 | Скачали: 1
Сидеров: 1  [0 байт/сек]    Личеров: 1  [0 байт/сек]
Пред. тема | След. тема 

Автор
Сообщение

СообщениеДобавлено: 23 фев 2014, 01:02 

Ответить с цитатой 

Игорь Тальков - Концерт 23 февраля 1991 года в Лужниках (1993)

Год: 1993
Жанр: Rock
Продолжительность: 01:11:39
Кодек: APE
Битрейт: ~ 718 Kbps
Тип битрейта: lossless

Трек лист:
01. КПСС
02. Революционная Ламбада
03. Стоп! Думаю себе...
04. Чижик-Пыжик
05. Кремлёвская стена
06. Господа демократы
07. Бал сатаны
08. Бывший подъесаул
09. Россия
10. Я вернусь
11. Совки
12. Уеду
13. Звезда
14. Глобус
15. Памяти В.Цоя
Код:
Код:
Exact Audio Copy V0.99 prebeta 4 from 23. January 2008

EAC extraction logfile from 31. March 2008, 9:02

Игорь Тальков / Концерт в Лужниках

Used drive : ASUS DRW-1612BL Adapter: 1 ID: 0

Read mode : Secure
Utilize accurate stream : Yes
Defeat audio cache : Yes
Make use of C2 pointers : No

Read offset correction : 6
Overread into Lead-In and Lead-Out : No
Fill up missing offset samples with silence : Yes
Delete leading and trailing silent blocks : No
Null samples used in CRC calculations : Yes
Used interface : Installed external ASPI interface

Used output format : Internal WAV Routines
Sample format : 44.100 Hz; 16 Bit; Stereo

TOC of the extracted CD

Track | Start | Length | Start sector | End sector
---------------------------------------------------------
1 | 0:00.00 | 3:38.37 | 0 | 16386
2 | 3:38.37 | 1:29.63 | 16387 | 23124
3 | 5:08.25 | 2:21.70 | 23125 | 33769
4 | 7:30.20 | 3:02.57 | 33770 | 47476
5 | 10:33.02 | 3:30.73 | 47477 | 63299
6 | 14:04.00 | 4:49.07 | 63300 | 84981
7 | 18:53.07 | 3:10.43 | 84982 | 99274
8 | 22:03.50 | 5:58.65 | 99275 | 126189
9 | 28:02.40 | 8:28.60 | 126190 | 164349
10 | 36:31.25 | 8:57.45 | 164350 | 204669
11 | 45:28.70 | 3:14.62 | 204670 | 219281
12 | 48:43.57 | 4:08.43 | 219282 | 237924
13 | 52:52.25 | 6:00.25 | 237925 | 264949
14 | 58:52.50 | 4:50.32 | 264950 | 286731
15 | 63:43.07 | 7:55.73 | 286732 | 322429

Range status and errors

Selected range

Filename E:\Torrent\Игорь Тальков_Концерт в Лужниках\Игорь Тальков - Концерт в Лужниках.wav

Peak level 100.0 %
Range quality 100.0 %
Copy CRC E7883CF1
Copy OK

No errors occurred

AccurateRip summary
Track 1 accurately ripped (confidence 1) [50D1238D]
Track 2 accurately ripped (confidence 1) [4C6A6041]
Track 3 accurately ripped (confidence 1) [5CFD62FF]
Track 4 accurately ripped (confidence 1) [6F4A3F06]
Track 5 accurately ripped (confidence 1) [91A18827]
Track 6 accurately ripped (confidence 1) [9C5E0EEE]
Track 7 accurately ripped (confidence 1) [FEA0D306]
Track 8 accurately ripped (confidence 1) [C23AD250]
Track 9 accurately ripped (confidence 1) [76D2FCD2]
Track 10 accurately ripped (confidence 1) [9F4A3746]
Track 11 accurately ripped (confidence 1) [4BA1DBA4]
Track 12 accurately ripped (confidence 1) [0EA8958A]
Track 13 accurately ripped (confidence 1) [586C4162]
Track 14 accurately ripped (confidence 1) [435285B0]
Track 15 accurately ripped (confidence 1) [C3240914]
All tracks accurately ripped

End of status report

Правила, инструкции, FAQ!!!
Торрент  Добавлен [23 фев 2014, 01:02] Скачать торрент Магнет ссылка
Скачать торрент
[ Размер 15.77 КБ / Просмотров 78 ]

Статус  
 
Размер  370.09 МБ
Приватный: Нет (DHT включён)
.torrent скачан  1
 


     Отправить личное сообщение
   
Страница 1 из 1
Показать сообщения за:  Поле сортировки  
Начать новую тему Ответить на тему


Сейчас этот форум просматривают: нет зарегистрированных пользователей и гости: 0


Вы не можете начинать темы
Вы не можете отвечать на сообщения
Вы не можете редактировать свои сообщения
Вы не можете удалять свои сообщения
Вы не можете добавлять вложения

Перейти:  
cron