Начать новую тему Ответить на тему
Статистика раздачи
Размер: 313.39 МБ | Добавлен: 16 мар 2014, 00:54 | Скачали: 3
Сидеров: 3  [0 байт/сек]    Личеров: 0  [0 байт/сек]
Пред. тема | След. тема 

Автор
Сообщение

СообщениеДобавлено: 16 мар 2014, 00:54 

Ответить с цитатой 

Icon For Hire
- Icon For Hire


Год выпуска: 2013
Жанр: Alt. Rock | Modern Rock | Rap Rock | Electronic | Female Vocal
Продолжительность: 00:42:52
Тип издания: Альбом
Страна: США



Треклист:

01. Cynics & Critics
02. Nerves
03. Sugar & Spice
04. Hope of Morning
05. Sorry About Your Parents
06. Pop Culture
07. Watch Me
08. Slow Down
09. Rock and Roll Thugs
10. Think I'm Sick
11. Fix Me
12. Counting On Hearts


Код:
Код:
Exact Audio Copy V1.0 beta 3 from 29. August 2011

EAC extraction logfile from 11. October 2013, 17:12

Icon For Hire / Icon For Hire

Used drive  : ASUS    DRW-24B1ST   a   Adapter: 2  ID: 0

Read mode : Burst

Read offset correction                      : 6
Overread into Lead-In and Lead-Out          : No
Fill up missing offset samples with silence : Yes
Delete leading and trailing silent blocks   : No
Null samples used in CRC calculations       : Yes
Used interface                              : Native Win32 interface for Win NT & 2000
Gap handling                                : Appended to previous track

Used output format              : User Defined Encoder
Selected bitrate                : 1024 kBit/s
Quality                         : High
Add ID3 tag                     : No
Command line compressor         : F:\Program Files (x86)\Exact Audio Copy\Flac\flac.exe
Additional command line options : -8 -V -T "ARTIST=%artist%" -T "TITLE=%title%" -T "ALBUM=%albumtitle%" -T "DATE=%year%" -T "TRACKNUMBER=%tracknr%" -T "GENRE=%genre%" -T "PERFORMER=%albuminterpret%" -T "COMPOSER=%composer%" %haslyrics%--tag-from-file=LYRICS="%lyricsfile%"%haslyrics% -T "ALBUMARTIST=%albumartist%" -T "DISCNUMBER=%cdnumber%" -T "TOTALDISCS=%totalcds%" -T "TOTALTRACKS=%numtracks%" -T "COMMENT=%comment%" %source% -o %dest%

TOC of the extracted CD

     Track |   Start  |  Length  | Start sector | End sector
    ---------------------------------------------------------
        1  |  0:00.00 |  3:22.74 |         0    |    15223
        2  |  3:22.74 |  3:15.19 |     15224    |    29867
        3  |  6:38.18 |  4:02.59 |     29868    |    48076
        4  | 10:41.02 |  3:49.45 |     48077    |    65296
        5  | 14:30.47 |  3:17.48 |     65297    |    80119
        6  | 17:48.20 |  3:23.14 |     80120    |    95358
        7  | 21:11.34 |  3:34.56 |     95359    |   111464
        8  | 24:46.15 |  3:46.16 |    111465    |   128430
        9  | 28:32.31 |  3:36.74 |    128431    |   144704
       10  | 32:09.30 |  2:54.63 |    144705    |   157817
       11  | 35:04.18 |  3:47.36 |    157818    |   174878
       12  | 38:51.54 |  3:59.56 |    174879    |   192859

Track  1

     Filename C:\Users\Chel\Downloads\Icon For Hire - Icon for Hire (2013) [FLAC]\01 - Cynics & Critics.wav

     Pre-gap length  0:00:02.00

     Peak level 98.0 %
     Extraction speed 19.3 X
     Test CRC D869B530
     Copy CRC D869B530
     Track not present in AccurateRip database
     Copy OK

Track  2

     Filename C:\Users\Chel\Downloads\Icon For Hire - Icon for Hire (2013) [FLAC]\02 - Nerves.wav

     Peak level 98.0 %
     Extraction speed 21.3 X
     Test CRC EC33C68B
     Copy CRC EC33C68B
     Track not present in AccurateRip database
     Copy OK

Track  3

     Filename C:\Users\Chel\Downloads\Icon For Hire - Icon for Hire (2013) [FLAC]\03 - Sugar & Spice.wav

     Peak level 98.0 %
     Extraction speed 23.2 X
     Test CRC C668FEDD
     Copy CRC C668FEDD
     Track not present in AccurateRip database
     Copy OK

Track  4

     Filename C:\Users\Chel\Downloads\Icon For Hire - Icon for Hire (2013) [FLAC]\04 - Hope of Morning.wav

     Peak level 98.0 %
     Extraction speed 25.1 X
     Test CRC 692AB124
     Copy CRC 692AB124
     Track not present in AccurateRip database
     Copy OK

Track  5

     Filename C:\Users\Chel\Downloads\Icon For Hire - Icon for Hire (2013) [FLAC]\05 - Sorry About Your Parents.wav

     Peak level 98.0 %
     Extraction speed 26.7 X
     Test CRC 485446E4
     Copy CRC 485446E4
     Track not present in AccurateRip database
     Copy OK

Track  6

     Filename C:\Users\Chel\Downloads\Icon For Hire - Icon for Hire (2013) [FLAC]\06 - Pop Culture.wav

     Peak level 98.0 %
     Extraction speed 28.1 X
     Test CRC 73CFDA35
     Copy CRC 73CFDA35
     Track not present in AccurateRip database
     Copy OK

Track  7

     Filename C:\Users\Chel\Downloads\Icon For Hire - Icon for Hire (2013) [FLAC]\07 - Watch Me.wav

     Peak level 98.0 %
     Extraction speed 29.5 X
     Test CRC 99910E9D
     Copy CRC 99910E9D
     Track not present in AccurateRip database
     Copy OK

Track  8

     Filename C:\Users\Chel\Downloads\Icon For Hire - Icon for Hire (2013) [FLAC]\08 - Slow Down.wav

     Pre-gap length  0:00:00.04

     Peak level 98.0 %
     Extraction speed 30.9 X
     Test CRC 4378E941
     Copy CRC 4378E941
     Track not present in AccurateRip database
     Copy OK

Track  9

     Filename C:\Users\Chel\Downloads\Icon For Hire - Icon for Hire (2013) [FLAC]\09 - Rock and Roll Thugs.wav

     Peak level 98.0 %
     Extraction speed 32.3 X
     Test CRC 5EE1C4C4
     Copy CRC 5EE1C4C4
     Track not present in AccurateRip database
     Copy OK

Track 10

     Filename C:\Users\Chel\Downloads\Icon For Hire - Icon for Hire (2013) [FLAC]\10 - Think I'm Sick.wav

     Peak level 98.0 %
     Extraction speed 33.4 X
     Test CRC D450F96B
     Copy CRC D450F96B
     Track not present in AccurateRip database
     Copy OK

Track 11

     Filename C:\Users\Chel\Downloads\Icon For Hire - Icon for Hire (2013) [FLAC]\11 - Fix Me.wav

     Peak level 98.0 %
     Extraction speed 34.6 X
     Test CRC 631D8016
     Copy CRC 631D8016
     Track not present in AccurateRip database
     Copy OK

Track 12

     Filename C:\Users\Chel\Downloads\Icon For Hire - Icon for Hire (2013) [FLAC]\12 - Counting On Hearts.wav

     Peak level 98.0 %
     Extraction speed 35.9 X
     Test CRC D2F437F8
     Copy CRC D2F437F8
     Track not present in AccurateRip database
     Copy OK

None of the tracks are present in the AccurateRip database

No errors occurred

End of status report

---- CUETools DB Plugin V2.1.3

[CTDB TOCID: OmTu61zx2sDKk1F0j5g5bos4Iiw-] found, Submit result: already submitted
[9f64986f] (1/1) Accurately ripped

==== Log checksum 3E2EB943C1DC6CBB6691B14E9824BFEB62F2EE7CBD5413110F17083266986418 ====

Код:
Код:
-----------------------

DON'T MODIFY THIS FILE

-----------------------

PERFORMER: auCDtect Task Manager, ver. 1.5.1RC6 build 1.5.1.7
Copyright (c) 2008-2010 y-soft. All rights reserved
http:/y-soft.org

ANALYZER: auCDtect: CD records authenticity detector, version 0.8.2
Copyright (c) 2004 Oleg Berngardt. All rights reserved.
Copyright (c) 2004 Alexander Djourik. All rights reserved.

FILE: 12. Icon For Hire - Counting On Hearts.flac
  Size: 32635998 Hash: 42D4F4308CD460381AF880C5214CFA9E Accuracy: -m0
  Conclusion: CDDA 100%
  Signature: 02EC985241A47D0B1A0364E225A6898661E063AF
FILE: 11. Icon For Hire - Fix Me.flac
  Size: 26416057 Hash: F751059B7B9C0F767697507D984DB842 Accuracy: -m0
  Conclusion: CDDA 100%
  Signature: 43CAEB4FFFD4B9A07C765B694B9D60CA09F44877
FILE: 10. Icon For Hire - Think I'm Sick.flac
  Size: 21893512 Hash: 23C58B5676F090DAF331C71712A65FF9 Accuracy: -m0
  Conclusion: CDDA 100%
  Signature: D25780000BA9DA84BEB07B5E5727F9FF5BD4B6C3
FILE: 09. Icon For Hire - Rock and Roll Thugs.flac
  Size: 27823275 Hash: 921972A16B67562B4D7B79FAFD0F0D04 Accuracy: -m0
  Conclusion: CDDA 100%
  Signature: E10980099C6A781F1DE33F1AD5B877F995E4933C
FILE: 08. Icon For Hire - Slow Down.flac
  Size: 28027560 Hash: 65850B0B495E4027AE56311C09F1C4EE Accuracy: -m0
  Conclusion: CDDA 99%
  Signature: 756385E78C20C3219723AE5C87BEC512551BB9C6
FILE: 07. Icon For Hire - Watch Me.flac
  Size: 28699330 Hash: 9CFDA5EECB1EF174AFA05E70EAA7FB70 Accuracy: -m0
  Conclusion: CDDA 100%
  Signature: 15E1BC6A647DE661F912725E1EE4812A8A69F06E
FILE: 06. Icon For Hire - Pop Culture.flac
  Size: 25605024 Hash: 71346E50E60839A39E9FC6DDFBBBCC6E Accuracy: -m0
  Conclusion: CDDA 100%
  Signature: 65BAC4EAEF5C0D79648013E11B7B6EC4B5FD14CA
FILE: 05. Icon For Hire - Sorry About Your Parents.flac
  Size: 24322565 Hash: 56D321B85F7DF265EC9D5754F696B5E2 Accuracy: -m0
  Conclusion: CDDA 100%
  Signature: DCD2373CF3CE59DB9B7A21F53059CE684CE2BA92
FILE: 04. Icon For Hire - Hope of Morning.flac
  Size: 29015108 Hash: B9FD7F72950ACEE2884A9C822115CB9F Accuracy: -m0
  Conclusion: CDDA 100%
  Signature: CE5F8A6B76358BB9952B0C0272127C6495ABDD0F
FILE: 03. Icon For Hire - Sugar & Spice.flac
  Size: 30200629 Hash: 6B0CD89A370F30A061F11141A58E95EC Accuracy: -m0
  Conclusion: CDDA 100%
  Signature: 980F609D0ECF820AAFA3DB5B7A6AF41AADBA17A2
FILE: 02. Icon For Hire - Nerves.flac
  Size: 26132776 Hash: C4312950AD1EBAB62D713FE1737CE20E Accuracy: -m0
  Conclusion: CDDA 100%
  Signature: 90D6259289F04724D1F40427334699B1251BC0A9
FILE: 01. Icon For Hire - Cynics & Critics.flac
  Size: 27437985 Hash: C3727AF47E1BAF4FAB65562CCF33715C Accuracy: -m0
  Conclusion: CDDA 100%
  Signature: 545EF14870011CD55612FADA80C05CDACA47DD85

Тип рипа: Tracks+.cue
Аудиокодек: FLAC
Битрейт аудио: lossless
Правила, инструкции, FAQ!!!
Торрент  Добавлен [16 мар 2014, 00:54] Скачать торрент Магнет ссылка
Скачать торрент
[ Размер 13.99 КБ / Просмотров 75 ]

Статус  
 
Размер  313.39 МБ
Приватный: Нет (DHT включён)
.torrent скачан  3
 


     Отправить личное сообщение
   
Страница 1 из 1
Показать сообщения за:  Поле сортировки  
Начать новую тему Ответить на тему


Сейчас этот форум просматривают: нет зарегистрированных пользователей и гости: 0


Вы не можете начинать темы
Вы не можете отвечать на сообщения
Вы не можете редактировать свои сообщения
Вы не можете удалять свои сообщения
Вы не можете добавлять вложения

Перейти:  
cron
cron