Начать новую тему Ответить на тему
Статистика раздачи
Размер: 1.23 ГБ | Добавлен: 16 мар 2014, 00:54 | Скачали: 4
Сидеров: 4  [0 байт/сек]    Личеров: 1  [0 байт/сек]
Пред. тема | След. тема 

Автор
Сообщение

СообщениеДобавлено: 16 мар 2014, 00:54 

Ответить с цитатой 


I See Stars
- Дискография





Год выпуска: 2009-2013
Жанр: Post-Hardcore | Electronic
Продолжительность: 02:37:00
Тип издания: Дискография
Страна: США



Треклист:

01. Project Wakeup
02. The Common Hours
03. 3D
04. Save The Cheerleader
05. The Big Bad Wolf
06. I Am Jacks Smirking Revenge
07. Comfortably Confused
08. Where The Sidewalk Ends
09. Sing This!
10. The Ocean
11. What This Means To Me

Продолжительность: 00:32:41

Код:
Код:
Exact Audio Copy V0.99 prebeta 4 from 23. January 2008

EAC extraction logfile from 10. April 2009, 14:43

I See Stars / 3D

Used drive  : TEAC    DVD+-RW DVW28SLC   Adapter: 1  ID: 0

Read mode               : Secure
Utilize accurate stream : Yes
Defeat audio cache      : Yes
Make use of C2 pointers : No

Read offset correction                      : 48
Overread into Lead-In and Lead-Out          : No
Fill up missing offset samples with silence : Yes
Delete leading and trailing silent blocks   : No
Null samples used in CRC calculations       : Yes
Used interface                              : Installed external ASPI interface
Gap handling                                : Appended to previous track

Used output format              : User Defined Encoder
Selected bitrate                : 192 kBit/s
Quality                         : High
Add ID3 tag                     : No
Command line compressor         : C:\Program Files\Exact Audio Copy\flac.exe
Additional command line options : -V -8 -T "artist=%a" -T "title=%t" -T "album=%g" -T "date=%y" -T "tracknumber=%n" -T "genre=%m" %s

TOC of the extracted CD

     Track |   Start  |  Length  | Start sector | End sector
    ---------------------------------------------------------
        1  |  0:00.00 |  2:25.16 |         0    |    10890
        2  |  2:25.16 |  3:07.07 |     10891    |    24922
        3  |  5:32.23 |  3:11.23 |     24923    |    39270
        4  |  8:43.46 |  4:06.17 |     39271    |    57737
        5  | 12:49.63 |  3:40.53 |     57738    |    74290
        6  | 16:30.41 |  3:09.11 |     74291    |    88476
        7  | 19:39.52 |  2:57.31 |     88477    |   101782
        8  | 22:37.08 |  2:25.10 |    101783    |   112667
        9  | 25:02.18 |  2:58.56 |    112668    |   126073
       10  | 28:00.74 |  1:14.50 |    126074    |   131673
       11  | 29:15.49 |  3:26.26 |    131674    |   147149

Track  1

     Filename C:\Users\Ryan\Documents\3D [FLAC]\01 - I See Stars - Project Wakeup.wav

     Pre-gap length  0:00:02.00

     Peak level 100.0 %
     Track quality 100.0 %
     Test CRC 31E33634
     Copy CRC 31E33634
     Track not present in AccurateRip database
     Copy OK

Track  2

     Filename C:\Users\Ryan\Documents\3D [FLAC]\02 - I See Stars - The Common Hours.wav

     Peak level 100.0 %
     Track quality 100.0 %
     Test CRC DA80F672
     Copy CRC DA80F672
     Track not present in AccurateRip database
     Copy OK

Track  3

     Filename C:\Users\Ryan\Documents\3D [FLAC]\03 - I See Stars - 3D.wav

     Peak level 100.0 %
     Track quality 100.0 %
     Test CRC B6328F40
     Copy CRC B6328F40
     Track not present in AccurateRip database
     Copy OK

Track  4

     Filename C:\Users\Ryan\Documents\3D [FLAC]\04 - I See Stars - I Am Jack's Smirking Revenge.wav

     Peak level 100.0 %
     Track quality 100.0 %
     Test CRC EE4FA6F1
     Copy CRC EE4FA6F1
     Track not present in AccurateRip database
     Copy OK

Track  5

     Filename C:\Users\Ryan\Documents\3D [FLAC]\05 - I See Stars - Save The Cheerleader.wav

     Peak level 100.0 %
     Track quality 100.0 %
     Test CRC 189ECA1C
     Copy CRC 189ECA1C
     Track not present in AccurateRip database
     Copy OK

Track  6

     Filename C:\Users\Ryan\Documents\3D [FLAC]\06 - I See Stars - The Big Bad Wolf.wav

     Peak level 100.0 %
     Track quality 100.0 %
     Test CRC 58C001A2
     Copy CRC 58C001A2
     Track not present in AccurateRip database
     Copy OK

Track  7

     Filename C:\Users\Ryan\Documents\3D [FLAC]\07 - I See Stars - Where The Sidewalk Ends.wav

     Peak level 100.0 %
     Track quality 100.0 %
     Test CRC 9822898E
     Copy CRC 9822898E
     Track not present in AccurateRip database
     Copy OK

Track  8

     Filename C:\Users\Ryan\Documents\3D [FLAC]\08 - I See Stars - Comfortably Confused.wav

     Peak level 100.0 %
     Track quality 99.9 %
     Test CRC 66CFF150
     Copy CRC 66CFF150
     Track not present in AccurateRip database
     Copy OK

Track  9

     Filename C:\Users\Ryan\Documents\3D [FLAC]\09 - I See Stars - Sing This!.wav

     Peak level 100.0 %
     Track quality 100.0 %
     Test CRC D107C9F2
     Copy CRC D107C9F2
     Track not present in AccurateRip database
     Copy OK

Track 10

     Filename C:\Users\Ryan\Documents\3D [FLAC]\10 - I See Stars - The Ocean.wav

     Peak level 100.0 %
     Track quality 100.0 %
     Test CRC F8480682
     Copy CRC F8480682
     Track not present in AccurateRip database
     Copy OK

Track 11

     Filename C:\Users\Ryan\Documents\3D [FLAC]\11 - I See Stars - What This Means To Me.wav

     Peak level 100.0 %
     Track quality 100.0 %
     Test CRC 6A4DD754
     Copy CRC 6A4DD754
     Track not present in AccurateRip database
     Copy OK

None of the tracks are present in the AccurateRip database

No errors occurred

End of status report

Код:
Код:
-----------------------

DON'T MODIFY THIS FILE

-----------------------

PERFORMER: auCDtect Task Manager, ver. 1.5.1RC6 build 1.5.1.7
Copyright (c) 2008-2010 y-soft. All rights reserved
http:/y-soft.org

ANALYZER: auCDtect: CD records authenticity detector, version 0.8.2
Copyright (c) 2004 Oleg Berngardt. All rights reserved.
Copyright (c) 2004 Alexander Djourik. All rights reserved.

FILE: 11. I See Stars - What This Means To Me.flac
  Size: 26999202 Hash: 5FABEF3CC64791633C1B5C4E22F0F029 Accuracy: -m0
  Conclusion: CDDA 100%
  Signature: 94104CEF6AC8B3E46350D3C2CB1A68F2D9BFA7DC
FILE: 10. I See Stars - The Ocean.flac
  Size: 11555349 Hash: 514D6950F3587BE384DF7C37518B6BF2 Accuracy: -m0
  Conclusion: CDDA 100%
  Signature: B995E5B816AA7C330F35BA830DC5A3750030557C
FILE: 09. I See Stars - Sing This!.flac
  Size: 26683199 Hash: 3F2655E8E293D512273A10EDA1191B7D Accuracy: -m0
  Conclusion: CDDA 100%
  Signature: D5AB672030FB4C328D0D04A6DA73B47843CB55D4
FILE: 08. I See Stars - Where The Sidewalk Ends.flac
  Size: 21947161 Hash: 9460FF5840E1738DD8701161EF199770 Accuracy: -m0
  Conclusion: CDDA 100%
  Signature: 8DF86471186183421F40F12A722ABF9C4D2E8BA4
FILE: 07. I See Stars - Comfortably Confused.flac
  Size: 26577962 Hash: BCD42AABDA41C0CFE6154373A69BB6C9 Accuracy: -m0
  Conclusion: CDDA 100%
  Signature: 0B6987CA86A5A025DE736BEDA499D1B015A5702E
FILE: 06. I See Stars - I Am Jacks Smirking Revenge.flac
  Size: 28174389 Hash: 3231327EB77EB8A0DB9E797B4685AF4B Accuracy: -m0
  Conclusion: CDDA 100%
  Signature: 81C7BE717E5362E3AED589C7B24489F62FC3BA8B
FILE: 05. I See Stars - The Big Bad Wolf.flac
  Size: 32080554 Hash: C3C489522E7D72D5EBDADD16E3AFBDB2 Accuracy: -m0
  Conclusion: CDDA 100%
  Signature: 851C1350D5C81DEACA835E12900CFA06738B8F09
FILE: 04. I See Stars - Save The Cheerleader.flac
  Size: 34213432 Hash: 5EECC61BD3EC01EFC4B7DE269BBCECFB Accuracy: -m0
  Conclusion: CDDA 100%
  Signature: A6D6CF612ECAB999FC75FA19F227A9B86036648B
FILE: 03. I See Stars - 3D.flac
  Size: 28768160 Hash: A3E61EA8C779EBDC56B9B2326A68045D Accuracy: -m0
  Conclusion: CDDA 100%
  Signature: 78A790323AF8C80F5CC82EB151AA214F13EFDFB9
FILE: 02. I See Stars - The Common Hours.flac
  Size: 27085044 Hash: BE05CE5F873218B4BEE2C9CBA90012B6 Accuracy: -m0
  Conclusion: CDDA 100%
  Signature: F9E206D5941E4616E2C2BBFB70F38ABF5A42782B
FILE: 01. I See Stars - Project Wakeup.flac
  Size: 21989413 Hash: BB817FAAE8F2F84992E718C72C111885 Accuracy: -m0
  Conclusion: CDDA 100%
  Signature: BC356FD934D785E637E1B4BA1ADEF2BB322822E0


#777Треклист:

01. The End of the World Party
02. Over It
03. Still Not Quite Enough
04. Wonderland
05. Home for the Weekend
06. It Will Be Up (High School Never Ends)
07. Upside Down
08. The Common Hours II
09. Where I Let You Down (Numb)
10. Glow
11. Pop Rock and Roll

Продолжительность: 00:37:37


Код:
Код:
X Lossless Decoder version 20110212 (127.0)

XLD extraction logfile from 2011-02-24 20:28:24 -0500

I See Stars / The End of the World Party

Used drive : MATSHITA DVD-R   UJ-898 (revision HC10)

Ripper mode             : CDParanoia III 10.2
Disable audio cache     : OK for the drive with a cache less than 2750KiB
Make use of C2 pointers : NO
Read offset correction  : 102
Max retry count         : 100
Gap status              : Analyzed, Appended

TOC of the extracted CD
     Track |   Start  |  Length  | Start sector | End sector
    ---------------------------------------------------------
        1  | 00:00:00 | 03:16:07 |         0    |    14706
        2  | 03:16:07 | 03:51:22 |     14707    |    32053
        3  | 07:07:29 | 03:35:23 |     32054    |    48201
        4  | 10:42:52 | 02:29:22 |     48202    |    59398
        5  | 13:11:74 | 03:19:30 |     59399    |    74353
        6  | 16:31:29 | 03:33:02 |     74354    |    90330
        7  | 20:04:31 | 03:51:50 |     90331    |   107705
        8  | 23:56:06 | 02:55:64 |    107706    |   120894
        9  | 26:51:70 | 03:00:06 |    120895    |   134400
       10  | 29:52:01 | 02:56:26 |    134401    |   147626
       11  | 32:48:27 | 04:49:48 |    147627    |   169349

AccurateRip Summary
    Disc not found in AccurateRip DB.

All Tracks
    Album gain             : -10.34 dB
    Peak                   : 1.000000
    Statistics
        Read error                           : 0
        Skipped (treated as error)           : 0
        Edge jitter error (maybe fixed)      : 0
        Atom jitter error (maybe fixed)      : 2
        Drift error (maybe fixed)            : 0
        Dropped bytes error (maybe fixed)    : 0
        Duplicated bytes error (maybe fixed) : 0

Track 01
    Filename : /Users/vaughn/Documents/Uploads/FLAC/I See Stars - The End of the World Party/01 The End of the World Party.flac
    Pre-gap length : 00:02:00

    Track gain             : -10.18 dB
    Peak                   : 1.000000
    CRC32 hash (test run)  : F49C37AE
    CRC32 hash             : F49C37AE
    CRC32 hash (skip zero) : 02C9A534
    AccurateRip signature  : BC0ED596
        ->Track not present in AccurateRip database.
    Statistics
        Read error                           : 0
        Skipped (treated as error)           : 0
        Edge jitter error (maybe fixed)      : 0
        Atom jitter error (maybe fixed)      : 0
        Drift error (maybe fixed)            : 0
        Dropped bytes error (maybe fixed)    : 0
        Duplicated bytes error (maybe fixed) : 0
        Inconsistency in error sectors       : 0

Track 02
    Filename : /Users/vaughn/Documents/Uploads/FLAC/I See Stars - The End of the World Party/02 Over It.flac

    Track gain             : -10.30 dB
    Peak                   : 1.000000
    CRC32 hash (test run)  : 013EDF37
    CRC32 hash             : 013EDF37
    CRC32 hash (skip zero) : 38F1A781
    AccurateRip signature  : 2D226A28
        ->Track not present in AccurateRip database.
    Statistics
        Read error                           : 0
        Skipped (treated as error)           : 0
        Edge jitter error (maybe fixed)      : 0
        Atom jitter error (maybe fixed)      : 0
        Drift error (maybe fixed)            : 0
        Dropped bytes error (maybe fixed)    : 0
        Duplicated bytes error (maybe fixed) : 0
        Inconsistency in error sectors       : 0

Track 03
    Filename : /Users/vaughn/Documents/Uploads/FLAC/I See Stars - The End of the World Party/03 Still Not Quite Enough.flac

    Track gain             : -10.55 dB
    Peak                   : 1.000000
    CRC32 hash (test run)  : 9EBCE439
    CRC32 hash             : 9EBCE439
    CRC32 hash (skip zero) : 56623E63
    AccurateRip signature  : E46A04DD
        ->Track not present in AccurateRip database.
    Statistics
        Read error                           : 0
        Skipped (treated as error)           : 0
        Edge jitter error (maybe fixed)      : 0
        Atom jitter error (maybe fixed)      : 0
        Drift error (maybe fixed)            : 0
        Dropped bytes error (maybe fixed)    : 0
        Duplicated bytes error (maybe fixed) : 0
        Inconsistency in error sectors       : 0

Track 04
    Filename : /Users/vaughn/Documents/Uploads/FLAC/I See Stars - The End of the World Party/04 Wonderland.flac

    Track gain             : -10.21 dB
    Peak                   : 1.000000
    CRC32 hash (test run)  : 00C24C85
    CRC32 hash             : 00C24C85
    CRC32 hash (skip zero) : 9780FE20
    AccurateRip signature  : 2A25F595
        ->Track not present in AccurateRip database.
    Statistics
        Read error                           : 0
        Skipped (treated as error)           : 0
        Edge jitter error (maybe fixed)      : 0
        Atom jitter error (maybe fixed)      : 0
        Drift error (maybe fixed)            : 0
        Dropped bytes error (maybe fixed)    : 0
        Duplicated bytes error (maybe fixed) : 0
        Inconsistency in error sectors       : 0

Track 05
    Filename : /Users/vaughn/Documents/Uploads/FLAC/I See Stars - The End of the World Party/05 Home for the Weekend.flac

    Track gain             : -10.17 dB
    Peak                   : 1.000000
    CRC32 hash (test run)  : EDEF45D5
    CRC32 hash             : EDEF45D5
    CRC32 hash (skip zero) : ACEB396D
    AccurateRip signature  : CB0158A1
        ->Track not present in AccurateRip database.
    Statistics
        Read error                           : 0
        Skipped (treated as error)           : 0
        Edge jitter error (maybe fixed)      : 0
        Atom jitter error (maybe fixed)      : 2
        Drift error (maybe fixed)            : 0
        Dropped bytes error (maybe fixed)    : 0
        Duplicated bytes error (maybe fixed) : 0
        Inconsistency in error sectors       : 0

Track 06
    Filename : /Users/vaughn/Documents/Uploads/FLAC/I See Stars - The End of the World Party/06 It Will Be Up (High School Never Ends).flac
    Pre-gap length : 00:17:37

    Track gain             : -10.50 dB
    Peak                   : 1.000000
    CRC32 hash (test run)  : 7F7F4D14
    CRC32 hash             : 7F7F4D14
    CRC32 hash (skip zero) : 8A7586ED
    AccurateRip signature  : FE6C5A35
        ->Track not present in AccurateRip database.
    Statistics
        Read error                           : 0
        Skipped (treated as error)           : 0
        Edge jitter error (maybe fixed)      : 0
        Atom jitter error (maybe fixed)      : 0
        Drift error (maybe fixed)            : 0
        Dropped bytes error (maybe fixed)    : 0
        Duplicated bytes error (maybe fixed) : 0
        Inconsistency in error sectors       : 0

Track 07
    Filename : /Users/vaughn/Documents/Uploads/FLAC/I See Stars - The End of the World Party/07 Upside Down.flac
    Pre-gap length : 00:07:68

    Track gain             : -10.41 dB
    Peak                   : 1.000000
    CRC32 hash (test run)  : 6F6E59F1
    CRC32 hash             : 6F6E59F1
    CRC32 hash (skip zero) : E2B4988B
    AccurateRip signature  : 0C9A7A63
        ->Track not present in AccurateRip database.
    Statistics
        Read error                           : 0
        Skipped (treated as error)           : 0
        Edge jitter error (maybe fixed)      : 0
        Atom jitter error (maybe fixed)      : 0
        Drift error (maybe fixed)            : 0
        Dropped bytes error (maybe fixed)    : 0
        Duplicated bytes error (maybe fixed) : 0
        Inconsistency in error sectors       : 0

Track 08
    Filename : /Users/vaughn/Documents/Uploads/FLAC/I See Stars - The End of the World Party/08 The Common Hours II.flac

    Track gain             : -10.50 dB
    Peak                   : 1.000000
    CRC32 hash (test run)  : ED1CDE7D
    CRC32 hash             : ED1CDE7D
    CRC32 hash (skip zero) : 84025BEC
    AccurateRip signature  : 71A60989
        ->Track not present in AccurateRip database.
    Statistics
        Read error                           : 0
        Skipped (treated as error)           : 0
        Edge jitter error (maybe fixed)      : 0
        Atom jitter error (maybe fixed)      : 0
        Drift error (maybe fixed)            : 0
        Dropped bytes error (maybe fixed)    : 0
        Duplicated bytes error (maybe fixed) : 0
        Inconsistency in error sectors       : 0

Track 09
    Filename : /Users/vaughn/Documents/Uploads/FLAC/I See Stars - The End of the World Party/09 Where I Let You Down (Numb).flac

    Track gain             : -10.25 dB
    Peak                   : 1.000000
    CRC32 hash (test run)  : 855D3D83
    CRC32 hash             : 855D3D83
    CRC32 hash (skip zero) : 6B7A250B
    AccurateRip signature  : 2DBFD714
        ->Track not present in AccurateRip database.
    Statistics
        Read error                           : 0
        Skipped (treated as error)           : 0
        Edge jitter error (maybe fixed)      : 0
        Atom jitter error (maybe fixed)      : 0
        Drift error (maybe fixed)            : 0
        Dropped bytes error (maybe fixed)    : 0
        Duplicated bytes error (maybe fixed) : 0
        Inconsistency in error sectors       : 0

Track 10
    Filename : /Users/vaughn/Documents/Uploads/FLAC/I See Stars - The End of the World Party/10 Glow.flac

    Track gain             : -10.21 dB
    Peak                   : 1.000000
    CRC32 hash (test run)  : 1D04B67D
    CRC32 hash             : 1D04B67D
    CRC32 hash (skip zero) : 3FF5E8DA
    AccurateRip signature  : FEF274C2
        ->Track not present in AccurateRip database.
    Statistics
        Read error                           : 0
        Skipped (treated as error)           : 0
        Edge jitter error (maybe fixed)      : 0
        Atom jitter error (maybe fixed)      : 0
        Drift error (maybe fixed)            : 0
        Dropped bytes error (maybe fixed)    : 0
        Duplicated bytes error (maybe fixed) : 0
        Inconsistency in error sectors       : 0

Track 11
    Filename : /Users/vaughn/Documents/Uploads/FLAC/I See Stars - The End of the World Party/11 Pop Rock and Roll.flac

    Track gain             : -10.22 dB
    Peak                   : 1.000000
    CRC32 hash (test run)  : C5EB25B9
    CRC32 hash             : C5EB25B9
    CRC32 hash (skip zero) : 91022A36
    AccurateRip signature  : 7C85F0CE
        ->Track not present in AccurateRip database.
    Statistics
        Read error                           : 0
        Skipped (treated as error)           : 0
        Edge jitter error (maybe fixed)      : 0
        Atom jitter error (maybe fixed)      : 0
        Drift error (maybe fixed)            : 0
        Dropped bytes error (maybe fixed)    : 0
        Duplicated bytes error (maybe fixed) : 0
        Inconsistency in error sectors       : 0

No errors occurred

End of status report

Код:
Код:
-----------------------

DON'T MODIFY THIS FILE

-----------------------

PERFORMER: auCDtect Task Manager, ver. 1.5.1RC6 build 1.5.1.7
Copyright (c) 2008-2010 y-soft. All rights reserved
http:/y-soft.org

ANALYZER: auCDtect: CD records authenticity detector, version 0.8.2
Copyright (c) 2004 Oleg Berngardt. All rights reserved.
Copyright (c) 2004 Alexander Djourik. All rights reserved.

FILE: 11. I See Stars - Pop Rock and Roll.flac
  Size: 38280587 Hash: 729E416797C2A01E79904934A0C15CB7 Accuracy: -m0
  Conclusion: CDDA 100%
  Signature: 61972FBFC1C7924D8DCEE56FB7BA32E68493FF15
FILE: 10. I See Stars - Glow.flac
  Size: 25458472 Hash: F63137D3730D3B0D6E35D3EC8F0D2AC3 Accuracy: -m0
  Conclusion: CDDA 100%
  Signature: B1291649C4B0603AB77C50D1F64D75750B634A67
FILE: 09. I See Stars - Where I Let You Down (Numb).flac
  Size: 26175839 Hash: 381C3D97B75385756AC96271F5DC468B Accuracy: -m0
  Conclusion: CDDA 100%
  Signature: F657CBFFAF20E3FD8CAE4FD95767FDACA529970E
FILE: 08. I See Stars - The Common Hours II.flac
  Size: 24249392 Hash: BE5221747F62AC5540099BB8091EC564 Accuracy: -m0
  Conclusion: CDDA 100%
  Signature: 06DDC879D3BE1DF777057AD64FE916D3D1832024
FILE: 07. I See Stars - Upside Down.flac
  Size: 33315701 Hash: D8AE969BA4DD436BFE5593DFBAB9BABC Accuracy: -m0
  Conclusion: CDDA 100%
  Signature: 6A4EF8EC3FE3EC75464FC3F7F79FDAFA3241F45D
FILE: 06. I See Stars - It Will Be Up (High School Never Ends).flac
  Size: 30266083 Hash: A9FACE60E3787BA6C6A22D773E6C1656 Accuracy: -m0
  Conclusion: CDDA 100%
  Signature: 07800214AEE305D769DFDDFA0E303FFEAC22C4AE
FILE: 05. I See Stars - Home for the Weekend.flac
  Size: 28439882 Hash: C1FF9FD84F6E060243075E2DAE0B2EA8 Accuracy: -m0
  Conclusion: CDDA 100%
  Signature: D80B5886F5A9AA096F2167193A66BBC8C1682401
FILE: 04. I See Stars - Wonderland.flac
  Size: 21132090 Hash: E10A3DC1E7536635CB201B78178D41FE Accuracy: -m0
  Conclusion: CDDA 99%
  Signature: 3EE76140F79505FA78CC1DF5827358F6D7EACBC3
FILE: 03. I See Stars - Still Not Quite Enough.flac
  Size: 30418379 Hash: 8FAF48C414C06BD76305AE204E408501 Accuracy: -m0
  Conclusion: CDDA 100%
  Signature: F8D5BBEB99E0FD5E3AF7B40E6C949A617A1F232E
FILE: 02. I See Stars - Over It.flac
  Size: 31866900 Hash: BC7A80D1594D2DFA2266FA40925FEC5C Accuracy: -m0
  Conclusion: CDDA 100%
  Signature: 02952426FB7E3642CB64E0D2BC1F3CE5E2877CE8
FILE: 01. I See Stars - The End of the World Party.flac
  Size: 26237834 Hash: D6EA3C61C645748867BDB23DA75E0EE0 Accuracy: -m0
  Conclusion: CDDA 100%
  Signature: E5D7EB6A5BE54E2DAF0ACF95EC67D62F974FA3E1


#777Треклист:

01. Gnars Attacks
02. NZT48
03. Digital Renegade
04. Endless Sky (feat. Danny Worsnop of Asking Alexandria)
05. Underneath Every Smile
06. Mystery Wall
07. iBelieve
08. Summer Dies In Connersville
09. Electric Forest (feat. Cassadee Pope of Hey Monday)
10. Filth Friends Unite

Продолжительность: 00:36:21


Код:
Код:
Exact Audio Copy V1.0 beta 3 from 29. August 2011

EAC extraction logfile from 12. March 2012, 18:27

I See Stars / Digital Renegade

Used drive  : HL-DT-STBD-RE  WH12LS38   Adapter: 0  ID: 2

Read mode               : Secure
Utilize accurate stream : Yes
Defeat audio cache      : Yes
Make use of C2 pointers : No

Read offset correction                      : 667
Overread into Lead-In and Lead-Out          : No
Fill up missing offset samples with silence : Yes
Delete leading and trailing silent blocks   : No
Null samples used in CRC calculations       : Yes
Used interface                              : Native Win32 interface for Win NT & 2000
Gap handling                                : Appended to previous track

Used output format              : User Defined Encoder
Selected bitrate                : 1024 kBit/s
Quality                         : High
Add ID3 tag                     : No
Command line compressor         : C:\Program Files (x86)\Exact Audio Copy\Flac\flac.exe
Additional command line options : -8 -V -T "ARTIST=%artist%" -T "TITLE=%title%" -T "ALBUM=%albumtitle%" -T "DATE=%year%" -T "TRACKNUMBER=%tracknr%" -T "GENRE=%genre%" -T "PERFORMER=%albuminterpret%" -T "COMPOSER=%composer%" %haslyrics%--tag-from-file=LYRICS="%lyricsfile%"%haslyrics% -T "ALBUMARTIST=%albumartist%" -T "DISCNUMBER=%cdnumber%" -T "TOTALDISCS=%totalcds%" -T "TOTALTRACKS=%numtracks%" -T "COMMENT=%comment%" %source% -o %dest%

TOC of the extracted CD

     Track |   Start  |  Length  | Start sector | End sector
    ---------------------------------------------------------
        1  |  0:00.00 |  3:29.09 |         0    |    15683
        2  |  3:29.09 |  4:19.51 |     15684    |    35159
        3  |  7:48.60 |  3:12.35 |     35160    |    49594
        4  | 11:01.20 |  3:33.30 |     49595    |    65599
        5  | 14:34.50 |  3:16.48 |     65600    |    80347
        6  | 17:51.23 |  4:07.67 |     80348    |    98939
        7  | 21:59.15 |  2:37.48 |     98940    |   110762
        8  | 24:36.63 |  3:18.32 |    110763    |   125644
        9  | 27:55.20 |  4:26.02 |    125645    |   145596
       10  | 32:21.22 |  3:59.63 |    145597    |   163584

Track  1

     Filename G:\WHAT.CD\EACrips\I See Stars - 2012 - Digital Renegade [FLAC]\01 - Gnars Attacks.wav

     Pre-gap length  0:00:02.00

     Peak level 96.6 %
     Extraction speed 0.9 X
     Track quality 99.9 %
     Test CRC 57EE1FA0
     Copy CRC 57EE1FA0
     Track not present in AccurateRip database
     Copy OK

Track  2

     Filename G:\WHAT.CD\EACrips\I See Stars - 2012 - Digital Renegade [FLAC]\02 - NZT48.wav

     Peak level 96.6 %
     Extraction speed 1.2 X
     Track quality 100.0 %
     Test CRC 431A2929
     Copy CRC 431A2929
     Track not present in AccurateRip database
     Copy OK

Track  3

     Filename G:\WHAT.CD\EACrips\I See Stars - 2012 - Digital Renegade [FLAC]\03 - Digital Renegade.wav

     Peak level 96.6 %
     Extraction speed 1.2 X
     Track quality 100.0 %
     Test CRC B2451EE9
     Copy CRC B2451EE9
     Track not present in AccurateRip database
     Copy OK

Track  4

     Filename G:\WHAT.CD\EACrips\I See Stars - 2012 - Digital Renegade [FLAC]\04 - Endless Sky (feat. Danny Worsnop of Asking Alexandria).wav

     Peak level 96.6 %
     Extraction speed 1.3 X
     Track quality 100.0 %
     Test CRC 183CE3C1
     Copy CRC 183CE3C1
     Track not present in AccurateRip database
     Copy OK

Track  5

     Filename G:\WHAT.CD\EACrips\I See Stars - 2012 - Digital Renegade [FLAC]\05 - Underneath Every Smile.wav

     Peak level 96.6 %
     Extraction speed 1.4 X
     Track quality 100.0 %
     Test CRC DAD5A72E
     Copy CRC DAD5A72E
     Track not present in AccurateRip database
     Copy OK

Track  6

     Filename G:\WHAT.CD\EACrips\I See Stars - 2012 - Digital Renegade [FLAC]\06 - Mystery Wall.wav

     Peak level 96.6 %
     Extraction speed 1.5 X
     Track quality 100.0 %
     Test CRC 002CC062
     Copy CRC 002CC062
     Track not present in AccurateRip database
     Copy OK

Track  7

     Filename G:\WHAT.CD\EACrips\I See Stars - 2012 - Digital Renegade [FLAC]\07 - iBelieve.wav

     Peak level 96.6 %
     Extraction speed 1.5 X
     Track quality 100.0 %
     Test CRC 5D049951
     Copy CRC 5D049951
     Track not present in AccurateRip database
     Copy OK

Track  8

     Filename G:\WHAT.CD\EACrips\I See Stars - 2012 - Digital Renegade [FLAC]\08 - Summer Dies In Connersville.wav

     Peak level 96.6 %
     Extraction speed 1.6 X
     Track quality 100.0 %
     Test CRC 4CABBA97
     Copy CRC 4CABBA97
     Track not present in AccurateRip database
     Copy OK

Track  9

     Filename G:\WHAT.CD\EACrips\I See Stars - 2012 - Digital Renegade [FLAC]\09 - Electric Forest (feat. Cassadee Pope of Hey Monday).wav

     Peak level 96.6 %
     Extraction speed 1.8 X
     Track quality 100.0 %
     Test CRC AC1BB80D
     Copy CRC AC1BB80D
     Track not present in AccurateRip database
     Copy OK

Track 10

     Filename G:\WHAT.CD\EACrips\I See Stars - 2012 - Digital Renegade [FLAC]\10 - Filth Friends Unite.wav

     Peak level 96.6 %
     Extraction speed 1.8 X
     Track quality 100.0 %
     Test CRC 2B5CC0B0
     Copy CRC 2B5CC0B0
     Track not present in AccurateRip database
     Copy OK

None of the tracks are present in the AccurateRip database

No errors occurred

End of status report

---- CUETools DB Plugin V2.1.3

[CTDB TOCID: cUGshg4SuRW395XWajwpwdEay3U-] disk not present in database, Submit result: cUGshg4SuRW395XWajwpwdEay3U- has been uploaded

==== Log checksum 1447F9DE11FF5FC7E8F3B382C538572903BEE66CC81C4C13B4421EF05D9A8BB3 ====


Код:
Код:
-----------------------

DON'T MODIFY THIS FILE

-----------------------

PERFORMER: auCDtect Task Manager, ver. 1.5.1RC6 build 1.5.1.7
Copyright (c) 2008-2010 y-soft. All rights reserved
http:/y-soft.org

ANALYZER: auCDtect: CD records authenticity detector, version 0.8.2
Copyright (c) 2004 Oleg Berngardt. All rights reserved.
Copyright (c) 2004 Alexander Djourik. All rights reserved.

FILE: 10. I See Stars - Filth Friends Unite.flac
  Size: 32865575 Hash: 632F67D243D208CFED5D7853C65F0E30 Accuracy: -m0
  Conclusion: CDDA 99%
  Signature: 8CC08366A78A29A83A1B26EEFD956636E0C771FE
FILE: 09. I See Stars - Electric Forest (feat. Cassadee Pope of Hey Monday).flac
  Size: 32288543 Hash: E9A4B086C93D6E206989966E222C7CAD Accuracy: -m0
  Conclusion: CDDA 100%
  Signature: 93909EBB4696CBC1F3A37C2EE783BE9E380F871C
FILE: 08. I See Stars - Summer Dies In Connersville.flac
  Size: 28072538 Hash: E30EB3DDC2E916A634C636895D824DA6 Accuracy: -m0
  Conclusion: CDDA 100%
  Signature: 220B6A9F6C447E2C8EA929FD0F873C5E2B86FFAD
FILE: 07. I See Stars - iBelieve.flac
  Size: 18831264 Hash: AC92F7A3AC4391CD6BA0E6827E74E24D Accuracy: -m0
  Conclusion: CDDA 100%
  Signature: 269FF0B2EB9E7BE7B6FECFB6DD70EE21DEF17BD6
FILE: 06. I See Stars - Mystery Wall.flac
  Size: 33990941 Hash: F28109EB94F55DE513CCDD1316CBB832 Accuracy: -m0
  Conclusion: CDDA 100%
  Signature: 812A1C2433A8E9739F21C690301EF744CD6498DC
FILE: 05. I See Stars - Underneath Every Smile.flac
  Size: 27854612 Hash: 93B77A5E68705B4311B3188865695C76 Accuracy: -m0
  Conclusion: CDDA 100%
  Signature: 9B4D43FB876A0B73FD7198C57BA1606D682F0706
FILE: 04. I See Stars - Endless Sky (feat. Danny Worsnop of Asking Alexandria).flac
  Size: 31672051 Hash: C95AF8C81B0616B36CFBDE446A19B943 Accuracy: -m0
  Conclusion: CDDA 100%
  Signature: CC13702379516EC8310D2C6728AD54B5F18BC05A
FILE: 03. I See Stars - Digital Renegade.flac
  Size: 26950459 Hash: CE4BCE464276A9FADEC266E8F0A0FC49 Accuracy: -m0
  Conclusion: CDDA 100%
  Signature: 91C83252B87581915A9337397EBF42D6C89BC563
FILE: 02. I See Stars - NZT48.flac
  Size: 36139564 Hash: 69BEED46002F591853F02796E4B0EE01 Accuracy: -m0
  Conclusion: CDDA 100%
  Signature: 0268521A96B7228EA8561B588B5B97901B7E9B2B
FILE: 01. I See Stars - Gnars Attacks.flac
  Size: 27825152 Hash: 0C0ED60685510447E937D3EC4F15643D Accuracy: -m0
  Conclusion: CDDA 100%
  Signature: E9D5ED1619FFA4C92C69B8573EDB55C91BBC8BE8


#777Треклист:

01. Initialization Sequence
02. Ten Thousand Feet
03. Follow Your Leader
04. New Demons
05. Violent Bounce (People Like You)
06. Murder Mitten
07. We're Not In Kansas Anymore
08. Judith Rules
09. Boris The Animal
10. Crystal Ball
11. When I Say Jump, You Say How High
12. Who Am I?

Продолжительность: 00:50:19


Код:
Код:
-----------------------

DON'T MODIFY THIS FILE

-----------------------

PERFORMER: auCDtect Task Manager, ver. 1.5.1RC6 build 1.5.1.7
Copyright (c) 2008-2010 y-soft. All rights reserved
http:/y-soft.org

ANALYZER: auCDtect: CD records authenticity detector, version 0.8.2
Copyright (c) 2004 Oleg Berngardt. All rights reserved.
Copyright (c) 2004 Alexander Djourik. All rights reserved.

FILE: 12. I See Stars - Who Am I_.flac
  Size: 36043015 Hash: F03630BEBE3B95C18A0FBA494F7F8A44 Accuracy: -m0
  Conclusion: CDDA 100%
  Signature: 656DE6C3E80FE6E8BD0DB333D3652EA65FCA898B
FILE: 11. I See Stars - When I Say Jump, You Say How High.flac
  Size: 26840391 Hash: 2D6E4B9B1DF2AC057F7CF784D8E417D1 Accuracy: -m0
  Conclusion: CDDA 100%
  Signature: 69D398605A65A621DAB64AD15BE89A6DDA4C4ABC
FILE: 10. I See Stars - Crystal Ball.flac
  Size: 30988018 Hash: 02B72004EBAB376345BC8A9074F2BCE8 Accuracy: -m0
  Conclusion: CDDA 99%
  Signature: A01A021A97EAD6CEE38FE83F771F9A3EF25EA7DC
FILE: 09. I See Stars - Boris The Animal.flac
  Size: 32756752 Hash: BDE496B39E97B1A07D5F66D6866ABD5D Accuracy: -m0
  Conclusion: CDDA 100%
  Signature: 8B10F0A262367A8C3D54E509CBE296B6538BED13
FILE: 08. I See Stars - Judith Rules.flac
  Size: 32681910 Hash: 6CFFE5A7B61C9B5B022E020D3421C532 Accuracy: -m0
  Conclusion: CDDA 100%
  Signature: F2E0097F63918E0AF94D6E3EFFA0FA9D712FA2B4
FILE: 07. I See Stars - We're Not In Kansas Anymore.flac
  Size: 37423174 Hash: 93F6B651468B21F4C149149D190CBCD5 Accuracy: -m0
  Conclusion: CDDA 100%
  Signature: CE0FF37387FB4DE16335823DD9913C93F607507A
FILE: 06. I See Stars - Murder Mitten.flac
  Size: 39706154 Hash: DB8206D4E06D68A41319CCA63E83A199 Accuracy: -m0
  Conclusion: CDDA 100%
  Signature: 09AF7E6EE9DC78FFAAADCF13F370949AAEFB60E3
FILE: 05. I See Stars - Violent Bounce (People Like You).flac
  Size: 40094472 Hash: 3917F474A8B28D01AD63713A5AFC5B8A Accuracy: -m0
  Conclusion: CDDA 99%
  Signature: 9673B4AD4F92E65A7EE7335E48BDEE211296BC49
FILE: 04. I See Stars - New Demons.flac
  Size: 38961066 Hash: A00C4FD20115A88CCAF0184DAB5B1919 Accuracy: -m0
  Conclusion: CDDA 100%
  Signature: 3ED5DFB6E80D27A2AEBC9BC84027F0B6EEFC9272
FILE: 03. I See Stars - Follow Your Leader.flac
  Size: 39973309 Hash: 532B8B21309E048D2C597ED82609243F Accuracy: -m0
  Conclusion: CDDA 100%
  Signature: 392BD0488A9068D4D52E5AB1CAF8C6346873117B
FILE: 02. I See Stars - Ten Thousand Feet.flac
  Size: 46702355 Hash: E6163F0BFD29E8226F9C587E90BC87C2 Accuracy: -m0
  Conclusion: CDDA 100%
  Signature: 0796AB05702E588C8AAB536F33833B9E93C56549
FILE: 01. I See Stars - Initialization Sequence.flac
  Size: 4718012 Hash: AB7B244D66203D82EA00B94904D54C18 Accuracy: -m0
  Conclusion: CDDA 99%
  Signature: 1D454C8B2EACB9E02141FD05DCEEE8B478200D31




Тип рипа: Tracks+.cue
Аудиокодек: FLAC
Битрейт аудио: lossless
Правила, инструкции, FAQ!!!
Торрент  Добавлен [16 мар 2014, 00:54] Скачать торрент Магнет ссылка
Скачать торрент
[ Размер 18.18 КБ / Просмотров 85 ]

Статус  
 
Размер  1.23 ГБ
Приватный: Нет (DHT включён)
.torrent скачан  4
 


     Отправить личное сообщение
   
Страница 1 из 1
Показать сообщения за:  Поле сортировки  
Начать новую тему Ответить на тему


Сейчас этот форум просматривают: нет зарегистрированных пользователей и гости: 0


Вы не можете начинать темы
Вы не можете отвечать на сообщения
Вы не можете редактировать свои сообщения
Вы не можете удалять свои сообщения
Вы не можете добавлять вложения

Перейти:  
cron