Начать новую тему Ответить на тему
Статистика раздачи
Размер: 648.02 МБ | Добавлен: 05 апр 2020, 22:05 | Скачали: 0
Сидеров: 1  [0 байт/сек]    Личеров: 0  [0 байт/сек]
Пред. тема | След. тема 

Автор
Сообщение

СообщениеДобавлено: 05 апр 2020, 22:05 

Ответить с цитатой 

Cosmo Dynamics - 2 Million Ways
Жанр: House, Deep House
Носитель: CD
Год издания: 2006?
Издатель (лейбл): ClubSounds.Ru
Аудиокодек: FLAC (*.flac)
Тип рипа: image+.cue
Продолжительность: 76:26
Источник: собственный рип
Наличие сканов в содержимом раздачи: да
Треклист:
01. Unknown Artist - Untitled (7:19)
02. Unknown Artist - Untitled (5:52)
03. De-Javu - I Can't Stop (5:06)
04. Love Selective - El Bimbo Latino (Axwell's Vocal Mix) (5:08)
05. Earth, Wind & Fire - September (Untitled Remix) (2:48)
06. Martin Solveig - Jealousy (5:28)
07. Flat Pack - Sweet Child O' Mine (3:54)
08. Armand Van Helden - Hear My Name (Acid Radio Edit) (7:03)
09. Distant Soundz - Stay (With The Sun Comin' Up) (Haute Cultures Dub) (5:22)
10. Unknown Artist - Untitled (5:14)
11. State Of Existence - I Feel Love (Pulse Remix) (5:05)
12. Unknown Artist - Untitled (5:15)
13. Unknown Artist - Untitled (4:39)
14. The Disco Boys Featuring Manfred Mann's Earth Band - For You (5:47)
15. C-Mos - 2 Million Ways (Axwell Remix) (5:26)
Код:
Exact Audio Copy V1.3 from 2. September 2016
EAC extraction logfile from 21. July 2019, 18:21
Cosmo Dynamics / 2 Million Ways
Used drive  : ASUS    SDRW-08D2S-U   Adapter: 9  ID: 0
Read mode               : Secure
Utilize accurate stream : Yes
Defeat audio cache      : Yes
Make use of C2 pointers : No
Read offset correction                      : 6
Overread into Lead-In and Lead-Out          : No
Fill up missing offset samples with silence : Yes
Delete leading and trailing silent blocks   : No
Null samples used in CRC calculations       : Yes
Used interface                              : Installed external ASPI interface
Used output format              : User Defined Encoder
Selected bitrate                : 128 kBit/s
Quality                         : High
Add ID3 tag                     : No
Command line compressor         : D:\flac-1.3.2-win\win64\flac.exe
Additional command line options : -V -8 -T "Date=%year%" -T "COMMENT=ripped by Andy aka yetiisyou" -T "Genre=%genre%" %source%
TOC of the extracted CD
     Track |   Start  |  Length  | Start sector | End sector
    ---------------------------------------------------------
        1  |  0:00.00 |  7:19.14 |         0    |    32938
        2  |  7:19.14 |  5:52.26 |     32939    |    59364
        3  | 13:11.40 |  5:05.42 |     59365    |    82281
        4  | 18:17.07 |  5:07.61 |     82282    |   105367
        5  | 23:24.68 |  2:47.71 |    105368    |   117963
        6  | 26:12.64 |  5:28.04 |    117964    |   142567
        7  | 31:40.68 |  3:54.21 |    142568    |   160138
        8  | 35:35.14 |  7:02.69 |    160139    |   191857
        9  | 42:38.08 |  5:22.05 |    191858    |   216012
       10  | 48:00.13 |  5:14.12 |    216013    |   239574
       11  | 53:14.25 |  5:04.62 |    239575    |   262436
       12  | 58:19.12 |  5:14.65 |    262437    |   286051
       13  | 63:34.02 |  4:39.02 |    286052    |   306978
       14  | 68:13.04 |  5:47.09 |    306979    |   333012
       15  | 74:00.13 |  5:26.22 |    333013    |   357484
Range status and errors
Selected range
     Filename E:\!Ripped by Andy aka yetiisyou\VA - Cosmo Dynamics - 2 Million Ways\Cosmo Dynamics - 2 Million Ways.wav
     Peak level 96.6 %
     Extraction speed 5.4 X
     Range quality 100.0 %
     Test CRC 1CF4FC50
     Copy CRC 1CF4FC50
     Copy OK
No errors occurred
AccurateRip summary
Track  1  accurately ripped (confidence 1)  [7328E1DF]  (AR v2)
Track  2  accurately ripped (confidence 1)  [42DB60BE]  (AR v2)
Track  3  accurately ripped (confidence 1)  [E443FF6E]  (AR v2)
Track  4  accurately ripped (confidence 1)  [59619706]  (AR v2)
Track  5  accurately ripped (confidence 1)  [7E11A3FE]  (AR v2)
Track  6  accurately ripped (confidence 1)  [5A9D5CC8]  (AR v2)
Track  7  accurately ripped (confidence 1)  [CF9ADA65]  (AR v2)
Track  8  accurately ripped (confidence 1)  [D8803630]  (AR v2)
Track  9  accurately ripped (confidence 1)  [7C0D2AC0]  (AR v2)
Track 10  accurately ripped (confidence 1)  [2BB51484]  (AR v2)
Track 11  accurately ripped (confidence 1)  [D6FB3A02]  (AR v2)
Track 12  accurately ripped (confidence 1)  [A4DF551B]  (AR v2)
Track 13  accurately ripped (confidence 1)  [6780300F]  (AR v2)
Track 14  accurately ripped (confidence 1)  [115A5A5A]  (AR v2)
Track 15  accurately ripped (confidence 1)  [BEC78D76]  (AR v2)
All tracks accurately ripped
End of status report
---- CUETools DB Plugin V2.1.6
[CTDB TOCID: VaRz.p2hGx5Tvo19ypFOA1S5sU0-] found
Submit result: VaRz.p2hGx5Tvo19ypFOA1S5sU0- has been confirmed
Track | CTDB Status
  1   | (1/1) Accurately ripped
  2   | (1/1) Accurately ripped
  3   | (1/1) Accurately ripped
  4   | (1/1) Accurately ripped
  5   | (1/1) Accurately ripped
  6   | (1/1) Accurately ripped
  7   | (1/1) Accurately ripped
  8   | (1/1) Accurately ripped
  9   | (1/1) Accurately ripped
 10   | (1/1) Accurately ripped
 11   | (1/1) Accurately ripped
 12   | (1/1) Accurately ripped
 13   | (1/1) Accurately ripped
 14   | (1/1) Accurately ripped
 15   | (1/1) Accurately ripped
==== Log checksum 471827F6645BCB29EBCE3FD0D2AD9A06B6F173A3F31726C9270353ACC84FCFFE ====
Код:
REM DISCID D5129E0F
REM COMMENT "ExactAudioCopy v1.3"
PERFORMER "Cosmo Dynamics"
TITLE "2 Million Ways"
REM COMPOSER ""
FILE "Cosmo Dynamics - 2 Million Ways.flac" WAVE
  TRACK 01 AUDIO
    TITLE "Untitled"
    PERFORMER "Unknown Artist"
    REM COMPOSER ""
    FLAGS DCP
    INDEX 01 00:00:00
  TRACK 02 AUDIO
    TITLE "Untitled"
    PERFORMER "Unknown Artist"
    REM COMPOSER ""
    FLAGS DCP
    INDEX 01 07:19:14
  TRACK 03 AUDIO
    TITLE "I Can't Stop"
    PERFORMER "De-Javu"
    REM COMPOSER ""
    FLAGS DCP
    INDEX 01 13:11:40
  TRACK 04 AUDIO
    TITLE "El Bimbo Latino (Axwell's Vocal Mix)"
    PERFORMER "Love Selective"
    REM COMPOSER ""
    FLAGS DCP
    INDEX 01 18:17:07
  TRACK 05 AUDIO
    TITLE "September (Untitled Remix)"
    PERFORMER "Earth, Wind & Fire"
    REM COMPOSER ""
    FLAGS DCP
    INDEX 01 23:24:68
  TRACK 06 AUDIO
    TITLE "Jealousy"
    PERFORMER "Martin Solveig"
    REM COMPOSER ""
    FLAGS DCP
    INDEX 01 26:12:64
  TRACK 07 AUDIO
    TITLE "Sweet Child O' Mine"
    PERFORMER "Flat Pack"
    REM COMPOSER ""
    FLAGS DCP
    INDEX 01 31:40:68
  TRACK 08 AUDIO
    TITLE "Hear My Name (Acid Radio Edit)"
    PERFORMER "Armand Van Helden"
    REM COMPOSER ""
    FLAGS DCP
    INDEX 01 35:35:14
  TRACK 09 AUDIO
    TITLE "Stay (With The Sun Comin' Up) (Haute Cultures Dub)"
    PERFORMER "Distant Soundz"
    REM COMPOSER ""
    FLAGS DCP
    INDEX 01 42:38:08
  TRACK 10 AUDIO
    TITLE "Untitled"
    PERFORMER "Unknown Artist"
    REM COMPOSER ""
    FLAGS DCP
    INDEX 01 48:00:13
  TRACK 11 AUDIO
    TITLE "I Feel Love (Pulse Remix)"
    PERFORMER "State Of Existence"
    REM COMPOSER ""
    FLAGS DCP
    INDEX 01 53:14:25
  TRACK 12 AUDIO
    TITLE "Untitled"
    PERFORMER "Unknown Artist"
    REM COMPOSER ""
    FLAGS DCP
    INDEX 01 58:19:12
  TRACK 13 AUDIO
    TITLE "Untitled"
    PERFORMER "Unknown Artist"
    REM COMPOSER ""
    FLAGS DCP
    INDEX 01 63:34:02
  TRACK 14 AUDIO
    TITLE "For You"
    PERFORMER "The Disco Boys Featuring Manfred Mann's Earth Band"
    REM COMPOSER ""
    FLAGS DCP
    INDEX 01 68:13:04
  TRACK 15 AUDIO
    TITLE "2 Million Ways (Axwell Remix)"
    PERFORMER "C-Mos"
    REM COMPOSER ""
    FLAGS DCP
    INDEX 01 74:00:13
Правила, инструкции, FAQ!!!
Торрент  Добавлен [05 апр 2020, 22:05] Скачать торрент Магнет ссылка
Скачать торрент
[ Размер 13.49 КБ / Просмотров 5 ]

Статус
Проверен 
 
Размер  648.02 МБ
Приватный: Нет (DHT включён)
.torrent скачан  0
 


     Отправить личное сообщение
   
Страница 1 из 1
Показать сообщения за:  Поле сортировки  
Начать новую тему Ответить на тему


Сейчас этот форум просматривают: нет зарегистрированных пользователей и гости: 0


Вы не можете начинать темы
Вы не можете отвечать на сообщения
Вы не можете редактировать свои сообщения
Вы не можете удалять свои сообщения
Вы не можете добавлять вложения

Перейти:  
cron