Начать новую тему Ответить на тему
Статистика раздачи
Размер: 1.74 ГБ | Добавлен: 16 мар 2014, 00:08 | Скачали: 0
Сидеров: 1  [0 байт/сек]    Личеров: 6  [0 байт/сек]
Пред. тема | След. тема 

Автор
Сообщение

СообщениеДобавлено: 16 мар 2014, 00:08 

Ответить с цитатой 

Henry Cow - 6 Albums (1973-1978) Discography



Жанр: Rock in Opposition/Jazz Rock/Avant-Rock/Prog Rock | Год: 1973-1978 | Страна: UK
Released: 1988-2004/US/UK | Label: East Side Digital/ReR Megacorp | Аудио кодек: FLAC
Тип рипа: tracks+.cue | Битрейт: lossless | Продолжительность: 05:38:58
Источник: abrelapuertaninyo/alex752 | Scans: в раздаче

Составленная из студентов Кембриджского университета группа появилась в атмосфере экспериментального поп-арта, уличного театра, хэппенингов и ситуационизма. Фред Фрит раньше изучал английскую литературу, участвовал в постановке пьес Брехта в студенческом театре и играл на гитаре и скрипке преимущественно фолк, блюз и рок; Тим Ходжкинсон занимался социальной антропологией и играл на органе, кларнете и саксофоне в молодежных постановках, сочетавших фри-джаз и современную поэзию. Они придерживались левых взглядов - участвовали в олдермастонских маршах, пикетировали студенческий городок во время забастовок, изучали "Капитал". Тим и Фред создали группу свободного присутствия, с дадаистским чувством юмора. Они играли песни типа Rock Me Baby, Hard Time, Killing Floor и др. Первые два своих концерта они дали с Pink Floyd, откуда только что ушел Барретт.
На фоне частых перемен в составе в ранний период наиболее ценным приобретением оказался Джон Гривз, бывший член Ray Irving Showband и большой поклонник Фрэнка Синатры. В это время начинает проявляться интерес лидеров группы к новаторскому и сложному материалу.
В 1971 году в составе появился Крис Катлер, работавший ранее в группах Psychedelic Poets и Louise и склонявшийся к электронным экспериментам. Катлер оказался лучшим организатором в группе и придал ее деятельности целеустремленный характер (он также вместе с Дэйвом Стюартом играл в 20-членном роковом оркестре Ottawa Music Company, исполнявшем широкоформатные композиции. Однажды даже весь состав Henry Cow принял участие в работе этого коллектива). Cow давали концерты в Кембридже, где аудиторию составили "молодые интеллектуалы". Времени для репетиций было сколько угодно. Группа, название которой, судя по всему, составило сокращение имени американского композитора Генри Коуэлла, оказавшего сильное влияние на вкусы Ходжкинсона, играла тогда довольно сложные по языку инструментальные пьесы, охарактеризовать которые довольно трудно, но в которых просматривалось влияние как представителей современной серьезной музыки (Барток, Мессиан и Кэйдж), так и джаза (Паркер и Колтрейн) и рока (Pink Floyd и Фрэнк Заппа).
В это время они написали и исполнили музыку для постановки трагедии Эврипида "Вакханки" в Уортфордском театре. На фестивале в Эдинбурге играли музыку для балета, а, вернувшись в Лондон, дали серию представлений. Впечатлившись новыми творческими возможностями, коллектив дополняет флейтист и тенор-саксофонист Джефф Ли.
Их политически левый, антикоммерческий уклон позволил ансамблю обойти стороной главный поток рокового бизнеса, но продержал группу в тени до ее приезда в Лондон в 1971 году, когда они отметились участием в музыкальном сопровождении знаменитого фильма Glastonbury Fayre.
Играя в основном для небольшой аудитории и в принципе избегая масштабных представлений, Henry Cow создали себе клан фанатичных приверженцев; решительно отличаясь от большинства ансамблей своей идеологической последовательностью, они обладали отличным пониманием музыки и выдающимся исполнительским мастерством. В марте 1973 года их можно было слышать в серии концертов под общим названием "Клуб исследователей", вместе с Лолом Коксхиллом, Айвором Катлером, Роном Гризином и другими авангардными музыкантами. В мае Henry Cow выступали на фестивале в Бате, а затем участвовали в постановке "Цилиндрических колоколов" в Куин-Элизабет-холле. Чуть позже они подписали контракт с фирмой Virgin, через месяц записали альбом. Об этом альбоме в роковой энциклопедии Логана без обиняков сказано: "Самый музыкально сложный рок-альбом всех времен".
В том же, 1973 году, группа написала и исполнила музыку к фильму "Буря", а затем отправилась с западногерманским ансамблем Faust в свое первое концертное турне по Великобритании и Нидерландам. Крис Катлер вспоминает: "Раньше мы писали музыку в основном для самих себя. Мы как бы бросали себе вызов: сможем ли мы сыграть это или нет? Однако во время турне мы почувствовали, что игра на пределе возможности еще не дает желаемой отдачи..."
Последняя фраза нуждается в небольшом комментарии. С одной стороны, музыканты поняли, что в своем экспериментальном музицировании они оторвались от широкого слушателя. С другой стороны, осенние гастроли 1973 года оказались первым серьезным столкновением ансамбля с машиной британского шоу-бизнеса, машиной, перемоловшей уже не одного новичка...
В конце года Ли решил уйти, поскольку жизнь по расписанию его не устраивала.
В январе следующего года к Cow присоединилась Линдси Купер (она родилась в марте 1951 года в Лондоне. Изучала музыку в Дартингтонгском колледже и Королевской музыкальной академии, приобрела опыт исполнения на фаготе, сопрано- и альт-саксофонах, флейте, фортепиано и аккордеоне, хотя позже сконцентрировала свои усилия на трех первых инструментах. После короткого периода работы в качестве исполнительницы на фаготе в оркестре обратилась к театру, популярной и импровизационной музыке сначала в группе Comus, а затем в Henry Cow) - и сразу же они приступают к сессиям по записи диска.
В 1974 году Cow сопровождают в турне по Европе Кэптена Бифхарта. Фрит выпустил вызвавший восхищение критики сольный диск, проиллюстрировавший серию статей о гитарной технике в Melody Maker. К концу того же года группа оформила тесный творческий контакт с международным ансамблем Slapp Happy. Эти две стилистически трудно совместимые группы выпустили общий диск. В комментирующем его тексте читаем: "Поле нашей деятельности не обязательно обречено на прославление Супермена, Банальщины или Великого Ухода от Реальности. Вполне возможно создание произведений конструктивно-критических. Наша цель - сделать музыку именно такой..."
Пластинка получилась честной, искренней и злой. С ядовитым сарказмом высмеиваются здесь те, кто активно поддерживает правящую элиту, надеясь в будущем самим добраться до "верха", приспособленцы и циники, слепой бунт одиночек. Вместе с тем во многих песнях преобладает пессимистическое, подавленное настроение. Многие песни чересчур заумны и просто непонятны. Чего, например, стоит рефрен песни Europe: "Витамин, промелькнувший в зеркале, может разрешить проблему Европы..."?
В июле 1975 года снова вместе со Slapp Happy ансамбль выпускает альбом - свое самое удачное произведение. Открывает альбом композиция Блэгвада и Мура War. Картины войны, рисующие конец мира, проникнутые ненавистью и страхом, соседствуют с издевками над "интеллектуальными" апологетами войны, утверждающими, что "насилие соединяет разобщенный разум". Песня завершается призывом к людям обратиться в пилигримов, чтобы пройти дружным маршем через поля, луга, храмы и библиотеки, преодолевая "чувство войны".
Затем следует 15-минутная композиция Тима Ходжкинсона Living in the Heart of the Beast. В начале песни дано развернутое полотно жизни современного общества - подавление умов, стресс, отчуждение. А где же выход? "Настало время идти вперед... Настало время определить направление нашего движения... Мы отнимаем у наших бывших героев и торговцев нашу работу, наши жизни, нашу историю... Избавимся от ненужных слов, порабощенных властителями капитала, которые они обращают в деньги и с помощью которых обманывают нас... Подумай - решись - и прими нашу сторону в борьбе за свободу. И пусть мы станем такими же сильными, как убежденными".
Вторая сторона альбома открывается инструментальной композицией Beginning: the Long March, переходящей в песню Фрита и Катлера Beautiful as the Moon - Terrible as an Army with Banners, которая завершается словами: "Угнетенный класс шагает в бой; класс, который выносил все, чей огонь украл капитал... Но теперь нас больше не одурачить - короли исчезнут и фабрики задышат свободно. Восходит заря. Внимание, поднимаются алые стяги. Вставайте, рабочие люди, вам принадлежит будущее. Кто был ничем, тот станет всем!". Сюита заканчивается инструментальной частью под названием Morning Star.
Но резонно задаться вопросом, особенно в ретроспекции через два десятка лет после выпуска программных дисков группы: не переходит ли бескомпромиссность Henry Cow в догматизм? Вопрос этот в свое время стал предметом широкой дискуссии в английской левой прессе. Публицист Дэвид Спарт поставил Henry Cow в пример прочим "антибуржуазным" группам, спокойно выколачивающим деньги из критикуемой ими системы. Оппоненты возразили ему, что, поскольку музыка Henry Cow не является массовой, объективно ее воздействие на слушателей все же меньше, чем, скажем, у куда менее радикальных Pink Floyd.
C музыкальной точки зрения описывать группу очень трудно: она часто ругалась с критиками, которые называли ее произведения "совершенно непостижимыми" - с другой стороны, ее трудно назвать гениальным прогрессивным коллективом, "мотором" рокового авангарда. Великолепные техники, члены группы использовали больше разнообразных инструментов, чем любой сопоставимый с нею ансамбль - от электрогитары до ксилофона и фагота. Это позволило Henry Cow достичь широчайшей амплитуды звучания. Диск называли лучшей пластинкой года, на нем, кроме перечисленных выше влияний, можно найти неожиданное сходство, особенно в вокальных партиях, с оперными работами немецких композиторов 20-х годов - от "Воццека" Альбана Берга до мюзиклов Курта Вайля и Бертольда Брехта. Возможно, ансамбль стоял тогда на пороге коммерческого успеха, но... позиция Henry Cow к этому времени была уже нетипичной для современных им поп-групп, бесповоротно бескомпромиссной и антикоммерческой. Недаром своему лучшему диску они предпослали эпиграф: "Искусство не зеркало, искусство - молот!".
Почти каждое лето Henry Cow выступали в Англии и во Франции на концертах, организуемых коммунистическими партиями этих стран. Их гастроли весной 1977 года прошли под лозунгом "Левое движение '77". Все сборы от этих концертов поступили в фонд британского комсомола, членами которого являлись Катлер и Ходжкинсон. "Хотя взгляды товарищей по группе не совсем идентичны, - говорил Катлер, - все мы занимаем последовательно антикапиталистическую позицию". В Италии Cow стал одной из наиболее популярных групп, а в Париже их выступления собирали не меньше народа, чем концерты Led Zeppelin. Однако "с финансовой точки зрения мы все время балансируем около края, - говорил Катлер. - Приходится разными способами подрабатывать, что, конечно, уменьшает количество времени для работы над нашими серьезными композициями..."
Группа вышла из фирмы Virgin, недовольная ее откровенной прагматической направленностью, записала на независимой фирме диск, но вскоре свернула свою деятельность.
Главный "последыш" Henry Cow, ансамбль Art Bears, группировался вокруг Ходжкинсона, Катлера и Дагмар. Он сумел себя проявить в крайне претенциозной и трудной для прослушивания музыке, являясь следующим логическим шагом в развитии концепций Henry Cow. Но если в музыке последних доминировали фри-джазовые тенденции, то Art Bears были расчетливы до крайности. Их три альбома примерно равны по качеству и могут быть рекомендованы тем, кому нравятся Magma, Univers Zero и Henry Cow. Они вполне концептуальны - первый из напоминает о политических марксистских декларациях Henry Cow, тематика второго завернута на искусство XVIII века, а последний является коллекцией историй о пиратах, минотаврах и глубинах человеческой психики.
Линдси Купер с 1977 года принимает активное участие в феминистском музыкальном движении, организуя женские группы. С начала 80-х годов регулярно выступает на европейской джазовой сцене, получив титул "лучшей английской женщины-композитора". Не оставляет и роковую музыку, записываясь с ансамблем Pedestrians Дэвида Томаса, в группе News from Babel (с Крисом Катлером, Дагмар Краузе и Зиной Паркинс). Талантливый композитор, она выпустила несколько сольных альбомов, работала над музыкой сопровождения к фильмам, ТВ и театральным постановкам.
В 1992 году ее "Концерт для сопрано-саксофона и струнных" был впервые исполнен в Лондоне Европейским Женским Оркестром, а "Песни для фагота и оркестра" представлены в Болонье.
Значительный интерес у критиков и авангардных (но не только) слушателей вызвала сольная работа гитариста Фреда Фрита. В то время как в составе Henry Cow Фрит играл на гитаре традиционным способом, к сольной работе он подошел совершенно анархически. Он создал собственную, ни на что не похожую технику, где в помощь музыканту берутся бумажные защипки-ластики, затяжки и пр. Активно и грамотно использовалась электронная обработка звука, в результате чего получились выделанные "с металлом" расщепленные слои, изломанные линии, гипнотическая образность.
Альбом Gravity, даже в какой-то степени танцевальный, был ориентирован на более широкую публику, но Фрит, еще и раньше великолепный, виртуозный и возбуждающий, сохранил здесь эти качества без ущемления духовного начала. Альбом Speechless собрал довольно пеструю компанию исполнителей - одни из французской анархической группы Etron Fou LeLoublan, а другие - гости из Нью-Йорка, члены ансамблей Material, Curlew и Dance.
Фрит сыграл также на диске 185 ансамбля Muffins и был его продюсером, а также участвовал в записях нью-йоркского коллектива Material. Во второй половине 80-х годов - в дуэте Skeleton Crew с американским мультиинструменталистом Т.Кори. И в начале 90-х он не потерял способности удивлять своих поклонников - сначала записал музыку для замечательного фильма Step Across the Border, а затем совместно с Франсуа-Мишелем Пезенти сочинил и записал оперу Helter Skelter, показанную во многих городах Европы и на крупнейших музыкальных фестивалях.
Джон Гривз ушел в National Health, а после ее распада в 1982 году сотрудничал с Питером Блэгвадом.
Катлер в 1982 году организовал с К.Андерсом, Х.Геббельсом и А.Хартом группу Cassiber, в музыке которой соединились эстетика ранних Henry Cow с сэмплерной технологией западногерманских музыкантов.
(Энциклопедия прогрессивного рока)
#777
Legend
Год: 1973
Released: 1991/US
Label: East Side Digital
Catalog#: ESD 80482
Продолжительность: 00:46:22
Трек лист:
01. Nirvana For Mice (4:54)
02. Amygdala (6:52)
03. Teenbeat Introduction (4:24)
04. Teenbeat (6:49)
05. Nirvana Reprise (1:14)
06. Extract From "With The Yellow Half-Moon And Blue Star" (2:24)
07. Teenbeat Reprise (5:02)
08. The Tenth Chaffinch (5:57)
09. Nine Funerals Of The Citizen King (5:27)
10. Bellycan (3:19)

Musicians:
- Geoff Leigh — saxes, flute, clarinet, recorder, voice
- Tim Hodgkinson — organ, piano, alto sax, clarinet, voice
- Fred Frith — guitars, violin, viola, piano, voice
- John Greaves — bass, piano, whistle, voice
- Chris Cutler — drums, toys, piano, whistle, voice
Код:
Код:
Exact Audio Copy V1.0 beta 1 from 15. November 2010

EAC extraction logfile from 9. June 2011, 21:21

Henry Cow / Legend

Used drive  : TSSTcorpCD/DVDW SH-S182D   Adapter: 1  ID: 0

Read mode               : Secure
Utilize accurate stream : Yes
Defeat audio cache      : Yes
Make use of C2 pointers : No

Read offset correction                      : 6
Overread into Lead-In and Lead-Out          : No
Fill up missing offset samples with silence : Yes
Delete leading and trailing silent blocks   : No
Null samples used in CRC calculations       : Yes
Used interface                              : Native Win32 interface for Win NT & 2000
Gap handling                                : Appended to previous track

Used output format              : User Defined Encoder
Selected bitrate                : 128 kBit/s
Quality                         : High
Add ID3 tag                     : No
Command line compressor         : C:\Program Files\Exact Audio Copy\Flac\flac.exe
Additional command line options : -V -8 -T "artist=%a" -T "title=%t" -T "album=%g" -T "date=%y" -T "tracknumber=%n" -T "genre=%m" %s

TOC of the extracted CD

     Track |   Start  |  Length  | Start sector | End sector
    ---------------------------------------------------------
        1  |  0:00.32 |  4:54.25 |        32    |    22106
        2  |  4:54.57 |  6:52.00 |     22107    |    53006
        3  | 11:46.57 |  4:23.50 |     53007    |    72781
        4  | 16:10.32 |  6:48.73 |     72782    |   103454
        5  | 22:59.30 |  1:14.12 |    103455    |   109016
        6  | 24:13.42 |  2:24.23 |    109017    |   119839
        7  | 26:37.65 |  5:01.42 |    119840    |   142456
        8  | 31:39.32 |  5:57.25 |    142457    |   169256
        9  | 37:36.57 |  5:26.38 |    169257    |   193744
       10  | 43:03.20 |  3:19.20 |    193745    |   208689

Track  1

     Filename D:\EAC Rips\Henry Cow - 1973 - Legend\01 - Nirvana for Mice.wav

     Pre-gap length  0:00:02.42

     Peak level 70.6 %
     Extraction speed 4.4 X
     Track quality 100.0 %
     Test CRC B5155333
     Copy CRC B5155333
     Accurately ripped (confidence 1)  [0A96CEF8]
     Copy OK

Track  2

     Filename D:\EAC Rips\Henry Cow - 1973 - Legend\02 - Amygdala.wav

     Peak level 57.9 %
     Extraction speed 5.3 X
     Track quality 100.0 %
     Test CRC F126297B
     Copy CRC F126297B
     Accurately ripped (confidence 1)  [AEC62B6E]
     Copy OK

Track  3

     Filename D:\EAC Rips\Henry Cow - 1973 - Legend\03 - Teenbeat Introduction.wav

     Peak level 73.2 %
     Extraction speed 5.0 X
     Track quality 99.9 %
     Test CRC D582CC59
     Copy CRC D582CC59
     Accurately ripped (confidence 1)  [1DCA69A2]
     Copy OK

Track  4

     Filename D:\EAC Rips\Henry Cow - 1973 - Legend\04 - Teenbeat.wav

     Peak level 76.4 %
     Extraction speed 6.4 X
     Track quality 100.0 %
     Test CRC 83F80943
     Copy CRC 83F80943
     Accurately ripped (confidence 1)  [0996BB62]
     Copy OK

Track  5

     Filename D:\EAC Rips\Henry Cow - 1973 - Legend\05 - nirvana Reprise.wav

     Pre-gap length  0:00:02.00

     Peak level 47.8 %
     Extraction speed 4.7 X
     Track quality 100.0 %
     Test CRC 009317D4
     Copy CRC 009317D4
     Accurately ripped (confidence 1)  [BD4042C4]
     Copy OK

Track  6

     Filename D:\EAC Rips\Henry Cow - 1973 - Legend\06 - Extract from ''With the Yellow Half-Moon and Blue Star''.wav

     Pre-gap length  0:00:02.00

     Peak level 71.5 %
     Extraction speed 5.9 X
     Track quality 100.0 %
     Test CRC CFEC29F9
     Copy CRC CFEC29F9
     Accurately ripped (confidence 1)  [41CBD77E]
     Copy OK

Track  7

     Filename D:\EAC Rips\Henry Cow - 1973 - Legend\07 - Teenbeat Reprise.wav

     Peak level 75.0 %
     Extraction speed 6.9 X
     Track quality 100.0 %
     Test CRC C3A1BEE4
     Copy CRC C3A1BEE4
     Accurately ripped (confidence 1)  [C35C4358]
     Copy OK

Track  8

     Filename D:\EAC Rips\Henry Cow - 1973 - Legend\08 - The Tenth Chaffinch.wav

     Peak level 74.7 %
     Extraction speed 7.4 X
     Track quality 100.0 %
     Test CRC E2515A25
     Copy CRC E2515A25
     Accurately ripped (confidence 1)  [AFBE9347]
     Copy OK

Track  9

     Filename D:\EAC Rips\Henry Cow - 1973 - Legend\09 - Nine Funerals of the Citizen King.wav

     Peak level 72.9 %
     Extraction speed 7.7 X
     Track quality 100.0 %
     Test CRC 89D6F9C2
     Copy CRC 89D6F9C2
     Accurately ripped (confidence 1)  [A459B4D4]
     Copy OK

Track 10

     Filename D:\EAC Rips\Henry Cow - 1973 - Legend\10 - Bellycan.wav

     Pre-gap length  0:00:01.86

     Peak level 78.3 %
     Extraction speed 6.4 X
     Track quality 99.9 %
     Test CRC A3A01EA0
     Copy CRC A3A01EA0
     Accurately ripped (confidence 1)  [29C47204]
     Copy OK

All tracks accurately ripped

No errors occurred

End of status report

==== Log checksum 8BA0D76408851179C8F8CA033670AC743D26B56D8CBF6A1AD35A883AC0B1B41D ====
Код:
Код:
-----------------------

DON'T MODIFY THIS FILE

-----------------------

PERFORMER: auCDtect Task Manager, ver. 1.6.0 RC1 build 1.6.0.1
Copyright (c) 2008-2010 y-soft. All rights reserved
http:/y-soft.org

ANALYZER: auCDtect: CD records authenticity detector, version 0.8.2
Copyright (c) 2004 Oleg Berngardt. All rights reserved.
Copyright (c) 2004 Alexander Djourik. All rights reserved.

FILE: 10 - Bellycan.flac
  Size: 21528421 Hash: 3194433C7860821DC359981D79475495 Accuracy: -m0
  Conclusion: CDDA 100%
  Signature: D62BFF2262AA80635E8D50B0B8748960F3D2E57F
FILE: 09 - Nine Funerals Of The Citizen King.flac
  Size: 34136672 Hash: 669AB0272696AEB2F193DF3ECE03C2A4 Accuracy: -m0
  Conclusion: CDDA 100%
  Signature: CC98B6025DB84D6E333351D4F6B1A8E0F9E315FB
FILE: 08 - The Tenth Chaffinch.flac
  Size: 33714613 Hash: 13C4661556232467B90083BBFD3221CC Accuracy: -m0
  Conclusion: CDDA 100%
  Signature: B1BE008FD0E32C78082223D5ED9DFED7A2C7B57E
FILE: 07 - Teenbeat Reprise.flac
  Size: 34454432 Hash: DBCB692917E04D27EAD5E0EDB5B18EF1 Accuracy: -m0
  Conclusion: CDDA 100%
  Signature: 7C524F0C842E92321176BDF22C015375AD6D22C4
FILE: 06 - Extract From With The Yellow Half-Moon And Blue Star.flac
  Size: 14996836 Hash: 85C671261EBAA635B77CB8A0F188692C Accuracy: -m0
  Conclusion: CDDA 100%
  Signature: 856B8DD04F2E4C876AD848A272AD43B4ABA95723
FILE: 05 - Nirvana Reprise.flac
  Size: 4996227 Hash: 162BFBA0DC48DC680FE51B75624F05E1 Accuracy: -m0
  Conclusion: CDDA 99%
  Signature: 5931BD0038CD1F218534CEBCBCEDF3B5C8A333B6
FILE: 04 - Teenbeat.flac
  Size: 41257261 Hash: 8409814E3D545D50E3291881773ABECE Accuracy: -m0
  Conclusion: CDDA 100%
  Signature: 6BF61ECED848158FEE3005E33EE9BF85F8EF61A1
FILE: 03 - Teenbeat Introduction.flac
  Size: 22474059 Hash: 5CC1207BD2D9B83B12ABE34DC42EB970 Accuracy: -m0
  Conclusion: CDDA 100%
  Signature: 7072EDA8B85ED3579B1420CD1725111C559CD892
FILE: 02 - Amygdala.flac
  Size: 40320629 Hash: BE2366D5EA972B31230D7F6ADD5D4E77 Accuracy: -m0
  Conclusion: CDDA 100%
  Signature: FEC0C1C7D2C3361F78F8C22663770AE2FA0F92DE
FILE: 01 - Nirvana For Mice.flac
  Size: 29593997 Hash: 35AFC5EA8E671A807C7C184A97C87CC4 Accuracy: -m0
  Conclusion: CDDA 100%
  Signature: BB94623C6FEA027B0786D965DF9FCB15F527461B
Код:
Код:
REM GENRE "RIO / Avant-Prog"
REM DATE 1973
REM DISCID 980ADE0A
PERFORMER "Henry Cow"
TITLE "Legend"
REM COMMENT "ExactAudioCopy v1.0b1"
FILE "01 - Nirvana For Mice.wav" WAVE
  TRACK 01 AUDIO
    TITLE "Nirvana For Mice"
    PERFORMER "Henry Cow"
    PREGAP 00:00:32
    INDEX 01 00:00:00
FILE "02 - Amygdala.wav" WAVE
  TRACK 02 AUDIO
    TITLE "Amygdala"
    PERFORMER "Henry Cow"
    INDEX 01 00:00:00
FILE "03 - Teenbeat Introduction.wav" WAVE
  TRACK 03 AUDIO
    TITLE "Teenbeat Introduction"
    PERFORMER "Henry Cow"
    INDEX 01 00:00:00
FILE "04 - Teenbeat.wav" WAVE
  TRACK 04 AUDIO
    TITLE "Teenbeat"
    PERFORMER "Henry Cow"
    INDEX 01 00:00:00
  TRACK 05 AUDIO
    TITLE "Nirvana Reprise"
    PERFORMER "Henry Cow"
    INDEX 00 06:46:73
FILE "05 - Nirvana Reprise.wav" WAVE
    INDEX 01 00:00:00
  TRACK 06 AUDIO
    TITLE "Extract From With The Yellow Half-Moon And Blue Star"
    PERFORMER "Henry Cow"
    INDEX 00 01:12:12
FILE "06 - Extract From With The Yellow Half-Moon And Blue Star.wav" WAVE
    INDEX 01 00:00:00
FILE "07 - Teenbeat Reprise.wav" WAVE
  TRACK 07 AUDIO
    TITLE "Teenbeat Reprise"
    PERFORMER "Henry Cow"
    INDEX 01 00:00:00
FILE "08 - The Tenth Chaffinch.wav" WAVE
  TRACK 08 AUDIO
    TITLE "The Tenth Chaffinch"
    PERFORMER "Henry Cow"
    INDEX 01 00:00:00
FILE "09 - Nine Funerals Of The Citizen King.wav" WAVE
  TRACK 09 AUDIO
    TITLE "Nine Funerals Of The Citizen King"
    PERFORMER "Henry Cow"
    INDEX 01 00:00:00
  TRACK 10 AUDIO
    TITLE "Bellycan"
    PERFORMER "Henry Cow"
    INDEX 00 05:24:48
FILE "10 - Bellycan.wav" WAVE
    INDEX 01 00:00:00
#777
Unrest
Год: 1974
Released: 1991/US
Label: East Side Digital
Catalog#: ESD 80492
Продолжительность: 00:51:11
Трек лист:
01. Bittern Storm Over Ulm (2:18)
02. Half Asleep; Half Awake (8:02)
03. Ruins (12:11)
04. Solemn Music (1:11)
05. Linguaphonie (5:32)
06. Upon Entering The Hotel Adlon (3:06)
07. Arcades (1:58)
08. Deluge (5:30)
09. The Glove (6:31)
10. Torchfire (4:52)

Musicians:
- Tim Hodgkinson — organ, alto sax, clarinet, piano
- Fred Frith — stereo guitar, violin, xylophone, piano
- John Greaves — bass, piano, voice
- Chris Cutler — drums
- Lindsay Cooper — bassoon, oboe, recorder, voice
Код:
Код:
Exact Audio Copy V0.99 prebeta 5 from 4. May 2009

EAC extraction logfile from 21. December 2010, 16:02

Henry Cow / Unrest (ESD edition)

Used drive  : PIONEER DVD-RW  DVR-111L   Adapter: 6  ID: 0

Read mode               : Secure
Utilize accurate stream : Yes
Defeat audio cache      : Yes
Make use of C2 pointers : No

Read offset correction                      : 48
Overread into Lead-In and Lead-Out          : Yes
Fill up missing offset samples with silence : Yes
Delete leading and trailing silent blocks   : No
Null samples used in CRC calculations       : Yes
Used interface                              : Installed external ASPI interface
Gap handling                                : Appended to previous track

Used output format              : User Defined Encoder
Selected bitrate                : 768 kBit/s
Quality                         : High
Add ID3 tag                     : No
Command line compressor         : C:\Program Files\Exact Audio Copy\FLAC\FLAC.EXE
Additional command line options : -V -8 -T "artist=%a" -T "title=%t" -T "album=%g" -T "date=%y" -T "tracknumber=%n"  %s

TOC of the extracted CD

     Track |   Start  |  Length  | Start sector | End sector
    ---------------------------------------------------------
        1  |  0:00.32 |  2:17.58 |        32    |    10364
        2  |  2:18.15 |  8:01.72 |     10365    |    46511
        3  | 10:20.12 | 12:11.28 |     46512    |   101364
        4  | 22:31.40 |  1:11.15 |    101365    |   106704
        5  | 23:42.55 |  5:32.20 |    106705    |   131624
        6  | 29:15.00 |  3:06.00 |    131625    |   145574
        7  | 32:21.00 |  1:57.70 |    145575    |   154419
        8  | 34:18.70 |  5:29.60 |    154420    |   179154
        9  | 39:48.55 |  6:31.25 |    179155    |   208504
       10  | 46:20.05 |  4:51.55 |    208505    |   230384

Track  1

     Filename U:\btr\rip\Henry Cow - Unrest (1974) [FLAC] {ESD 80492}\01 - Bittern Storm Over Ulm.wav

     Pre-gap length  0:00:02.32

     Peak level 19.1 %
     Track quality 100.0 %
     Test CRC 93231B6F
     Copy CRC 93231B6F
     Accurately ripped (confidence 3)  [3077AAD3]
     Copy OK

Track  2

     Filename U:\btr\rip\Henry Cow - Unrest (1974) [FLAC] {ESD 80492}\02 - Half Asleep; Half Awake.wav

     Pre-gap length  0:00:02.23

     Peak level 15.6 %
     Track quality 100.0 %
     Test CRC 0A2F61B2
     Copy CRC 0A2F61B2
     Accurately ripped (confidence 3)  [33D34124]
     Copy OK

Track  3

     Filename U:\btr\rip\Henry Cow - Unrest (1974) [FLAC] {ESD 80492}\03 - Ruins.wav

     Pre-gap length  0:00:03.17

     Peak level 17.9 %
     Track quality 100.0 %
     Test CRC 030EC1DE
     Copy CRC 030EC1DE
     Accurately ripped (confidence 3)  [F3DCDEC3]
     Copy OK

Track  4

     Filename U:\btr\rip\Henry Cow - Unrest (1974) [FLAC] {ESD 80492}\04 - Solemn Music.wav

     Pre-gap length  0:00:05.35

     Peak level 8.4 %
     Track quality 100.0 %
     Test CRC 8D7D1D76
     Copy CRC 8D7D1D76
     Accurately ripped (confidence 3)  [86D0EEBB]
     Copy OK

Track  5

     Filename U:\btr\rip\Henry Cow - Unrest (1974) [FLAC] {ESD 80492}\05 - Linguaphonie.wav

     Pre-gap length  0:00:00.10

     Peak level 19.1 %
     Track quality 100.0 %
     Test CRC BCDEFC2C
     Copy CRC BCDEFC2C
     Accurately ripped (confidence 3)  [3B61673F]
     Copy OK

Track  6

     Filename U:\btr\rip\Henry Cow - Unrest (1974) [FLAC] {ESD 80492}\06 - Upon Entering The Hotel Adlon.wav

     Pre-gap length  0:00:04.15

     Peak level 17.5 %
     Track quality 100.0 %
     Test CRC E5504479
     Copy CRC E5504479
     Accurately ripped (confidence 3)  [D62D04B9]
     Copy OK

Track  7

     Filename U:\btr\rip\Henry Cow - Unrest (1974) [FLAC] {ESD 80492}\07 - Arcades.wav

     Pre-gap length  0:00:05.30

     Peak level 13.3 %
     Track quality 100.0 %
     Test CRC 9E575F78
     Copy CRC 9E575F78
     Accurately ripped (confidence 3)  [BA3AA90E]
     Copy OK

Track  8

     Filename U:\btr\rip\Henry Cow - Unrest (1974) [FLAC] {ESD 80492}\08 - Deluge.wav

     Pre-gap length  0:00:02.26

     Peak level 15.2 %
     Track quality 100.0 %
     Test CRC 23727354
     Copy CRC 23727354
     Accurately ripped (confidence 3)  [314B5A49]
     Copy OK

Track  9

     Filename U:\btr\rip\Henry Cow - Unrest (1974) [FLAC] {ESD 80492}\09 - The Glove.wav

     Pre-gap length  0:00:05.70

     Peak level 30.1 %
     Track quality 100.0 %
     Test CRC 1975D661
     Copy CRC 1975D661
     Accurately ripped (confidence 3)  [DB770483]
     Copy OK

Track 10

     Filename U:\btr\rip\Henry Cow - Unrest (1974) [FLAC] {ESD 80492}\10 - Torchfire.wav

     Pre-gap length  0:00:04.68

     Peak level 36.5 %
     Track quality 100.0 %
     Test CRC 8C12255D
     Copy CRC 8C12255D
     Accurately ripped (confidence 3)  [07169587]
     Copy OK

All tracks accurately ripped

No errors occurred

End of status report
Код:
Код:
-----------------------

DON'T MODIFY THIS FILE

-----------------------

PERFORMER: auCDtect Task Manager, ver. 1.6.0 RC1 build 1.6.0.1
Copyright (c) 2008-2010 y-soft. All rights reserved
http:/y-soft.org

ANALYZER: auCDtect: CD records authenticity detector, version 0.8.2
Copyright (c) 2004 Oleg Berngardt. All rights reserved.
Copyright (c) 2004 Alexander Djourik. All rights reserved.

FILE: 10 - Torchfire.flac
  Size: 26424343 Hash: 8322A885311DB05376D1481D5BD4B8BF Accuracy: -m0
  Conclusion: CDDA 100%
  Signature: 0D0A004526261DAB2CE6B17630192B712A5CC0C2
FILE: 09 - The Glove.flac
  Size: 34870348 Hash: 0D0FF39B11016698FD6CC86DAFABD3E6 Accuracy: -m0
  Conclusion: CDDA 100%
  Signature: C8734201B2C69447176C93B434FCDADEDC682CE1
FILE: 08 - Deluge.flac
  Size: 22916980 Hash: C1F7DF6D512A1CC61B9BA1E0D5C2120E Accuracy: -m0
  Conclusion: CDDA 100%
  Signature: 980EAE89AE569CE924EA31D332BA75A3938DDBDB
FILE: 07 - Arcades.flac
  Size: 6660261 Hash: E7E246DD06FA9D9FB6FB0BDF5DB57098 Accuracy: -m0
  Conclusion: CDDA 100%
  Signature: CF1DC0FCA9C2CDC8D2C6DFBDC463A94C2ECA9B31
FILE: 06 - Upon Entering The Hotel Adlon.flac
  Size: 15060566 Hash: 01CAAAE8E7AECB906CE68FB5EAD1C532 Accuracy: -m0
  Conclusion: CDDA 100%
  Signature: 8ABF4FE3904C4FD9BD4CEA867D2B3027F6E0774C
FILE: 05 - Linguaphonie.flac
  Size: 20943379 Hash: 5EDA5282389F74C9390F1DAB7526BB95 Accuracy: -m0
  Conclusion: CDDA 100%
  Signature: EB5407E927FDC157EA72E69FF6E7CE081180C1C1
FILE: 04 - Solemn Music.flac
  Size: 4493976 Hash: F4384177BC39EE143D4133BA0529776E Accuracy: -m0
  Conclusion: CDDA 99%
  Signature: 95D2BCFA38A5D046985DA284E37A7F4211A799D9
FILE: 03 - Ruins.flac
  Size: 50286593 Hash: 1AC86C6EF0C827529C6EF1564E53880D Accuracy: -m0
  Conclusion: CDDA 99%
  Signature: F403641765F9E7A61A67C9C8D6314ED2ABB38DD1
FILE: 02 - Half Asleep; Half Awake.flac
  Size: 32707837 Hash: F5D8CDDAAAB5B36923AD589E95447F64 Accuracy: -m0
  Conclusion: CDDA 100%
  Signature: A53CD06279ECB84F0A6695C9E17091BF86845BD3
FILE: 01 - Bittern Storm Over Ulm.flac
  Size: 11634621 Hash: F90D92271FA2CB1AB2B198288B25A58B Accuracy: -m0
  Conclusion: CDDA 100%
  Signature: 6542D0FABE848172EA016FB66DE11DF42E0C3AEC
Код:
Код:
REM GENRE "RIO / Avant-Prog"
REM DATE 1974
REM DISCID 760BFF0A
REM COMMENT "ExactAudioCopy v0.99pb5"
PERFORMER "Henry Cow"
TITLE "Unrest"
FILE "01 - Bittern Storm Over Ulm.wav" WAVE
  TRACK 01 AUDIO
    TITLE "Bittern Storm Over Ulm"
    PERFORMER "Henry Cow"
    PREGAP 00:00:32
    INDEX 01 00:00:00
  TRACK 02 AUDIO
    TITLE "Half Asleep; Half Awake"
    PERFORMER "Henry Cow"
    INDEX 00 02:15:35
FILE "02 - Half Asleep; Half Awake.wav" WAVE
    INDEX 01 00:00:00
  TRACK 03 AUDIO
    TITLE "Ruins"
    PERFORMER "Henry Cow"
    INDEX 00 07:58:55
FILE "03 - Ruins.wav" WAVE
    INDEX 01 00:00:00
  TRACK 04 AUDIO
    TITLE "Solemn Music"
    PERFORMER "Henry Cow"
    INDEX 00 12:05:68
FILE "04 - Solemn Music.wav" WAVE
    INDEX 01 00:00:00
  TRACK 05 AUDIO
    TITLE "Linguaphonie"
    PERFORMER "Henry Cow"
    INDEX 00 01:11:05
FILE "05 - Linguaphonie.wav" WAVE
    INDEX 01 00:00:00
  TRACK 06 AUDIO
    TITLE "Upon Entering The Hotel Adlon"
    PERFORMER "Henry Cow"
    INDEX 00 05:28:05
FILE "06 - Upon Entering The Hotel Adlon.wav" WAVE
    INDEX 01 00:00:00
  TRACK 07 AUDIO
    TITLE "Arcades"
    PERFORMER "Henry Cow"
    INDEX 00 03:00:45
FILE "07 - Arcades.wav" WAVE
    INDEX 01 00:00:00
  TRACK 08 AUDIO
    TITLE "Deluge"
    PERFORMER "Henry Cow"
    INDEX 00 01:55:44
FILE "08 - Deluge.wav" WAVE
    INDEX 01 00:00:00
  TRACK 09 AUDIO
    TITLE "The Glove"
    PERFORMER "Henry Cow"
    INDEX 00 05:23:65
FILE "09 - The Glove.wav" WAVE
    INDEX 01 00:00:00
  TRACK 10 AUDIO
    TITLE "Torchfire"
    PERFORMER "Henry Cow"
    INDEX 00 06:26:32
FILE "10 - Torchfire.wav" WAVE
    INDEX 01 00:00:00
#777
Slapp Happy/Henry Cow - Desperate Straights
Год: 1975
Released: 2004/UK
Label: ReR Megacorp
Catalog#: ReR HCSH1
Продолжительность: 00:36:47
Трек лист:
01. Some Questions About Hats (1:54)
02. The Owl (2:18)
03. A Worm Is at Work (1:52)
04. Bad Alchemy (3:07)
05. Europa (2:49)
06. Desperate Straights (4:14)
07. Riding Tigers (2:02)
08. Apes in Capes (2:17)
09. Strayed (1:54)
10. Giants (1:57)
11. Excerpt from the Messiah (1:49)
12. In the Sickbay (2:09)
13. Caucasian Lullaby (8:25)

Musicians:
- Dagmar Krause - voice, wurlitzer (12)
- Peter Blegvad - guitar, voice
- Anthony Moore - piano
- Fred Frith - guitar, violin
- Chris Cutler - drums
- Tim Hodgkinson - clarinet, piano (13)
- John Greaves - bass guitar, piano (4)
with
- Muchsin Campbell - french horn
- Lindsay Cooper - oboe, bassoon
- Nick Evans - trombone
- Mongezi Feza - trumpet
- Geoff Leigh - flute
- Pierre Moerlen - percussion (5)
Код:
Код:
EAC extraction logfile from 8. June 2008, 21:08 for CD
Slapp Happy/Henry Cow / Desperate Straights

Used drive  : TEAC    CD-W224E   Adapter: 1  ID: 0
Read mode   : Secure with NO C2, accurate stream, disable cache
Read offset correction : 685
Overread into Lead-In and Lead-Out : No

Used output format : C:\Program Files\Flac\bin\flac.exe   (User Defined Encoder)
                     128 kBit/s
                     Additional command line options : -8 -V -T "ARTIST=%a" -T "TITLE=%t" -T "ALBUM=%g" -T "DATE=%y" -T "TRACKNUMBER=%n" -T "GENRE=%m" -T "COMMENT=EAC FLAC -8" %s

Other options      :
    Fill up missing offset samples with silence : Yes
    Delete leading and trailing silent blocks : No
    Installed external ASPI interface

Track  1
     Filename C:\konwersja\Slapp Happy-Henry Cow - Desperate Straights (1975) FLAC\01 - Some Questions About Hats.wav

     Pre-gap length  0:00:02.00

     Peak level 78.7 %
     Track quality 100.0 %
     Test CRC 2698F0CE
     Copy CRC 2698F0CE
     Copy OK

Track  2
     Filename C:\konwersja\Slapp Happy-Henry Cow - Desperate Straights (1975) FLAC\02 - The Owl.wav

     Pre-gap length  0:00:05.04

     Peak level 73.9 %
     Track quality 100.0 %
     Test CRC 5FDD5B33
     Copy CRC 5FDD5B33
     Copy OK

Track  3
     Filename C:\konwersja\Slapp Happy-Henry Cow - Desperate Straights (1975) FLAC\03 - A Worm Is at Work.wav

     Pre-gap length  0:00:09.18

     Peak level 96.4 %
     Track quality 100.0 %
     Test CRC 415D0CBB
     Copy CRC 415D0CBB
     Copy OK

Track  4
     Filename C:\konwersja\Slapp Happy-Henry Cow - Desperate Straights (1975) FLAC\04 - Bad Alchemy.wav

     Pre-gap length  0:00:01.24

     Peak level 89.5 %
     Track quality 100.0 %
     Test CRC 3CD6536C
     Copy CRC 3CD6536C
     Copy OK

Track  5
     Filename C:\konwersja\Slapp Happy-Henry Cow - Desperate Straights (1975) FLAC\05 - Europa.wav

     Pre-gap length  0:00:07.02

     Peak level 91.5 %
     Track quality 100.0 %
     Test CRC 5E1286A6
     Copy CRC 5E1286A6
     Copy OK

Track  6
     Filename C:\konwersja\Slapp Happy-Henry Cow - Desperate Straights (1975) FLAC\06 - Desperate Straights.wav

     Peak level 55.0 %
     Track quality 100.0 %
     Test CRC 7CE80CD9
     Copy CRC 7CE80CD9
     Copy OK

Track  7
     Filename C:\konwersja\Slapp Happy-Henry Cow - Desperate Straights (1975) FLAC\07 - Riding Tigers.wav

     Pre-gap length  0:00:01.65

     Peak level 96.1 %
     Track quality 100.0 %
     Test CRC FA165A8E
     Copy CRC FA165A8E
     Copy OK

Track  8
     Filename C:\konwersja\Slapp Happy-Henry Cow - Desperate Straights (1975) FLAC\08 - Apes in Capes.wav

     Pre-gap length  0:00:20.89

     Peak level 77.1 %
     Track quality 100.0 %
     Test CRC 09BE34D9
     Copy CRC 09BE34D9
     Copy OK

Track  9
     Filename C:\konwersja\Slapp Happy-Henry Cow - Desperate Straights (1975) FLAC\09 - Strayed.wav

     Pre-gap length  0:00:07.33

     Peak level 96.4 %
     Track quality 100.0 %
     Test CRC BB2C16CF
     Copy CRC BB2C16CF
     Copy OK

Track 10
     Filename C:\konwersja\Slapp Happy-Henry Cow - Desperate Straights (1975) FLAC\10 - Giants.wav

     Pre-gap length  0:00:04.28

     Peak level 50.0 %
     Track quality 100.0 %
     Test CRC B3B49B7F
     Copy CRC B3B49B7F
     Copy OK

Track 11
     Filename C:\konwersja\Slapp Happy-Henry Cow - Desperate Straights (1975) FLAC\11 - The Excerpt from the Messiah.wav

     Pre-gap length  0:00:01.61

     Peak level 96.4 %
     Track quality 100.0 %
     Test CRC 8B27899A
     Copy CRC 8B27899A
     Copy OK

Track 12
     Filename C:\konwersja\Slapp Happy-Henry Cow - Desperate Straights (1975) FLAC\12 - In the Sickbay.wav

     Pre-gap length  0:00:04.04

     Peak level 35.3 %
     Track quality 99.9 %
     Test CRC 2F909CA9
     Copy CRC 2F909CA9
     Copy OK

Track 13
     Filename C:\konwersja\Slapp Happy-Henry Cow - Desperate Straights (1975) FLAC\13 - Caucasian Lullaby.wav

     Pre-gap length  0:00:14.13

     Peak level 75.8 %
     Track quality 99.9 %
     Test CRC B94445E0
     Copy CRC B94445E0
     Copy OK

No errors occured

End of status report
Код:
Код:
-----------------------

DON'T MODIFY THIS FILE

-----------------------

PERFORMER: auCDtect Task Manager, ver. 1.6.0 RC1 build 1.6.0.1
Copyright (c) 2008-2010 y-soft. All rights reserved
http:/y-soft.org

ANALYZER: auCDtect: CD records authenticity detector, version 0.8.2
Copyright (c) 2004 Oleg Berngardt. All rights reserved.
Copyright (c) 2004 Alexander Djourik. All rights reserved.

FILE: 13 - Caucasian Lullaby.flac
  Size: 37593281 Hash: B27AB5E44AD0BBE6B658715464A68A2C Accuracy: -m0
  Conclusion: CDDA 100%
  Signature: 56F1D5DDFEC7E7C8B81D532A2BC39CD4C065EA84
FILE: 12 - In the Sickbay.flac
  Size: 10264207 Hash: 07953F3476E5CDFF9083CEC34CB5BA0E Accuracy: -m0
  Conclusion: CDDA 100%
  Signature: 77A00170426085C704604BF87F2908F3A94FCAD8
FILE: 11 - The Excerpt from the Messiah.flac
  Size: 11168960 Hash: E04D172705B31003935A8B8E6EC12636 Accuracy: -m0
  Conclusion: CDDA 100%
  Signature: 4AEDADA7CC79C7D3DD30517B075E7E022AE85117
FILE: 10 - Giants.flac
  Size: 9096038 Hash: C8DE68E7228C0F1EA83C4C569987E084 Accuracy: -m0
  Conclusion: CDDA 100%
  Signature: DA2C61D34ACDB69C380295708096D8A842B570D1
FILE: 09 - Strayed.flac
  Size: 12148192 Hash: A07377D49F465A95F73E80927CA3F718 Accuracy: -m0
  Conclusion: CDDA 100%
  Signature: AE8323A2D12142085A7B7CA6FE2851B62C35C8B6
FILE: 08 - Apes in Capes.flac
  Size: 14378209 Hash: 061940F3A9E609CF0A54945C313D011F Accuracy: -m0
  Conclusion: CDDA 100%
  Signature: 5457B690D340440FD7ADACBC50758B50BC7EB2E8
FILE: 07 - Riding Tigers.flac
  Size: 10910837 Hash: C41B99B66227BDD67664BBEA59E181C2 Accuracy: -m0
  Conclusion: CDDA 100%
  Signature: 613FBAE6343C69B0DB0A3E12432D2E98EC932E24
FILE: 06 - Desperate Straights.flac
  Size: 22726624 Hash: F184E1313E1482820E910FD7A770F383 Accuracy: -m0
  Conclusion: CDDA 100%
  Signature: F2AF0F69BB7CAE82B4B16FDAA8A3BF35346550E6
FILE: 05 - Europa.flac
  Size: 14588751 Hash: 62989FF68A08E40D4FC68068CACC080B Accuracy: -m0
  Conclusion: CDDA 100%
  Signature: 4D340A8F19982BD363D2E4CB2B4177CBA6ABAB38
FILE: 04 - Bad Alchemy.flac
  Size: 19174148 Hash: B5BCE088E27659658893AA7F62850829 Accuracy: -m0
  Conclusion: CDDA 100%
  Signature: 51B8DF4B3F16C224A0353CFEF8685D66925D3277
FILE: 03 - A Worm Is at Work.flac
  Size: 12289568 Hash: CF3ED2482085FA197E344B1B02998EE9 Accuracy: -m0
  Conclusion: CDDA 100%
  Signature: 8588FFCCD11D4BDFA3BBAE574BBB2C5E32A2E74F
FILE: 02 - The Owl.flac
  Size: 13190287 Hash: 828D18B4D389DCF46FECDAB374E611E5 Accuracy: -m0
  Conclusion: CDDA 100%
  Signature: 02C672233D6D705810C18D8C9BD12A1F73456386
FILE: 01 - Some Questions About Hats.flac
  Size: 11238517 Hash: 2EDB16DFBFBF5B94947ACBC5216B9486 Accuracy: -m0
  Conclusion: CDDA 100%
  Signature: 0508D291D99136545BCDCF28235B3F7675B57F09
Код:
Код:
REM GENRE "Progressive Rock"
REM DATE 1975
REM DISCID AB08A00D
REM COMMENT "ExactAudioCopy v0.95b3"
PERFORMER "Slapp Happy/Henry Cow"
TITLE "Desperate Straights"
FILE "01 - Some Questions About Hats.wav" WAVE
  TRACK 01 AUDIO
    TITLE "Some Questions About Hats  "
    PERFORMER "Slapp Happy/Henry Cow"
    FLAGS DCP
    INDEX 01 00:00:00
  TRACK 02 AUDIO
    TITLE "The Owl"
    PERFORMER "Slapp Happy/Henry Cow"
    FLAGS DCP
    INDEX 00 01:48:56
FILE "02 - The Owl.wav" WAVE
    INDEX 01 00:00:00
  TRACK 03 AUDIO
    TITLE "A Worm Is at Work"
    PERFORMER "Slapp Happy/Henry Cow"
    FLAGS DCP
    INDEX 00 02:08:52
FILE "03 - A Worm Is at Work.wav" WAVE
    INDEX 01 00:00:00
  TRACK 04 AUDIO
    TITLE "Bad Alchemy"
    PERFORMER "Slapp Happy/Henry Cow"
    FLAGS DCP
    INDEX 00 01:51:02
FILE "04 - Bad Alchemy.wav" WAVE
    INDEX 01 00:00:00
  TRACK 05 AUDIO
    TITLE "Europa"
    PERFORMER "Slapp Happy/Henry Cow"
    FLAGS DCP
    INDEX 00 02:59:52
FILE "05 - Europa.wav" WAVE
    INDEX 01 00:00:00
FILE "06 - Desperate Straights.wav" WAVE
  TRACK 06 AUDIO
    TITLE "Desperate Straights"
    PERFORMER "Slapp Happy/Henry Cow"
    FLAGS DCP
    INDEX 01 00:00:00
  TRACK 07 AUDIO
    TITLE "Riding Tigers "
    PERFORMER "Slapp Happy/Henry Cow"
    FLAGS DCP
    INDEX 00 04:12:56
FILE "07 - Riding Tigers.wav" WAVE
    INDEX 01 00:00:00
  TRACK 08 AUDIO
    TITLE "Apes in Capes"
    PERFORMER "Slapp Happy/Henry Cow"
    FLAGS DCP
    INDEX 00 01:41:35
FILE "08 - Apes in Capes.wav" WAVE
    INDEX 01 00:00:00
  TRACK 09 AUDIO
    TITLE "Strayed "
    PERFORMER "Slapp Happy/Henry Cow"
    FLAGS DCP
    INDEX 00 02:09:44
FILE "09 - Strayed.wav" WAVE
    INDEX 01 00:00:00
  TRACK 10 AUDIO
    TITLE "Giants "
    PERFORMER "Slapp Happy/Henry Cow"
    FLAGS DCP
    INDEX 00 01:50:07
FILE "10 - Giants.wav" WAVE
    INDEX 01 00:00:00
  TRACK 11 AUDIO
    TITLE "The Excerpt from the Messiah"
    PERFORMER "Slapp Happy/Henry Cow"
    FLAGS DCP
    INDEX 00 01:55:53
FILE "11 - The Excerpt from the Messiah.wav" WAVE
    INDEX 01 00:00:00
  TRACK 12 AUDIO
    TITLE "In the Sickbay"
    PERFORMER "Slapp Happy/Henry Cow"
    FLAGS DCP
    INDEX 00 01:45:25
FILE "12 - In the Sickbay.wav" WAVE
    INDEX 01 00:00:00
  TRACK 13 AUDIO
    TITLE "Caucasian Lullaby  "
    PERFORMER "Slapp Happy/Henry Cow"
    FLAGS DCP
    INDEX 00 01:55:25
FILE "13 - Caucasian Lullaby.wav" WAVE
    INDEX 01 00:00:00
#777
In Praise Of Learning
Год: 1975
Released: 1991/US
Label: East Side Digital
Catalog#: ESD 80502
Продолжительность: 00:44:01
Трек лист:
01. War (2:26)
02. Living In The Heart Of The Beast (15:31)
03. Beginning: The Long March (6:27)
04. Beautiful As The Moon; Terrible As An Army With Banners (7:02)
05. Morning Star (6:06)
06. Lovers Of Gold (6:29)

Musicians:
- Tim Hodgkinson — organ, clarinet, piano (2)
- Fred Frith — guitar, violin, xylophone, piano (4)
- John Greaves — bass, piano
- Chris Cutler — drums, rado
- Dagmar Krause — voice
- Peter Blegvad — guitar (2, 3), voice & clarinet (1)
- Lindsay Cooper — bassoon, oboe
- Geoff Leigh — soprano sax (1)
- Mongezi Feza — trumpet (1)
- Phil Becque — oscillator (4)
Код:
Код:
X Lossless Decoder version 20120609 (141.0)

XLD extraction logfile from 2012-06-21 12:31:04 -0400

Henry Cow / In Praise Of Learning (esd VERSION)

Used drive : HL-DT-ST DVDRW  GS21N (revision SA18)

Ripper mode             : XLD Secure Ripper
Disable audio cache     : OK for the drive with a cache less than 1375KiB
Make use of C2 pointers : NO
Read offset correction  : 667
Max retry count         : 100
Gap status              : Analyzed, Appended (except HTOA)

TOC of the extracted CD
     Track |   Start  |  Length  | Start sector | End sector
    ---------------------------------------------------------
        1  | 00:00:33 | 02:25:47 |        33    |    10954
        2  | 02:26:05 | 15:30:53 |     10955    |    80757
        3  | 17:56:58 | 06:26:45 |     80758    |   109752
        4  | 24:23:28 | 07:02:15 |    109753    |   141417
        5  | 31:25:43 | 06:05:52 |    141418    |   168844
        6  | 37:31:20 | 06:28:53 |    168845    |   197997

AccurateRip Summary (DiscID: 000ad480-003a205f-530a4f06)
    Track 01 : OK (v1, confidence 6/6)
    Track 02 : OK (v1, confidence 6/6)
    Track 03 : OK (v1, confidence 6/6)
    Track 04 : OK (v1, confidence 6/6)
    Track 05 : OK (v1, confidence 5/5)
    Track 06 : OK (v1, confidence 6/6)
        ->All tracks accurately ripped.

All Tracks
    Album gain               : 3.43 dB
    Peak                     : 0.666412
    Statistics
        Read error                           : 0
        Jitter error (maybe fixed)           : 0
        Retry sector count                   : 0
        Damaged sector count                 : 0

Track 01
    Filename : /Users/fanciulla/Henry Cow - In Praise Of Learning (esd VERSION) (1975) [FLAC]/01 War.flac
    Pre-gap length : 00:02:33

    Track gain               : 3.23 dB
    Peak                     : 0.382263
    CRC32 hash (test run)    : 594A0A47
    CRC32 hash               : 594A0A47
    CRC32 hash (skip zero)   : F05C3468
    AccurateRip v1 signature : 2870AF73
    AccurateRip v2 signature : 939BC0CC
        ->Accurately ripped (v1, confidence 6/6)
    Statistics
        Read error                           : 0
        Jitter error (maybe fixed)           : 0
        Retry sector count                   : 0
        Damaged sector count                 : 0

Track 02
    Filename : /Users/fanciulla/Henry Cow - In Praise Of Learning (esd VERSION) (1975) [FLAC]/02 Living In The Heart Of The Beast.flac
    Pre-gap length : 00:02:00

    Track gain               : 2.89 dB
    Peak                     : 0.447418
    CRC32 hash (test run)    : 5A080ED6
    CRC32 hash               : 5A080ED6
    CRC32 hash (skip zero)   : 498A20EC
    AccurateRip v1 signature : A67AA573
    AccurateRip v2 signature : 506E02C8
        ->Accurately ripped (v1, confidence 6/6)
    Statistics
        Read error                           : 0
        Jitter error (maybe fixed)           : 0
        Retry sector count                   : 0
        Damaged sector count                 : 0

Track 03
    Filename : /Users/fanciulla/Henry Cow - In Praise Of Learning (esd VERSION) (1975) [FLAC]/03 Beginning - The Long March.flac
    Pre-gap length : 00:02:00

    Track gain               : 2.84 dB
    Peak                     : 0.666412
    CRC32 hash (test run)    : 14F7823B
    CRC32 hash               : 14F7823B
    CRC32 hash (skip zero)   : 75CAEB4A
    AccurateRip v1 signature : BCC87012
    AccurateRip v2 signature : 254795B3
        ->Accurately ripped (v1, confidence 6/6)
    Statistics
        Read error                           : 0
        Jitter error (maybe fixed)           : 0
        Retry sector count                   : 0
        Damaged sector count                 : 0

Track 04
    Filename : /Users/fanciulla/Henry Cow - In Praise Of Learning (esd VERSION) (1975) [FLAC]/04 Beautiful As The Moon - Terrible As An Army With Banners.flac
    Pre-gap length : 00:02:00

    Track gain               : 2.77 dB
    Peak                     : 0.568787
    CRC32 hash (test run)    : AFEEA5A0
    CRC32 hash               : AFEEA5A0
    CRC32 hash (skip zero)   : 0BB74CDB
    AccurateRip v1 signature : C9598075
    AccurateRip v2 signature : 7BF3659B
        ->Accurately ripped (v1, confidence 6/6)
    Statistics
        Read error                           : 0
        Jitter error (maybe fixed)           : 0
        Retry sector count                   : 0
        Damaged sector count                 : 0

Track 05
    Filename : /Users/fanciulla/Henry Cow - In Praise Of Learning (esd VERSION) (1975) [FLAC]/05 Morning Star.flac
    Pre-gap length : 00:02:00

    Track gain               : 7.65 dB
    Peak                     : 0.450653
    CRC32 hash (test run)    : A9ACA8FC
    CRC32 hash               : A9ACA8FC
    CRC32 hash (skip zero)   : C24EAAB3
    AccurateRip v1 signature : C977F5FC
    AccurateRip v2 signature : 69ABECD0
        ->Accurately ripped (v1, confidence 5/5)
    Statistics
        Read error                           : 0
        Jitter error (maybe fixed)           : 0
        Retry sector count                   : 0
        Damaged sector count                 : 0

Track 06
    Filename : /Users/fanciulla/Henry Cow - In Praise Of Learning (esd VERSION) (1975) [FLAC]/06 Lovers Of Gold.flac
    Pre-gap length : 00:02:00

    Track gain               : 5.42 dB
    Peak                     : 0.394257
    CRC32 hash (test run)    : FD53627B
    CRC32 hash               : FD53627B
    CRC32 hash (skip zero)   : 3FD1C0F8
    AccurateRip v1 signature : 499986DE
    AccurateRip v2 signature : 6EBCBE45
        ->Accurately ripped (v1, confidence 6/6)
    Statistics
        Read error                           : 0
        Jitter error (maybe fixed)           : 0
        Retry sector count                   : 0
        Damaged sector count                 : 0

No errors occurred

End of status report
Код:
Код:
-----------------------

DON'T MODIFY THIS FILE

-----------------------

PERFORMER: auCDtect Task Manager, ver. 1.6.0 RC1 build 1.6.0.1
Copyright (c) 2008-2010 y-soft. All rights reserved
http:/y-soft.org

ANALYZER: auCDtect: CD records authenticity detector, version 0.8.2
Copyright (c) 2004 Oleg Berngardt. All rights reserved.
Copyright (c) 2004 Alexander Djourik. All rights reserved.

FILE: 06 - Lovers Of Gold.flac
  Size: 35299687 Hash: 9214510974E423AC77F8C2789D3665EE Accuracy: -m0
  Conclusion: CDDA 100%
  Signature: 67C257A2FB2FB1890C9B912B626AD0D1C8C4E95D
FILE: 05 - Morning Star.flac
  Size: 32927653 Hash: 265D6602658CFC5E7E0C336F3E1C50B1 Accuracy: -m0
  Conclusion: CDDA 100%
  Signature: 8272F93D1059187A273458AA5986D28950BC78CB
FILE: 04 - Beautiful As The Moon; Terrible As An Army With Banners.flac
  Size: 39359864 Hash: 3AD406BEB629F7BF782410F90F1EBC44 Accuracy: -m0
  Conclusion: CDDA 100%
  Signature: CE56698CECE8C04D30A2A322B5C452EECB05E6FB
FILE: 03 - Beginning, The Long March.flac
  Size: 37838154 Hash: 01AB00B2F65B677D64F375A6BAFEB229 Accuracy: -m0
  Conclusion: CDDA 100%
  Signature: 5E60EED2319BE790DE0D5C53317C638A68BCB027
FILE: 02 - Living In The Heart Of The Beast.flac
  Size: 86910594 Hash: 4E4AA7AC2CB1890DC4617028597BFAE6 Accuracy: -m0
  Conclusion: CDDA 100%
  Signature: F671205B1D8CDC827C40F634A9C2191CF914F785
FILE: 01 - War.flac
  Size: 15180715 Hash: 6EF3764959A8CC0CF493FF9D2099FE6B Accuracy: -m0
  Conclusion: CDDA 100%
  Signature: 09DDCAAA761052B6C454859C965C2A7167092E72
Код:
Код:
TITLE "In Praise Of Learning"
PERFORMER "Henry Cow"
REM GENRE "RIO / Avant-Prog"
REM DATE "1975"
REM DISCID 530A4F06
FILE "01 - War.wav" WAVE
  TRACK 01 AUDIO
    TITLE "War"
    PREGAP 00:00:33
    INDEX 01 00:00:00
  TRACK 02 AUDIO
    TITLE "Living In The Heart Of The Beast"
    INDEX 00 02:23:47
FILE "02 - Living In The Heart Of The Beast.wav" WAVE
    INDEX 01 00:00:00
  TRACK 03 AUDIO
    TITLE "Beginning: The Long March"
    INDEX 00 15:28:53
FILE "03 - Beginning, The Long March.wav" WAVE
    INDEX 01 00:00:00
  TRACK 04 AUDIO
    TITLE "Beautiful As The Moon; Terrible As An Army With Banners"
    INDEX 00 06:24:45
FILE "04 - Beautiful As The Moon; Terrible As An Army With Banners.wav" WAVE
    INDEX 01 00:00:00
  TRACK 05 AUDIO
    TITLE "Morning Star"
    INDEX 00 07:00:15
FILE "05 - Morning Star.wav" WAVE
    INDEX 01 00:00:00
  TRACK 06 AUDIO
    TITLE "Lovers Of Gold"
    INDEX 00 06:03:52
FILE "06 - Lovers Of Gold.wav" WAVE
    INDEX 01 00:00:00
#777
Concerts
Год: 1976
Released: 1995/US
Label: East Side Digital
Catalog#: ESD 80822/832
Продолжительность: 02:04:31
Трек лист:
CD1:
01. Beautiful As The Moon; Terrible As An Army With Banners / Nirvana For Mice / Ottawa Song / Gloria Gloom / Moon Reprise (22:46)
02. Bad Alchemy / Little Red Riding Hood Hits The Road (8:43)
03. Ruins (16:25)
04. Groningen (8:56)
05. Groningen Again (7:22)
CD2:
01. Oslo (28:54)
02. Off The Map (8:23)
03. Cafe Royal (3:20)
04. Keeping Warm In Winter / Sweet Heart Of Mine (10:00)
05. Udine (9:42)

Musicians:
- John Greaves - bass, voice, celeste, piano
- Tim Hodgkinson - organ, clarinet, alto sax, piano
- Fred Frith - guitar, piano, violin, xylophone
- Chris Cutler - drums, piano
- Lindsay Cooper - bassoon, flute, oboe, recorder, piano
- Geoff Leigh - tenor & soprano sax, flute, clarinet, recorder
- Dagmar Krause - voice, piano
- Robert Wyatt - voice

Код:
Код:
Exact Audio Copy V0.99 prebeta 5 from 4. May 2009

EAC extraction logfile from 6. January 2011, 22:28

Henry Cow / Concerts (Disc 1)

Used drive  : SONY    CD-RW  CRX216E   Adapter: 1  ID: 0

Read mode               : Secure
Utilize accurate stream : Yes
Defeat audio cache      : Yes
Make use of C2 pointers : No

Read offset correction                      : 6
Overread into Lead-In and Lead-Out          : No
Fill up missing offset samples with silence : Yes
Delete leading and trailing silent blocks   : No
Null samples used in CRC calculations       : Yes
Used interface                              : Installed external ASPI interface
Gap handling                                : Appended to previous track

Used output format              : User Defined Encoder
Selected bitrate                : 1024 kBit/s
Quality                         : High
Add ID3 tag                     : No
Command line compressor         : C:\Program Files\Exact Audio Copy\Flac\flac.exe
Additional command line options : -6 -V -T "ARTIST=%a" -T "TITLE=%t" -T "ALBUM=%g" -T "DATE=%y" -T "TRACKNUMBER=%n" -T "GENRE=%m" -T "COMMENT=%e" %s -o %d

TOC of the extracted CD

     Track |   Start  |  Length  | Start sector | End sector
    ---------------------------------------------------------
        1  |  0:00.00 | 22:46.07 |         0    |   102456
        2  | 22:46.07 |  8:42.38 |    102457    |   141644
        3  | 31:28.45 | 16:24.50 |    141645    |   215494
        4  | 47:53.20 |  8:55.55 |    215495    |   255674
        5  | 56:49.00 |  7:22.32 |    255675    |   288856

Track  1

     Filename E:\Henry Cow - Concerts\Henry Cow -  - Concerts (Disc 1) - 01 - Beautiful as the Moon; Terrible as an Army with Banners,Nirvana for Mice,Ottawa Song,Gloria Gloom,Moon Reprise.wav

     Pre-gap length  0:00:02.00

     Peak level 96.8 %
     Track quality 99.9 %
     Test CRC 4BA6A260
     Copy CRC 4BA6A260
     Accurately ripped (confidence 3)  [5DC2FE59]
     Copy OK

Track  2

     Filename E:\Henry Cow - Concerts\Henry Cow -  - Concerts (Disc 1) - 02 - Bad Alchemy,Little Red Riding Hood Hits the Road.wav

     Pre-gap length  0:00:03.42

     Peak level 80.1 %
     Track quality 100.0 %
     Test CRC E5BCF081
     Copy CRC E5BCF081
     Accurately ripped (confidence 3)  [BCEE36A9]
     Copy OK

Track  3

     Filename E:\Henry Cow - Concerts\Henry Cow -  - Concerts (Disc 1) - 03 - Ruins.wav

     Pre-gap length  0:00:02.58

     Peak level 94.4 %
     Track quality 100.0 %
     Test CRC EE9F4224
     Copy CRC EE9F4224
     Accurately ripped (confidence 3)  [EDB67BB1]
     Copy OK

Track  4

     Filename E:\Henry Cow - Concerts\Henry Cow -  - Concerts (Disc 1) - 04 - Groningen.wav

     Pre-gap length  0:00:01.43

     Peak level 80.8 %
     Track quality 100.0 %
     Test CRC 73A99415
     Copy CRC 73A99415
     Accurately ripped (confidence 4)  [BB3C82BA]
     Copy OK

Track  5

     Filename E:\Henry Cow - Concerts\Henry Cow -  - Concerts (Disc 1) - 05 - Groningen Again.wav

     Peak level 50.4 %
     Track quality 100.0 %
     Test CRC B36916AD
     Copy CRC B36916AD
     Accurately ripped (confidence 4)  [79EFB19E]
     Copy OK

All tracks accurately ripped

No errors occurred

End of status report
Код:
Код:
-----------------------

DON'T MODIFY THIS FILE

-----------------------

PERFORMER: auCDtect Task Manager, ver. 1.6.0 RC1 build 1.6.0.1
Copyright (c) 2008-2010 y-soft. All rights reserved
http:/y-soft.org

ANALYZER: auCDtect: CD records authenticity detector, version 0.8.2
Copyright (c) 2004 Oleg Berngardt. All rights reserved.
Copyright (c) 2004 Alexander Djourik. All rights reserved.

FILE: 05 - Groningen Again.flac
  Size: 37691560 Hash: F02000CA8BD4BBE6A5CCDA4C3FA29501 Accuracy: -m0
  Conclusion: CDDA 92%
  Signature: E10343D847EF0F4F56A64D86820795DDE1FC6DFF
FILE: 04 - Groningen.flac
  Size: 44229137 Hash: 7E6DEB1452B8D129353EA0AEA292BF01 Accuracy: -m0
  Conclusion: CDDA 87%
  Signature: 523A6C9075B72C78ADE2743FB1C67AD6AE8742E4
FILE: 03 - Ruins.flac
  Size: 90608261 Hash: 2B2274FE1A1F1CC91DC2828F2619B540 Accuracy: -m0
  Conclusion: CDDA 49%
  Signature: 81022384BFCB0D4840734E8B5C595C13152A5B19
FILE: 02 - Bad Alchemy.flac
  Size: 49837705 Hash: 128E2F3D05E58BCED4D97B5592E0274B Accuracy: -m0
  Conclusion: CDDA 54%
  Signature: 573AE04792EE540B193BB61120A5741C10955094
FILE: 01 - Beautiful As The Moon.flac
  Size: 148883955 Hash: 92A72D5133C8B078F1BB318DCF5C92DE Accuracy: -m0
  Conclusion: CDDA 100%
  Signature: 1AFA6C99E748210FD68093BD879C6BFD3E8BF1AF
Код:
Код:
REM GENRE "RIO / Avant-Prog"
REM DATE 1976
REM DISCID 450F0B05
REM COMMENT "ExactAudioCopy v0.99pb5"
PERFORMER "Henry Cow"
TITLE "Concerts (Disc 1)"
FILE "01 - Beautiful As The Moon.wav" WAVE
  TRACK 01 AUDIO
    TITLE "Beautiful As The Moon; Terrible As An Army With Banners / ..."
    PERFORMER "Henry Cow"
    INDEX 01 00:00:00
  TRACK 02 AUDIO
    TITLE "Bad Alchemy / Little Red Riding Hood Hits The Road"
    PERFORMER "Henry Cow"
    INDEX 00 22:42:40
FILE "02 - Bad Alchemy.wav" WAVE
    INDEX 01 00:00:00
  TRACK 03 AUDIO
    TITLE "Ruins"
    PERFORMER "Henry Cow"
    INDEX 00 08:39:55
FILE "03 - Ruins.wav" WAVE
    INDEX 01 00:00:00
  TRACK 04 AUDIO
    TITLE "Groningen"
    PERFORMER "Henry Cow"
    INDEX 00 16:23:07
FILE "04 - Groningen.wav" WAVE
    INDEX 01 00:00:00
FILE "05 - Groningen Again.wav" WAVE
  TRACK 05 AUDIO
    TITLE "Groningen Again"
    PERFORMER "Henry Cow"
    INDEX 01 00:00:00
Код:
Код:
Exact Audio Copy V0.99 prebeta 5 from 4. May 2009

EAC extraction logfile from 6. January 2011, 23:44

Henry Cow / Concerts (Disk 2)

Used drive  : SONY    CD-RW  CRX216E   Adapter: 1  ID: 0

Read mode               : Secure
Utilize accurate stream : Yes
Defeat audio cache      : Yes
Make use of C2 pointers : No

Read offset correction                      : 6
Overread into Lead-In and Lead-Out          : No
Fill up missing offset samples with silence : Yes
Delete leading and trailing silent blocks   : No
Null samples used in CRC calculations       : Yes
Used interface                              : Installed external ASPI interface
Gap handling                                : Appended to previous track

Used output format              : User Defined Encoder
Selected bitrate                : 1024 kBit/s
Quality                         : High
Add ID3 tag                     : No
Command line compressor         : C:\Program Files\Exact Audio Copy\Flac\flac.exe
Additional command line options : -6 -V -T "ARTIST=%a" -T "TITLE=%t" -T "ALBUM=%g" -T "DATE=%y" -T "TRACKNUMBER=%n" -T "GENRE=%m" -T "COMMENT=%e" %s -o %d

TOC of the extracted CD

     Track |   Start  |  Length  | Start sector | End sector
    ---------------------------------------------------------
        1  |  0:00.00 | 28:54.37 |         0    |   130086
        2  | 28:54.37 |  8:22.60 |    130087    |   167796
        3  | 37:17.22 |  3:19.63 |    167797    |   182784
        4  | 40:37.10 |  9:59.65 |    182785    |   227774
        5  | 50:37.00 |  9:42.15 |    227775    |   271439

Track  1

     Filename E:\Henry Cow - Concerts\Henry Cow -  - Concerts (Disk 2) - 01 - Oslo.wav

     Pre-gap length  0:00:02.00

     Peak level 84.7 %
     Track quality 100.0 %
     Test CRC 2D6BF7CC
     Copy CRC 2D6BF7CC
     Accurately ripped (confidence 2)  [22526F65]
     Copy OK

Track  2

     Filename E:\Henry Cow - Concerts\Henry Cow -  - Concerts (Disk 2) - 02 - Off the Map.wav

     Peak level 96.4 %
     Track quality 100.0 %
     Test CRC 65421AD9
     Copy CRC 65421AD9
     Accurately ripped (confidence 2)  [01C75F9D]
     Copy OK

Track  3

     Filename E:\Henry Cow - Concerts\Henry Cow -  - Concerts (Disk 2) - 03 - Cafe Royal.wav

     Pre-gap length  0:00:00.01

     Peak level 73.0 %
     Track quality 100.0 %
     Test CRC 0F2C9428
     Copy CRC 0F2C9428
     Accurately ripped (confidence 2)  [D1002FDB]
     Copy OK

Track  4

     Filename E:\Henry Cow - Concerts\Henry Cow -  - Concerts (Disk 2) - 04 - Keeping Warm in Winter,Sweet Heart of Mine.wav

     Pre-gap length  0:00:00.01

     Peak level 91.4 %
     Track quality 100.0 %
     Test CRC 8BA5A3C6
     Copy CRC 8BA5A3C6
     Accurately ripped (confidence 2)  [3632B397]
     Copy OK

Track  5

     Filename E:\Henry Cow - Concerts\Henry Cow -  - Concerts (Disk 2) - 05 - Udine.wav

     Pre-gap length  0:00:04.04

     Peak level 70.2 %
     Track quality 100.0 %
     Test CRC C08AD1B6
     Copy CRC C08AD1B6
     Accurately ripped (confidence 2)  [3817032C]
     Copy OK

All tracks accurately ripped

No errors occurred

End of status report
Код:
Код:
-----------------------

DON'T MODIFY THIS FILE

-----------------------

PERFORMER: auCDtect Task Manager, ver. 1.6.0 RC1 build 1.6.0.1
Copyright (c) 2008-2010 y-soft. All rights reserved
http:/y-soft.org

ANALYZER: auCDtect: CD records authenticity detector, version 0.8.2
Copyright (c) 2004 Oleg Berngardt. All rights reserved.
Copyright (c) 2004 Alexander Djourik. All rights reserved.

FILE: 05 - Udine.flac
  Size: 53295716 Hash: EFDCB99803418420645845D385F614C3 Accuracy: -m0
  Conclusion: CDDA 43%
  Signature: 941BC43442509DD532029D4383A82AFC979446A0
FILE: 04 - Keeping Warm In Winter.flac
  Size: 44100186 Hash: 8D18F4C1EE7D941217D61B24BF2E71A6 Accuracy: -m0
  Conclusion: CDDA 100%
  Signature: 08EA16436861E2597F6F54EBBAC00060C2C52DD0
FILE: 03 - Cafe Royal.flac
  Size: 13179338 Hash: CE659BA25057C19CAE0557D2FD7D5D49 Accuracy: -m0
  Conclusion: CDDA 100%
  Signature: 38DAAA6337945B92164C509D2852CFAFBD80ED5C
FILE: 02 - Off The Map.flac
  Size: 43060018 Hash: E33E66A537402B207FB1679403E60651 Accuracy: -m0
  Conclusion: CDDA 100%
  Signature: 19FE4948DE0A3ABD4B79E5B6FB91E0594AEEAEA8
FILE: 01 - Oslo.flac
  Size: 132409140 Hash: 728E522329652F057C2399B562280B70 Accuracy: -m0
  Conclusion: CDDA 42%
  Signature: 2347CE7ADE4B8724CE6F0AA1AF1CDC99503DC1AC
Код:
Код:
REM GENRE "RIO / Avant-Prog"
REM DATE 1976
REM DISCID 440E2305
REM COMMENT "ExactAudioCopy v0.99pb5"
PERFORMER "Henry Cow"
TITLE "Concerts (Disk 2)"
FILE "01 - Oslo.wav" WAVE
  TRACK 01 AUDIO
    TITLE "Oslo"
    PERFORMER "Henry Cow"
    INDEX 01 00:00:00
FILE "02 - Off The Map.wav" WAVE
  TRACK 02 AUDIO
    TITLE "Off The Map"
    PERFORMER "Henry Cow"
    INDEX 01 00:00:00
  TRACK 03 AUDIO
    TITLE "Cafe Royal"
    PERFORMER "Henry Cow"
    INDEX 00 08:22:59
FILE "03 - Cafe Royal.wav" WAVE
    INDEX 01 00:00:00
  TRACK 04 AUDIO
    TITLE "Keeping Warm In Winter / Sweet Heart Of Mine"
    PERFORMER "Henry Cow"
    INDEX 00 03:19:62
FILE "04 - Keeping Warm In Winter.wav" WAVE
    INDEX 01 00:00:00
  TRACK 05 AUDIO
    TITLE "Udine"
    PERFORMER "Henry Cow"
    INDEX 00 09:55:61
FILE "05 - Udine.wav" WAVE
    INDEX 01 00:00:00

#777
Western Culture
Год: 1978
Released: 1988/US
Label: East Side Digital
Catalog#: ESD 80852
Продолжительность: 00:36:07
Трек лист:
01. Industry (6:58)
02. The Decay Of Cities (6:56)
03. On The Raft (4:02)
04. Falling Away (7:39)
05. Gretels Tale (3:58)
06. Look Back (1:20)
07. 0,5 The Sky (5:14)

Musicians:
- Tim Hodgkinson — organs, alto sax, clarinet
- Lindsay Cooper — bassoon, oboe, soprano & sopranino sax, recorders
- Fred Frith — electric & acoustic guitars, bass
- Chris Cutler — drums, electronic drums, noise
Код:
Код:
Exact Audio Copy V1.0 beta 1 from 15. November 2010

EAC extraction logfile from 19. June 2011, 22:35

Henry Cow / Western Culture

Used drive  : HL-DT-STDVDRAM GH22NS50   Adapter: 2  ID: 0

Read mode               : Secure
Utilize accurate stream : Yes
Defeat audio cache      : Yes
Make use of C2 pointers : No

Read offset correction                      : 667
Overread into Lead-In and Lead-Out          : No
Fill up missing offset samples with silence : Yes
Delete leading and trailing silent blocks   : No
Null samples used in CRC calculations       : Yes
Used interface                              : Native Win32 interface for Win NT & 2000
Gap handling                                : Appended to previous track

Used output format              : User Defined Encoder
Selected bitrate                : 768 kBit/s
Quality                         : High
Add ID3 tag                     : No
Command line compressor         : C:\Program Files\Exact Audio Copy\Flac\FLAC.EXE
Additional command line options : -V -8 -T "artist=%a" -T "title=%t" -T "album=%g" -T "date=%y" -T "tracknumber=%n" -T "genre=%m" %s

TOC of the extracted CD

     Track |   Start  |  Length  | Start sector | End sector
    ---------------------------------------------------------
        1  |  0:00.32 |  6:58.08 |        32    |    31389
        2  |  6:58.40 |  6:55.45 |     31390    |    62559
        3  | 13:54.10 |  4:01.40 |     62560    |    80674
        4  | 17:55.50 |  7:38.50 |     80675    |   115074
        5  | 25:34.25 |  3:58.00 |    115075    |   132924
        6  | 29:32.25 |  1:19.72 |    132925    |   138921
        7  | 30:52.22 |  5:14.10 |    138922    |   162481

Track  1

     Filename F:\BT\Henry Cow - Western Culture (1978) FLAC\Henry Cow - 01 - Industry.wav

     Pre-gap length  0:00:02.32

     Peak level 93.1 %
     Extraction speed 1.1 X
     Track quality 100.0 %
     Test CRC D456D6A2
     Copy CRC D456D6A2
     Accurately ripped (confidence 5)  [ED274067]
     Copy OK

Track  2

     Filename F:\BT\Henry Cow - Western Culture (1978) FLAC\Henry Cow - 02 - The decay of cities.wav

     Pre-gap length  0:00:04.20

     Peak level 83.3 %
     Extraction speed 1.3 X
     Track quality 100.0 %
     Test CRC 8645C2E3
     Copy CRC 8645C2E3
     Accurately ripped (confidence 4)  [75F2A6CE]
     Copy OK

Track  3

     Filename F:\BT\Henry Cow - Western Culture (1978) FLAC\Henry Cow - 03 - On the raft.wav

     Pre-gap length  0:00:04.23

     Peak level 79.1 %
     Extraction speed 1.4 X
     Track quality 100.0 %
     Test CRC C793DABB
     Copy CRC C793DABB
     Accurately ripped (confidence 4)  [DBCFCBC1]
     Copy OK

Track  4

     Filename F:\BT\Henry Cow - Western Culture (1978) FLAC\Henry Cow - 04 - Falling away.wav

     Pre-gap length  0:00:03.70

     Peak level 100.0 %
     Extraction speed 1.6 X
     Track quality 100.0 %
     Test CRC F8380415
     Copy CRC F8380415
     Accurately ripped (confidence 4)  [2B5CEB45]
     Copy OK

Track  5

     Filename F:\BT\Henry Cow - Western Culture (1978) FLAC\Henry Cow - 05 - Gretels tale.wav

     Pre-gap length  0:00:06.10

     Peak level 71.2 %
     Extraction speed 1.6 X
     Track quality 100.0 %
     Test CRC BD3B16B8
     Copy CRC BD3B16B8
     Accurately ripped (confidence 4)  [AE911197]
     Copy OK

Track  6

     Filename F:\BT\Henry Cow - Western Culture (1978) FLAC\Henry Cow - 06 - Look back.wav

     Pre-gap length  0:00:03.18

     Peak level 44.8 %
     Extraction speed 1.2 X
     Track quality 100.0 %
     Test CRC AC8547CF
     Copy CRC AC8547CF
     Accurately ripped (confidence 4)  [AEDA8A57]
     Copy OK

Track  7

     Filename F:\BT\Henry Cow - Western Culture (1978) FLAC\Henry Cow - 07 - Half the sky.wav

     Pre-gap length  0:00:03.45

     Peak level 100.0 %
     Extraction speed 1.8 X
     Track quality 100.0 %
     Test CRC DFABB346
     Copy CRC DFABB346
     Accurately ripped (confidence 4)  [FD6705A4]
     Copy OK

All tracks accurately ripped

No errors occurred

End of status report

==== Log checksum E2B3628C5304A02AB66B238022F0C34102BCD547B16AEA91C3DC2B18EA301EAA ====
Код:
Код:
-----------------------

DON'T MODIFY THIS FILE

-----------------------

PERFORMER: auCDtect Task Manager, ver. 1.6.0 RC1 build 1.6.0.1
Copyright (c) 2008-2010 y-soft. All rights reserved
http:/y-soft.org

ANALYZER: auCDtect: CD records authenticity detector, version 0.8.2
Copyright (c) 2004 Oleg Berngardt. All rights reserved.
Copyright (c) 2004 Alexander Djourik. All rights reserved.

FILE: 07 - Half The Sky.flac
  Size: 30567813 Hash: 953DC824A5BB7C457B791EB477C75E04 Accuracy: -m0
  Conclusion: CDDA 100%
  Signature: C9A81C415B28BB41A7F8BF5872FA59DF6FFE3C3D
FILE: 06 - Look Back.flac
  Size: 5417857 Hash: 0B56B2B2EFD45EBA7767B36F5D252D44 Accuracy: -m0
  Conclusion: CDDA 100%
  Signature: 1FD99CD4510E34B83AC30B3203EB36455C90F6D1
FILE: 05 - Gretels Tale.flac
  Size: 24688486 Hash: 3A48A605B2A82B06FE652DADDA216210 Accuracy: -m0
  Conclusion: CDDA 99%
  Signature: 237DC2908DF083743A355112CE8C307638A0A2D0
FILE: 04 - Falling Away.flac
  Size: 52138355 Hash: 8FB23550C564E65D8F16CE8C5FCAF358 Accuracy: -m0
  Conclusion: CDDA 99%
  Signature: 3CF948987D72D1B8F5233EC9ECA6FCB64EB41952
FILE: 03 - On The Raft.flac
  Size: 28051696 Hash: F24BC26F0E9720C74F84DF0FE76C7C90 Accuracy: -m0
  Conclusion: CDDA 100%
  Signature: D6800BE8333934C2B68075B2B32B08E415200F24
FILE: 02 - The Decay Of Cities.flac
  Size: 35575708 Hash: CA22B424F0E8255715B4428DDFBBDB12 Accuracy: -m0
  Conclusion: CDDA 100%
  Signature: 43A148F2D16767B062D746CBBAF86BE6DF3DE265
FILE: 01 - Industry.flac
  Size: 44424159 Hash: EC4C5AAA3D7DBEA403A9303DD8C4DD8A Accuracy: -m0
  Conclusion: CDDA 100%
  Signature: E25C1B092C95830A4FE370EFB72E3859B432CCF9
Код:
Код:
REM GENRE "RIO / Avant-Prog"
REM DATE 1978
REM DISCID 5C087607
REM COMMENT "ExactAudioCopy v1.0b1"
PERFORMER "Henry Cow"
TITLE "Western Culture"
FILE "01 - Industry.wav" WAVE
  TRACK 01 AUDIO
    TITLE "Industry"
    PERFORMER "Henry Cow"
    PREGAP 00:00:32
    INDEX 01 00:00:00
  TRACK 02 AUDIO
    TITLE "The Decay Of Cities"
    PERFORMER "Henry Cow"
    INDEX 00 06:53:63
FILE "02 - The Decay Of Cities.wav" WAVE
    INDEX 01 00:00:00
  TRACK 03 AUDIO
    TITLE "On The Raft"
    PERFORMER "Henry Cow"
    INDEX 00 06:51:22
FILE "03 - On The Raft.wav" WAVE
    INDEX 01 00:00:00
  TRACK 04 AUDIO
    TITLE "Falling Away"
    PERFORMER "Henry Cow"
    INDEX 00 03:57:45
FILE "04 - Falling Away.wav" WAVE
    INDEX 01 00:00:00
  TRACK 05 AUDIO
    TITLE "Gretels Tale"
    PERFORMER "Henry Cow"
    INDEX 00 07:32:40
FILE "05 - Gretels Tale.wav" WAVE
    INDEX 01 00:00:00
  TRACK 06 AUDIO
    TITLE "Look Back"
    PERFORMER "Henry Cow"
    INDEX 00 03:54:57
FILE "06 - Look Back.wav" WAVE
    INDEX 01 00:00:00
  TRACK 07 AUDIO
    TITLE "Half The Sky"
    PERFORMER "Henry Cow"
    INDEX 00 01:16:27
FILE "07 - Half The Sky.wav" WAVE
    INDEX 01 00:00:00
Правила, инструкции, FAQ!!!
Торрент  Добавлен [16 мар 2014, 00:08] Скачать торрент Магнет ссылка
Скачать торрент
[ Размер 29.29 КБ / Просмотров 52 ]

Статус  
 
Размер  1.74 ГБ
Приватный: Нет (DHT включён)
.torrent скачан  0
 


     Отправить личное сообщение
   
Страница 1 из 1
Показать сообщения за:  Поле сортировки  
Начать новую тему Ответить на тему


Сейчас этот форум просматривают: нет зарегистрированных пользователей и гости: 0


Вы не можете начинать темы
Вы не можете отвечать на сообщения
Вы не можете редактировать свои сообщения
Вы не можете удалять свои сообщения
Вы не можете добавлять вложения

Перейти:  
cron
cron