Начать новую тему Ответить на тему
Статистика раздачи
Размер: 549.28 МБ | Добавлен: 01 апр 2019, 19:20 | Скачали: 3
Сидеров: 25  [0 байт/сек]    Личеров: 0  [0 байт/сек]
Пред. тема | След. тема 

Автор
Сообщение

СообщениеДобавлено: 01 апр 2019, 19:20 

Ответить с цитатой 

Hélène - Hélène
Формат записи/Источник записи: [TR24][OF]
Наличие водяных знаков: Нет
Год издания/переиздания диска: 2016
Жанр: French Pop
Издатель (лейбл): JLA Productions
Продолжительность: 46:19
Наличие сканов в содержимом раздачи: Только обложка альбома
Треклист:
01. Effacer le passé (3:15)
02. Je n’ai pas fait exprès (2:45)
03. Je pense à toi (3:26)
04. Didoudam (3:42)
05. Le temps qui passe (3:48)
06. Nos tendres années (2:51)
07. Des mots d’amour (3:43)
08. Le pays des amours oubliées (3:53)
09. Petit bout de chemin (2:50)
10. N’importe quoi (2:35)
11. Tu pourrais revenir (3:50)
12. Didoudam (Acoustique) (3:46)
13. Pour l’amour d’un garçon (3:01)
14. Nos tendres années (Choral) (2:54) 

 Контейнер: FLAC (*.flac)
Тип рипа: tracks
Разрядность: 24/44,1
Количество каналов: 2.0
Код:
foobar2000 1.3.9 / Dynamic Range Meter 1.1.1
log date: 2017-07-11 08:27:27
--------------------------------------------------------------------------------
Analyzed: Hélène / Hélène
--------------------------------------------------------------------------------
DR         Peak         RMS     Duration Track
--------------------------------------------------------------------------------
DR7       -0.76 dB    -8.91 dB      3:15 01-Effacer le passé
DR6       -0.76 dB    -7.91 dB      2:45 02-Je n’ai pas fait exprès
DR6       -0.76 dB    -8.37 dB      3:26 03-Je pense à toi
DR7       -0.76 dB    -8.39 dB      3:42 04-Didoudam
DR6       -0.76 dB    -8.48 dB      3:48 05-Le temps qui passe
DR6       -0.76 dB    -8.05 dB      2:51 06-Nos tendres années
DR5       -0.76 dB    -6.72 dB      3:43 07-Des mots d’amour
DR6       -0.76 dB    -7.72 dB      3:53 08-Le pays des amours oubliées
DR6       -0.76 dB    -7.71 dB      2:50 09-Petit bout de chemin
DR6       -0.76 dB    -7.61 dB      2:35 10-N’importe quoi
DR5       -0.76 dB    -7.21 dB      3:50 11-Tu pourrais revenir
DR10      -1.00 dB   -12.88 dB      3:46 12-Didoudam (Acoustique)
DR5       -0.76 dB    -6.88 dB      3:01 13-Pour l’amour d’un garçon
DR6       -0.76 dB    -7.90 dB      2:54 14-Nos tendres années (Choral)
--------------------------------------------------------------------------------
Number of tracks:  14
Official DR value: DR6
Samplerate:        44100 Hz
Channels:          2
Bits per sample:   24
Bitrate:           1657 kbps
Codec:             FLAC
================================================================================
Источник: qobuz.com[/spoiler]
Правила, инструкции, FAQ!!!
Торрент  Добавлен [01 апр 2019, 19:20] Скачать торрент Магнет ссылка
Скачать торрент
[ Размер 12.11 КБ / Просмотров 32 ]

Статус
Проверен 
 
Размер  549.28 МБ
Приватный: Нет (DHT включён)
.torrent скачан  3
 


     Отправить личное сообщение
   
Страница 1 из 1
Показать сообщения за:  Поле сортировки  
Начать новую тему Ответить на тему


Сейчас этот форум просматривают: нет зарегистрированных пользователей и гости: 0


Вы не можете начинать темы
Вы не можете отвечать на сообщения
Вы не можете редактировать свои сообщения
Вы не можете удалять свои сообщения
Вы не можете добавлять вложения

Перейти:  
cron