Начать новую тему Ответить на тему
Статистика раздачи
Размер: 518.62 МБ | Добавлен: 16 мар 2014, 00:41 | Скачали: 0
Сидеров: 0  [0 байт/сек]    Личеров: 0  [0 байт/сек]
Пред. тема | След. тема 

Автор
Сообщение

СообщениеДобавлено: 16 мар 2014, 00:41 

Ответить с цитатой 


Heights
- 2 Альбома





Год выпуска: 2011-2013
Жанр: Post-Hardcore
Продолжительность: 01:15:17
Тип издания: Альбом
Страна: United Kingdom



Треклист:

01. We Live Alone...
02. Eye For An Eye
03. Oceans
04. Letting Go
05. The Lost And Alone
06. Forget
07. Beneath The Skin
08. Dead Ends
09. Endings
10. ...And That's How We Die

Продолжительность: 00:35:45

Код:
Код:
Exact Audio Copy V1.0 beta 1 from 15. November 2010

EAC extraction logfile from 11. October 2011, 21:38

Heights / Dead Ends

Used drive  : TSSTcorpCDDVDW SH-S223F   Adapter: 0  ID: 0

Read mode               : Secure
Utilize accurate stream : Yes
Defeat audio cache      : Yes
Make use of C2 pointers : No

Read offset correction                      : 6
Overread into Lead-In and Lead-Out          : No
Fill up missing offset samples with silence : Yes
Delete leading and trailing silent blocks   : No
Null samples used in CRC calculations       : Yes
Used interface                              : Native Win32 interface for Win NT & 2000
Gap handling                                : Appended to previous track

Used output format              : User Defined Encoder
Selected bitrate                : 768 kBit/s
Quality                         : High
Add ID3 tag                     : No
Command line compressor         : C:\Program Files (x86)\Exact Audio Copy\Flac\flac.exe
Additional command line options : -V -8 -T "artist=%a" -T "title=%t" -T "album=%g" -T "date=%y" -T "tracknumber=%n" -T "genre=%m" %s

TOC of the extracted CD

     Track |   Start  |  Length  | Start sector | End sector
    ---------------------------------------------------------
        1  |  0:00.00 |  1:42.64 |         0    |     7713
        2  |  1:42.64 |  5:04.54 |      7714    |    30567
        3  |  6:47.43 |  5:32.09 |     30568    |    55476
        4  | 12:19.52 |  4:32.03 |     55477    |    75879
        5  | 16:51.55 |  3:46.60 |     75880    |    92889
        6  | 20:38.40 |  3:08.29 |     92890    |   107018
        7  | 23:46.69 |  1:35.70 |    107019    |   114213
        8  | 25:22.64 |  4:22.65 |    114214    |   133928
        9  | 29:45.54 |  2:47.44 |    133929    |   146497
       10  | 32:33.23 |  4:12.02 |    146498    |   165399

Track  1

     Filename C:\music\Heights - 2011 - Dead Ends\01 - We Live Alone....wav

     Pre-gap length  0:00:02.00

     Peak level 100.0 %
     Extraction speed 1.3 X
     Track quality 100.0 %
     Test CRC 0F5BCD1A
     Copy CRC 0F5BCD1A
     Accurately ripped (confidence 1)  [6BD7F08A]
     Copy OK

Track  2

     Filename C:\music\Heights - 2011 - Dead Ends\02 - Eye For An Eye.wav

     Peak level 100.0 %
     Extraction speed 1.8 X
     Track quality 100.0 %
     Test CRC 987A23A8
     Copy CRC 987A23A8
     Accurately ripped (confidence 1)  [4C1704D0]
     Copy OK

Track  3

     Filename C:\music\Heights - 2011 - Dead Ends\03 - Oceans.wav

     Peak level 100.0 %
     Extraction speed 2.1 X
     Track quality 100.0 %
     Test CRC FED90AAF
     Copy CRC FED90AAF
     Accurately ripped (confidence 1)  [3497F275]
     Copy OK

Track  4

     Filename C:\music\Heights - 2011 - Dead Ends\04 - Letting Go.wav

     Peak level 100.0 %
     Extraction speed 2.3 X
     Track quality 100.0 %
     Test CRC B388713A
     Copy CRC B388713A
     Accurately ripped (confidence 1)  [25D0DBE7]
     Copy OK

Track  5

     Filename C:\music\Heights - 2011 - Dead Ends\05 - The Lost And Alone.wav

     Peak level 100.0 %
     Extraction speed 2.0 X
     Track quality 99.9 %
     Test CRC 1E27C52B
     Copy CRC 1E27C52B
     Accurately ripped (confidence 1)  [892EF27A]
     Copy OK

Track  6

     Filename C:\music\Heights - 2011 - Dead Ends\06 - Forget.wav

     Peak level 100.0 %
     Extraction speed 2.4 X
     Track quality 100.0 %
     Test CRC 2E0D2782
     Copy CRC 2E0D2782
     Accurately ripped (confidence 1)  [48389C32]
     Copy OK

Track  7

     Filename C:\music\Heights - 2011 - Dead Ends\07 - Beneath The Skin.wav

     Peak level 100.0 %
     Extraction speed 2.1 X
     Track quality 100.0 %
     Test CRC 1E7D48FA
     Copy CRC 1E7D48FA
     Accurately ripped (confidence 1)  [9E7F824E]
     Copy OK

Track  8

     Filename C:\music\Heights - 2011 - Dead Ends\08 - Dead Ends.wav

     Peak level 100.0 %
     Extraction speed 2.7 X
     Track quality 100.0 %
     Test CRC 8CA7ACE5
     Copy CRC 8CA7ACE5
     Accurately ripped (confidence 1)  [9520F70C]
     Copy OK

Track  9

     Filename C:\music\Heights - 2011 - Dead Ends\09 - Endings.wav

     Peak level 100.0 %
     Extraction speed 2.6 X
     Track quality 100.0 %
     Test CRC A36B1B13
     Copy CRC A36B1B13
     Accurately ripped (confidence 1)  [B77F1D6E]
     Copy OK

Track 10

     Filename C:\music\Heights - 2011 - Dead Ends\10 - ...And That's How We Die.wav

     Peak level 100.0 %
     Extraction speed 2.3 X
     Track quality 99.9 %
     Test CRC 23EC8704
     Copy CRC 23EC8704
     Accurately ripped (confidence 1)  [5C7A9EB7]
     Copy OK

All tracks accurately ripped

No errors occurred

End of status report

==== Log checksum 0A5838EFDB63E9B0F30C75CE217009131D002E9E67C38A0047FFAC828CE1B9EB ====

Код:
Код:
-----------------------

DON'T MODIFY THIS FILE

-----------------------

PERFORMER: auCDtect Task Manager, ver. 1.5.1RC6 build 1.5.1.7
Copyright (c) 2008-2010 y-soft. All rights reserved
http:/y-soft.org

ANALYZER: auCDtect: CD records authenticity detector, version 0.8.2
Copyright (c) 2004 Oleg Berngardt. All rights reserved.
Copyright (c) 2004 Alexander Djourik. All rights reserved.

FILE: 10. Heights - ...And That's How We Die.flac
  Size: 29835489 Hash: 93138FFD52C6C705CFFB9A73A5015956 Accuracy: -m0
  Conclusion: CDDA 100%
  Signature: E37E1CFDD9DAE76EA384AC4B43416263B9009386
FILE: 09. Heights - Endings.flac
  Size: 22286006 Hash: 447A7506670F705D91014930992F0317 Accuracy: -m0
  Conclusion: CDDA 100%
  Signature: EC3C586A1EF208B0BFFE39FE2388A43381CA027D
FILE: 08. Heights - Dead Ends.flac
  Size: 33447558 Hash: 29A2D5345E9611D64F843474616CE32E Accuracy: -m0
  Conclusion: CDDA 100%
  Signature: 5AC9CE363F6368C987C94E4651343D74EBE5CDD3
FILE: 07. Heights - Beneath The Skin.flac
  Size: 11213115 Hash: 50FB7584D64ED9DF941CFDCA21C08DC7 Accuracy: -m0
  Conclusion: CDDA 100%
  Signature: C5ED282C3C6C513B4DA79F7F67496979B2BC5120
FILE: 06. Heights - Forget.flac
  Size: 25496462 Hash: 2DC94CDC6BBD53A7A934ECA5EE5F4270 Accuracy: -m0
  Conclusion: CDDA 100%
  Signature: F9AFCBD5D44FD5FC96547883C5E7E1C759D47294
FILE: 05. Heights - The Lost And Alone.flac
  Size: 29024868 Hash: C989C7439D112CB14CD838B275F2AFE3 Accuracy: -m0
  Conclusion: CDDA 100%
  Signature: 4B385CB2312CFCB9D11B0594B1ED31934766B038
FILE: 04. Heights - Letting Go.flac
  Size: 29928338 Hash: 8E6FDE8CF3A430D8A64745967E972912 Accuracy: -m0
  Conclusion: CDDA 99%
  Signature: F2281CC91DD90C6B76B8ABD2AAAA091622CD3FFA
FILE: 03. Heights - Oceans.flac
  Size: 44696449 Hash: A89237503B54423D91B682968F26728A Accuracy: -m0
  Conclusion: CDDA 100%
  Signature: DFC37B783130C568F22E644AFA443CAE73FAD32A
FILE: 02. Heights - Eye For An Eye.flac
  Size: 41003010 Hash: F999942F8A57DE223B99D2CDEE75CAE4 Accuracy: -m0
  Conclusion: CDDA 100%
  Signature: 3986C90F58A1A0590A00A3D1305D4D05DB2E1C3F
FILE: 01. Heights - We Live Alone.flac
  Size: 10613230 Hash: 7BA3C2DCC5E42671FB8F5105F5ABC4FB Accuracy: -m0
  Conclusion: CDDA 100%
  Signature: F0CEA77EA9673AE96ECF5F639730DC7850C3D68D


#777Треклист:

01. The Best Years
02. Eleven Eyes
03. March 1964
04. The Noble Lie
05. Windowless
06. In Transit
07. Stray Rats
08. Repeat
09. Wake Up, Fall Asleep
10. Forth / Here

Продолжительность: 00:38:32


Код:
Код:
Exact Audio Copy V1.0 beta 3 from 29. August 2011

EAC extraction logfile from 7. October 2013, 9:36

Heights / Old Lies For Young Lives

Used drive  : TSSTcorpCDDVDW SH-S223F   Adapter: 0  ID: 0

Read mode               : Secure
Utilize accurate stream : Yes
Defeat audio cache      : Yes
Make use of C2 pointers : No

Read offset correction                      : 6
Overread into Lead-In and Lead-Out          : No
Fill up missing offset samples with silence : Yes
Delete leading and trailing silent blocks   : No
Null samples used in CRC calculations       : Yes
Used interface                              : Native Win32 interface for Win NT & 2000
Gap handling                                : Appended to previous track

Used output format              : User Defined Encoder
Selected bitrate                : 768 kBit/s
Quality                         : High
Add ID3 tag                     : No
Command line compressor         : C:\Program Files (x86)\Exact Audio Copy\Flac\flac.exe
Additional command line options : -V -8 -T "artist=%artist%" -T "title=%title%" -T "album=%albumtitle%" -T "date=%year%" -T "tracknumber=%tracknr%" -T "genre=%genre%" %source%

TOC of the extracted CD

     Track |   Start  |  Length  | Start sector | End sector
    ---------------------------------------------------------
        1  |  0:00.00 |  3:18.34 |         0    |    14883
        2  |  3:18.34 |  3:14.40 |     14884    |    29473
        3  |  6:32.74 |  3:55.13 |     29474    |    47111
        4  | 10:28.12 |  4:14.09 |     47112    |    66170
        5  | 14:42.21 |  5:13.14 |     66171    |    89659
        6  | 19:55.35 |  4:29.71 |     89660    |   109905
        7  | 24:25.31 |  2:58.58 |    109906    |   123313
        8  | 27:24.14 |  1:46.47 |    123314    |   131310
        9  | 29:10.61 |  3:02.71 |    131311    |   145031
       10  | 32:13.57 |  6:18.45 |    145032    |   173426

Track  1

     Filename C:\music\Heights - 2013 - Old Lies For Young Lives\01 - The Best Years.wav

     Pre-gap length  0:00:02.00

     Peak level 100.0 %
     Extraction speed 4.2 X
     Track quality 100.0 %
     Test CRC BFC4E437
     Copy CRC BFC4E437
     Track not present in AccurateRip database
     Copy OK

Track  2

     Filename C:\music\Heights - 2013 - Old Lies For Young Lives\02 - Eleven Eyes.wav

     Peak level 100.0 %
     Extraction speed 3.6 X
     Track quality 99.9 %
     Test CRC 3F03F9D8
     Copy CRC 3F03F9D8
     Track not present in AccurateRip database
     Copy OK

Track  3

     Filename C:\music\Heights - 2013 - Old Lies For Young Lives\03 - March 1964.wav

     Peak level 100.0 %
     Extraction speed 5.0 X
     Track quality 100.0 %
     Test CRC E065EE10
     Copy CRC E065EE10
     Track not present in AccurateRip database
     Copy OK

Track  4

     Filename C:\music\Heights - 2013 - Old Lies For Young Lives\04 - The Noble Lie.wav

     Peak level 100.0 %
     Extraction speed 5.5 X
     Track quality 100.0 %
     Test CRC 4E1D21B2
     Copy CRC 4E1D21B2
     Track not present in AccurateRip database
     Copy OK

Track  5

     Filename C:\music\Heights - 2013 - Old Lies For Young Lives\05 - Windowless.wav

     Peak level 100.0 %
     Extraction speed 6.1 X
     Track quality 100.0 %
     Test CRC 35955478
     Copy CRC 35955478
     Track not present in AccurateRip database
     Copy OK

Track  6

     Filename C:\music\Heights - 2013 - Old Lies For Young Lives\06 - In Transit.wav

     Peak level 100.0 %
     Extraction speed 6.3 X
     Track quality 100.0 %
     Test CRC 5A6FDE22
     Copy CRC 5A6FDE22
     Track not present in AccurateRip database
     Copy OK

Track  7

     Filename C:\music\Heights - 2013 - Old Lies For Young Lives\07 - Stray Rats.wav

     Peak level 100.0 %
     Extraction speed 6.3 X
     Track quality 100.0 %
     Test CRC 6CB3DD56
     Copy CRC 6CB3DD56
     Track not present in AccurateRip database
     Copy OK

Track  8

     Filename C:\music\Heights - 2013 - Old Lies For Young Lives\08 - Repeat.wav

     Peak level 94.9 %
     Extraction speed 5.7 X
     Track quality 100.0 %
     Test CRC C2BB0657
     Copy CRC C2BB0657
     Track not present in AccurateRip database
     Copy OK

Track  9

     Filename C:\music\Heights - 2013 - Old Lies For Young Lives\09 - Wake Up, Fall Asleep.wav

     Peak level 100.0 %
     Extraction speed 5.1 X
     Track quality 99.9 %
     Test CRC 6710FC7E
     Copy CRC 6710FC7E
     Track not present in AccurateRip database
     Copy OK

Track 10

     Filename C:\music\Heights - 2013 - Old Lies For Young Lives\10 - Forth , Here.wav

     Peak level 100.0 %
     Extraction speed 7.7 X
     Track quality 100.0 %
     Test CRC EB95BA12
     Copy CRC EB95BA12
     Track not present in AccurateRip database
     Copy OK

None of the tracks are present in the AccurateRip database

No errors occurred

End of status report

---- CUETools DB Plugin V2.1.3

[CTDB TOCID: LzhQlA761S2H8W9CNBeDWrv0d9A-] found, Submit result: already submitted
[f0fb6bbd] (1/1) Accurately ripped

==== Log checksum 9036BD559AD3B8A5C882CB597FE3D0707F13EFCB4D269B331B78EEDBD55C2096 ====


Код:
Код:
-----------------------

DON'T MODIFY THIS FILE

-----------------------

PERFORMER: auCDtect Task Manager, ver. 1.5.1RC6 build 1.5.1.7
Copyright (c) 2008-2010 y-soft. All rights reserved
http:/y-soft.org

ANALYZER: auCDtect: CD records authenticity detector, version 0.8.2
Copyright (c) 2004 Oleg Berngardt. All rights reserved.
Copyright (c) 2004 Alexander Djourik. All rights reserved.

FILE: 10. Heights - Forth _ Here.flac
  Size: 42151799 Hash: 5CEB53537DF6A04F7ECE516E9173438F Accuracy: -m0
  Conclusion: CDDA 100%
  Signature: D3ED0633F6491D7F138F4E264216A209C83B8325
FILE: 09. Heights - Wake Up, Fall Asleep.flac
  Size: 19485606 Hash: 757E2510494D6268D8B106FB11DC7798 Accuracy: -m0
  Conclusion: CDDA 100%
  Signature: CBCDD95453F3AB21C293B93EF909E83C761ECFFA
FILE: 08. Heights - Repeat.flac
  Size: 9291474 Hash: 0A1B0D423E127B2001C4CBD6CCC49595 Accuracy: -m0
  Conclusion: CDDA 100%
  Signature: B3CE13420EB15C7D4F3F9123C005806775537379
FILE: 07. Heights - Stray Rats.flac
  Size: 21782027 Hash: 8618C7133083DD9655AFCEC09A16F9FC Accuracy: -m0
  Conclusion: CDDA 100%
  Signature: DE83AB493ED85A1EBC22D1CDB08FA1393F6E65C9
FILE: 06. Heights - In Transit.flac
  Size: 32782886 Hash: AE53D802C4372404E3FD6D0C6657DF9D Accuracy: -m0
  Conclusion: CDDA 100%
  Signature: 49790D5D6309D51E7B215EE5E10D83A58CB040CB
FILE: 05. Heights - Windowless.flac
  Size: 29210571 Hash: 13BE0353CED76446D7BA241C6E6802BC Accuracy: -m0
  Conclusion: CDDA 99%
  Signature: 8C494184AB2627F27F73A800B7E23A607C192B08
FILE: 04. Heights - The Noble Lie.flac
  Size: 30957953 Hash: 98AAAE5DB7DF8EC298848E787DAEA8BB Accuracy: -m0
  Conclusion: CDDA 100%
  Signature: E5B04BE8FE40ADE809FCBCA664A278667FFBEE66
FILE: 03. Heights - March 1964.flac
  Size: 29207724 Hash: 002F05DACFDBCFA56F30F74FDF4D6488 Accuracy: -m0
  Conclusion: CDDA 100%
  Signature: DF6C92B12C862ACD4BA7C111612BDC800E0BC485
FILE: 02. Heights - Eleven Eyes.flac
  Size: 25632456 Hash: 147580B3B60FC885584925155C423602 Accuracy: -m0
  Conclusion: CDDA 100%
  Signature: F4358EE6C01BE9D88024E576D8DEE52BC09DAAE4
FILE: 01. Heights - The Best Years.flac
  Size: 25001090 Hash: BC03F65929F3EB3B91877BDBFEAB94EB Accuracy: -m0
  Conclusion: CDDA 100%
  Signature: A94AB2B6125AD2F66C4495022503D802E79F40FF




Тип рипа: Tracks+.cue
Аудиокодек: FLAC
Битрейт аудио: lossless
Правила, инструкции, FAQ!!!
Торрент  Добавлен [16 мар 2014, 00:41] Скачать торрент Магнет ссылка
Скачать торрент
[ Размер 13.17 КБ / Просмотров 29 ]

Статус  
 
Размер  518.62 МБ
Приватный: Нет (DHT включён)
.torrent скачан  0
 


     Отправить личное сообщение
   
Страница 1 из 1
Показать сообщения за:  Поле сортировки  
Начать новую тему Ответить на тему


Сейчас этот форум просматривают: нет зарегистрированных пользователей и гости: 0


Вы не можете начинать темы
Вы не можете отвечать на сообщения
Вы не можете редактировать свои сообщения
Вы не можете удалять свои сообщения
Вы не можете добавлять вложения

Перейти:  
cron
cron