Начать новую тему Ответить на тему
Статистика раздачи
Размер: 4.33 ГБ | Добавлен: 24 авг 2016, 14:19 | Скачали: 0
Сидеров: 5  [0 байт/сек]    Личеров: 2  [0 байт/сек]
Пред. тема | След. тема 

Автор
Сообщение

СообщениеДобавлено: 24 авг 2016, 14:19 

Ответить с цитатой 

Iron Maiden / Powerslave (Russia / Holland)

Жанр: Heavy Metal
Носитель: LP
Год выпуска: 1992/1984
Лейбл: Gala Records/EMI
Страна-производитель:Russia / Holland
Аудио кодек: FLAC
Тип рипа: image+.cue
Формат записи: 32/192
Формат раздачи: 24/192
Продолжительность: 00:51:00
Источник оцифровки: автором раздачи
Код класса состояния винила: EX+/EX+
Устройство воспроизведения:Pioneer PL-30L
Головка звукоснимателя: Denon DL-103M
Предварительный усилитель: NAD PP2iM
АЦП: Xonar Essence STX
Программа-оцифровщик: Sound Forge Pro 10
Обработка:подчистил паузы
Iron Maiden
A1 - Aces High 4:31
A2 - 2 Minutes To Midnight 6:03
A3 - Losfer Words (Big 'Orra) 4:14
A4 - Flash Of The Blade 4:04
A5 - The Duellists 6:07

B1 - Back In The Village 5:02
B2 - Powerslave 7:09
B3 - Rime Of The Ancient Mariner 13:36



NO
Credits:
Artwork By [Illustrations] – Derek Riggs
Bass – Steve Harris
Design – Derek Riggs, Iron Maiden, Rod Smallwood
Drums – Nicko McBrain
Guitar – Adrian Smith (2), Dave Murray (2)
Mastered By – George Marino
Mixed By, Producer, Engineer – Martin Birch
Photography – Moshe Brakha
Technician [Assistant Engineer] – Bruce Buchalter, Frankie Gibson*
Vocals – Bruce Dickinson
Notes:
Recorded at Compass Point, Nassau, Bahamas.
Mixed at Electric Ladyland, New York.

All tracks published by Zomba Music Publishers Ltd.
® 1984 Original Sound Recordings made by EMI Records Ltd.
© 1984 Iron Maiden (Holdings) Ltd.
Barcode and Other Identifiers
Matrix / Runout (A): EJ 2402001-A-01 THERE'S ONLY ONE!!!
Matrix / Runout (B): EJ 2402001 TB-1-1-
Companies etc:
Marketed By – EMI
Manufactured By – EMI
Distributed By – EMI
Printed By – EMI Services Benelux B.V.
Credits:
Bass – Steve Harris
Design – Derek Riggs, Iron Maiden, Rod Smallwood
Drums – Nicko McBrain
Illustration [Sleeve Illustrations] – Derek "The Master" Riggs*
Lead Guitar, Rhythm Guitar – Adrian Smith (2), Dave Murray (2)
Mastered By – George Marino
Photography By – Moshe Brakha
Producer, Engineer, Mixed By – Martin "Pool Bully" Birch*
Vocals – Bruce Dickinson
Notes:
Printed in Holland by EMI Services Benelux B.V., Uden.
Barcode and Other Identifiers
Barcode: 509992402001
Rights Society: GEMA STEMRA
Label Code: LC 0542
Matrix / Runout (A): EJ 2402001-A-01 THERE'S ONLY ONE!!!
Matrix / Runout (B): EJ 2402001 TB-1
REM GENRE Heavy Metal
REM DATE 1992
REM yamata6839_VINYLRIP
REM Gala Records – 1C 064-24 0200 1A, Russia
REM Mixed By, Producer, Engineer – Martin Birch
REM Mastered By – George Marino
PERFORMER "Iron Maiden"
TITLE "Powerslave"
FILE "A_Powerslave_Gala.flac" WAVE
TRACK 01 AUDIO
TITLE "Aces High"
PERFORMER "Iron Maiden"
INDEX 01 00:00:00
TRACK 02 AUDIO
TITLE "2 Minutes To Midnight"
PERFORMER "Iron Maiden"
INDEX 01 04:34:14
TRACK 03 AUDIO
TITLE "Losfer Words (Big 'Orra)"
PERFORMER "Iron Maiden"
INDEX 01 10:38:30
TRACK 04 AUDIO
TITLE "Flash Of The Blade"
PERFORMER "Iron Maiden"
INDEX 01 14:53:30
TRACK 05 AUDIO
TITLE "The Duellists"
PERFORMER "Iron Maiden"
INDEX 01 18:58:53
FILE "B_Powerslave_Gala.flac" WAVE
TRACK 06 AUDIO
TITLE "Back In The Village"
PERFORMER "Iron Maiden"
INDEX 01 00:00:00
TRACK 07 AUDIO
TITLE "Powerslave"
PERFORMER "Iron Maiden"
INDEX 01 05:07:53
TRACK 08 AUDIO
TITLE "Rime Of The Ancient Mariner"
PERFORMER "Iron Maiden"
INDEX 01 12:19:05
REM GENRE Heavy Metal
REM DATE 1984
REM yamata6839_VINYLRIP
REM EMI – 1C 064 24 0200 1, Holland
REM Mixed By, Producer, Engineer – Martin Birch
REM Mastered By – George Marino
PERFORMER "Iron Maiden"
TITLE "Powerslave"
FILE "A_Powerslave_Hol.flac" WAVE
TRACK 01 AUDIO
TITLE "Aces High"
PERFORMER "Iron Maiden"
INDEX 01 00:00:00
TRACK 02 AUDIO
TITLE "2 Minutes To Midnight"
PERFORMER "Iron Maiden"
INDEX 01 04:34:56
TRACK 03 AUDIO
TITLE "Losfer Words (Big 'Orra)"
PERFORMER "Iron Maiden"
INDEX 01 10:38:54
TRACK 04 AUDIO
TITLE "Flash Of The Blade "
PERFORMER "Iron Maiden"
INDEX 01 14:54:03
TRACK 05 AUDIO
TITLE "The Duellists"
PERFORMER "Iron Maiden"
INDEX 01 18:59:55
FILE "B_Powerslave_Hol.flac" WAVE
TRACK 06 AUDIO
TITLE "Back In The Village"
PERFORMER "Iron Maiden"
INDEX 01 00:00:00
TRACK 07 AUDIO
TITLE "Powerslave"
PERFORMER "Iron Maiden"
INDEX 01 05:02:74
TRACK 08 AUDIO
TITLE "Rime Of The Ancient Mariner"
PERFORMER "Iron Maiden"
INDEX 01 12:14:12
Все материалы представлены исключительно в ознакомительных целях
Правила, инструкции, FAQ!!!
Торрент  Добавлен [24 авг 2016, 14:19] Скачать торрент Магнет ссылка
Скачать торрент
[ Размер 22.9 КБ / Просмотров 18 ]

Статус
Проверен 
 
Размер  4.33 ГБ
Приватный: Нет (DHT включён)
.torrent скачан  0
 


     Отправить личное сообщение
   
Страница 1 из 1
Показать сообщения за:  Поле сортировки  
Начать новую тему Ответить на тему


Сейчас этот форум просматривают: нет зарегистрированных пользователей и гости: 0


Вы не можете начинать темы
Вы не можете отвечать на сообщения
Вы не можете редактировать свои сообщения
Вы не можете удалять свои сообщения
Вы не можете добавлять вложения

Перейти:  
cron