Начать новую тему Ответить на тему
Статистика раздачи
Размер: 360.33 МБ | Добавлен: 16 мар 2014, 00:16 | Скачали: 0
Сидеров: 0  [0 байт/сек]    Личеров: 0  [0 байт/сек]
Пред. тема | След. тема 

Автор
Сообщение

СообщениеДобавлено: 16 мар 2014, 00:16 

Ответить с цитатой 

Hawklords - Dream (2013)

Год: 2013
Жанр: Psychedelic, Space Rock, Progressive Rock
Лейбл: Hawklords
Каталог #: LORDS0913
Продолжительность: 00:48:50
Кодек: FLAC
Тип рипа: image + .cue
Битрейт: Lossless
Треклист:
01. Dream A Dream (7:34)
02. D.N.A. (3:42)
03. Elemental Mind (4:40)
04. Nowhere Everywhere (4:48)
05. I.D. Man (2:53)
06. Nature's Dance (6:57)
07. Nature's Dance Coda (2:01)
08. White Rag (6:22)
09. Dead Air (2:54)
10. Psychic Eyes (7:00)
Код:
Код:
Exact Audio Copy V1.0 beta 3 from 29. August 2011

Отчёт EAC об извлечении, выполненном 13. ноября 2013, 21:16

Hawklords / Dream

Дисковод: ASUS    BW-12D1S-U   Adapter: 0  ID: 0

Режим чтения                 : Достоверность
Использование точного потока : Да
Отключение кэша аудио        : Да
Использование указателей C2  : Нет

Коррекция смещения при чтении                     : 667
Способность читать области Lead-in и Lead-out     : Нет
Заполнение пропущенных сэмплов тишиной            : Да
Удаление блоков с тишиной в начале и конце        : Нет
При вычислениях CRC использовались нулевые сэмплы : Да
Интерфейс                                         : Установленный внешний ASPI-интерфейс

Выходной формат          : Пользовательский кодировщик
Выбранный битрейт        : 1024 kBit/s
Качество                 : Высокий
Добавление ID3-тега      : Нет
Утилита сжатия           : C:\Program Files (x86)\Exact Audio Copy\Flac\flac.exe
Дополнительные параметры :  -V -8 -T "Date=%year%" -T "Genre=%genre%" %source%

TOC извлечённого CD

     Трек |   Старт  | Длительность | Начальный сектор | Конечный сектор
    ---------------------------------------------------------------------
       1  |  0:00.00 |    7:34.23   |           0      |      34072
       2  |  7:34.23 |    3:41.42   |       34073      |      50689
       3  | 11:15.65 |    4:40.12   |       50690      |      71701
       4  | 15:56.02 |    4:47.45   |       71702      |      93271
       5  | 20:43.47 |    2:52.40   |       93272      |     106211
       6  | 23:36.12 |    6:56.71   |      106212      |     137482
       7  | 30:33.08 |    2:00.41   |      137483      |     146523
       8  | 32:33.49 |    6:22.14   |      146524      |     175187
       9  | 38:55.63 |    2:53.69   |      175188      |     188231
      10  | 41:49.57 |    7:00.33   |      188232      |     219764

Характеристики диапазона извлечения и сообщения об ошибках

Выбранный диапазон

     Имя файла F:\----CD----\Hawklords (2013) - Dream\Hawklords - Dream.wav

     Пиковый уровень 99.9 %
     Скорость извлечения 7.1 X
     Качество диапазона 100.0 %
     CRC теста 91457C74
     CRC копии 91457C74
     Копирование... OK

Ошибок не произошло

AccurateRip: сводка

Трек  1  : извлечено точно (доверие 1)  [2041D5B9]  (AR v2)
Трек  2  : извлечено точно (доверие 1)  [2EB103C6]  (AR v2)
Трек  3  : извлечено точно (доверие 1)  [1DD08C62]  (AR v2)
Трек  4  : извлечено точно (доверие 1)  [440A62E2]  (AR v2)
Трек  5  : извлечено точно (доверие 1)  [866A6801]  (AR v2)
Трек  6  : извлечено точно (доверие 1)  [4B0596A8]  (AR v2)
Трек  7  : извлечено точно (доверие 1)  [711A534E]  (AR v2)
Трек  8  : извлечено точно (доверие 1)  [5DE1E332]  (AR v2)
Трек  9  : извлечено точно (доверие 1)  [F9F8D2C8]  (AR v2)
Трек 10  : извлечено точно (доверие 1)  [6FE85F23]  (AR v2)

Все треки извлечены точно

Конец отчёта

Код:
Код:
-----------------------

DON'T MODIFY THIS FILE

-----------------------

PERFORMER: auCDtect Task Manager, ver. 1.6.0 RC1 build 1.6.0.1
Copyright (c) 2008-2010 y-soft. All rights reserved
http:/y-soft.org

ANALYZER: auCDtect: CD records authenticity detector, version 0.8.2
Copyright (c) 2004 Oleg Berngardt. All rights reserved.
Copyright (c) 2004 Alexander Djourik. All rights reserved.

FILE: Hawklords - Dream.flac
  Size: 342186489 Hash: 9711AF3691D5C5393C9D5CDEB1BFC218 Accuracy: -m0
  Conclusion: CDDA 100%
  Signature: 5561D6934151BA9F34C3FDD1B42A180A549773F6

Код:
Код:
REM GENRE "Progressive Rock"
REM DATE 2013
REM DISCID 920B720A
REM COMMENT "ExactAudioCopy v1.0b3"
CATALOG 5052571050026
PERFORMER "Hawklords"
TITLE "Dream"
FILE "Hawklords - Dream.flac" WAVE
  TRACK 01 AUDIO
    TITLE "Dream A Dream"
    PERFORMER "Hawklords"
    ISRC GBLN81300001
    INDEX 01 00:00:00
  TRACK 02 AUDIO
    TITLE "D.N.A."
    PERFORMER "Hawklords"
    ISRC GBLN81300002
    INDEX 00 07:32:23
    INDEX 01 07:34:23
  TRACK 03 AUDIO
    TITLE "Elemental Mind"
    PERFORMER "Hawklords"
    ISRC GBLN81300003
    INDEX 00 11:12:65
    INDEX 01 11:15:65
  TRACK 04 AUDIO
    TITLE "Nowhere Everywhere"
    PERFORMER "Hawklords"
    ISRC GBLN81300004
    INDEX 00 15:52:02
    INDEX 01 15:56:02
  TRACK 05 AUDIO
    TITLE "I.D. Man"
    PERFORMER "Hawklords"
    ISRC GBLN81300005
    INDEX 00 20:41:47
    INDEX 01 20:43:47
  TRACK 06 AUDIO
    TITLE "Nature's Dance"
    PERFORMER "Hawklords"
    ISRC GBLN81300006
    INDEX 00 23:31:12
    INDEX 01 23:36:12
  TRACK 07 AUDIO
    TITLE "Nature's Dance Coda"
    PERFORMER "Hawklords"
    ISRC GBLN81300007
    INDEX 00 30:31:09
    INDEX 01 30:33:08
  TRACK 08 AUDIO
    TITLE "White Rag"
    PERFORMER "Hawklords"
    ISRC GBLN81300008
    INDEX 00 32:30:49
    INDEX 01 32:33:49
  TRACK 09 AUDIO
    TITLE "Dead Air"
    PERFORMER "Hawklords"
    ISRC GBLN81300009
    INDEX 00 38:53:64
    INDEX 01 38:55:63
  TRACK 10 AUDIO
    TITLE "Psychic Eyes"
    PERFORMER "Hawklords"
    ISRC GBLN81300010
    INDEX 00 41:47:57
    INDEX 01 41:49:57

Код:
Код:
[CUETools log; Date: 06.01.2014 11:30:06; Version: 2.1.4]
[CTDB TOCID: pFrVCZly3dEA9amQ8whsDZUcvTE-] found.
Track | CTDB Status
  1   | (5/5) Accurately ripped
  2   | (5/5) Accurately ripped
  3   | (5/5) Accurately ripped
  4   | (5/5) Accurately ripped
  5   | (5/5) Accurately ripped
  6   | (5/5) Accurately ripped
  7   | (5/5) Accurately ripped
  8   | (5/5) Accurately ripped
  9   | (5/5) Accurately ripped
 10   | (5/5) Accurately ripped
[AccurateRip ID: 0012a9e5-0092d099-920b720a] found.
Track   [  CRC   |   V2   ] Status
 01     [e44ae505|2041d5b9] (0+4/4) Accurately ripped
 02     [00ee9ca2|2eb103c6] (0+4/4) Accurately ripped
 03     [309b9229|1dd08c62] (0+4/4) Accurately ripped
 04     [522c4cec|440a62e2] (0+4/4) Accurately ripped
 05     [1edc2474|866a6801] (0+4/4) Accurately ripped
 06     [8a6c3906|4b0596a8] (0+4/4) Accurately ripped
 07     [784cc5af|711a534e] (0+4/4) Accurately ripped
 08     [25dac43e|5de1e332] (0+4/4) Accurately ripped
 09     [89a91238|f9f8d2c8] (0+4/4) Accurately ripped
 10     [9a95290e|6fe85f23] (0+4/4) Accurately ripped

Track Peak [ CRC32  ] [W/O NULL] [  LOG   ]
 --   99,9 [91457C74] [408399E5]   CRC32
 01   99,9 [88BCB477] [00519AED]
 02   99,9 [C6767DAC] [2B8CC7B7]
 03   99,9 [C8B329F5] [08F1B097]
 04   99,9 [F6FB3020] [1E50B315]
 05   99,9 [FEDD39B1] [E87033D5]
 06   99,9 [7726B583] [10AAABA5]
 07   99,9 [C6BC8F61] [F4AA2403]
 08   99,9 [4AD9CB3A] [C9E052FF]
 09   99,9 [78E75297] [BA331481]
 10   99,9 [6A09C3EE] [FF2D64CC]

Правила, инструкции, FAQ!!!
Торрент  Добавлен [16 мар 2014, 00:16] Скачать торрент Магнет ссылка
Скачать торрент
[ Размер 15.49 КБ / Просмотров 19 ]

Статус  
 
Размер  360.33 МБ
Приватный: Нет (DHT включён)
.torrent скачан  0
 


     Отправить личное сообщение
   
Страница 1 из 1
Показать сообщения за:  Поле сортировки  
Начать новую тему Ответить на тему


Сейчас этот форум просматривают: нет зарегистрированных пользователей и гости: 0


Вы не можете начинать темы
Вы не можете отвечать на сообщения
Вы не можете редактировать свои сообщения
Вы не можете удалять свои сообщения
Вы не можете добавлять вложения

Перейти:  
cron