Начать новую тему Ответить на тему
Статистика раздачи
Размер: 217.16 МБ | Добавлен: 16 мар 2014, 00:04 | Скачали: 0
Сидеров: 1  [0 байт/сек]    Личеров: 0  [0 байт/сек]
Пред. тема | След. тема 

Автор
Сообщение

СообщениеДобавлено: 16 мар 2014, 00:04 

Ответить с цитатой 

Harmonium - Les Cinq Saisons (1975) Reissue 1991

Жанр: Prog Rock, Symphonic Rock
Год: 1975
Страна: Canada
language: French
Released: 1991/Canada
Label: Polydor
Catalog#: 833 990-2
Аудио кодек: FLAC
Тип рипа: tracks + .cue
Битрейт аудио: lossless
Продолжительность: 00:44:33
Источник-релизер: alex752
Scans: в раздаче
Треклист:
01. Vert (5:35)
02. Dixie (3:26)
03. Depuis L'Automne (10:28)
04. En Pleine Face (4:51)
05. Histoires Sans Paroles (17:12)
Код:
Код:
EAC extraction logfile from 22. April 2006, 15:54 for CD
Harmonium / Si On Avait Besoin D'une Cinquieme Saison

Used drive  : _NEC    DVD_RW ND-3540A   Adapter: 1  ID: 0
Read mode   : Secure with NO C2, accurate stream, disable cache
Read offset correction : 48
Overread into Lead-In and Lead-Out : No

Used output format : G:\Tools\DOS\audio\flac.exe   (User Defined Encoder)
                     320 kBit/s
                     Additional command line options : %s

Other options      :
    Fill up missing offset samples with silence : Yes
    Delete leading and trailing silent blocks : No
    Installed external ASPI interface

Track  1
     Filename G:\Encoded Music\Harmonium - Si On Avait Besoin D'une Cinquieme Saison (1975) [FLAC]\01 - Vert.wav

     Pre-gap length  0:00:02.00

     Peak level 56.0 %
     Track quality 99.9 %
     Test CRC DBE39F7B
     Copy CRC DBE39F7B
     Copy OK

Track  2
     Filename G:\Encoded Music\Harmonium - Si On Avait Besoin D'une Cinquieme Saison (1975) [FLAC]\02 - Dixie.wav

     Pre-gap length  0:00:00.86

     Peak level 72.7 %
     Track quality 100.0 %
     Test CRC 11DFB283
     Copy CRC 11DFB283
     Copy OK

Track  3
     Filename G:\Encoded Music\Harmonium - Si On Avait Besoin D'une Cinquieme Saison (1975) [FLAC]\03 - Depuis L'automne.wav

     Peak level 78.4 %
     Track quality 100.0 %
     Test CRC B19B983B
     Copy CRC B19B983B
     Copy OK

Track  4
     Filename G:\Encoded Music\Harmonium - Si On Avait Besoin D'une Cinquieme Saison (1975) [FLAC]\04 - En Pleine Face.wav

     Pre-gap length  0:00:03.13

     Peak level 65.0 %
     Track quality 100.0 %
     Test CRC DE0C1FEF
     Copy CRC DE0C1FEF
     Copy OK

Track  5
     Filename G:\Encoded Music\Harmonium - Si On Avait Besoin D'une Cinquieme Saison (1975) [FLAC]\05 - Histoire Sans Paroles.wav

     Peak level 65.5 %
     Track quality 100.0 %
     Test CRC EB662A3B
     Copy CRC EB662A3B
     Copy OK

No errors occured

End of status report
Код:
Код:
-----------------------

DON'T MODIFY THIS FILE

-----------------------

PERFORMER: auCDtect Task Manager, ver. 1.6.0 RC1 build 1.6.0.1
Copyright (c) 2008-2010 y-soft. All rights reserved
http:/y-soft.org

ANALYZER: auCDtect: CD records authenticity detector, version 0.8.2
Copyright (c) 2004 Oleg Berngardt. All rights reserved.
Copyright (c) 2004 Alexander Djourik. All rights reserved.

FILE: 05 - Histoire Sans Paroles.flac
  Size: 89017405 Hash: 4CF395C561177F5CFB21AA57ED5C3280 Accuracy: -m0
  Conclusion: CDDA 100%
  Signature: 4AC98A418C83EF85088EEF70BDDAB9CC8FB771FA
FILE: 04 - En Pleine Face.flac
  Size: 26021375 Hash: 3E908EEDEE3A8742BFF6B22FA52064BD Accuracy: -m0
  Conclusion: CDDA 100%
  Signature: 8D11B482A3F18EB82610D36AB93717A414319616
FILE: 03 - Depuis L'automne.flac
  Size: 55908527 Hash: 490D47B6BE22C0E90E5F2F9752C7C780 Accuracy: -m0
  Conclusion: CDDA 100%
  Signature: 37C2F34F86462D87394E129521E30433612B803F
FILE: 02 - Dixie.flac
  Size: 21466032 Hash: A573CA4974F7B04EAAC9876E9F78628A Accuracy: -m0
  Conclusion: CDDA 100%
  Signature: 7CC64331041363FC704EE7DF5E7671A351855F81
FILE: 01 - Vert.flac
  Size: 30842379 Hash: 9FF5002AEC14D42A5A87C661A9E2AC0C Accuracy: -m0
  Conclusion: CDDA 100%
  Signature: F567644EAA19F41AE5FEF5FD1F7A099E2ECC0749
Код:
Код:
REM GENRE Folk/Rock
REM DATE 1975
REM DISCID 3209BC05
REM COMMENT "ExactAudioCopy v0.95b3"
PERFORMER "Harmonium"
TITLE "Si On Avait Besoin D'une Cinquieme Saison"
FILE "01 - Vert.wav" WAVE
  TRACK 01 AUDIO
    TITLE "Vert"
    PERFORMER "Harmonium"
    INDEX 01 00:00:00
  TRACK 02 AUDIO
    TITLE "Dixie"
    PERFORMER "Harmonium"
    INDEX 00 05:34:15
FILE "02 - Dixie.wav" WAVE
    INDEX 01 00:00:00
FILE "03 - Depuis L'automne.wav" WAVE
  TRACK 03 AUDIO
    TITLE "Depuis L'automne"
    PERFORMER "Harmonium"
    INDEX 01 00:00:00
  TRACK 04 AUDIO
    TITLE "En Pleine Face"
    PERFORMER "Harmonium"
    INDEX 00 10:24:73
FILE "04 - En Pleine Face.wav" WAVE
    INDEX 01 00:00:00
FILE "05 - Histoire Sans Paroles.wav" WAVE
  TRACK 05 AUDIO
    TITLE "Histoire Sans Paroles"
    PERFORMER "Harmonium"
    INDEX 01 00:00:00
Код:
Код:
[CUETools log; Date: 17.02.2011 2:27:44; Version: 2.0.9]
[CTDB TOCID: wtFEH8.Bh4atb8bqWSz4.pquxmE-] found.
        [ CTDBID ] Status
        [75a2b9cb] (36/36) Accurately ripped
[AccurateRip ID: 0006dd9b-002173d6-3209bc05] found.
Track   [ CRC    ] Status
 01     [805f9f4d] (21/41) Accurately ripped
 02     [2a78265d] (22/42) Accurately ripped
 03     [799d5d86] (21/41) Accurately ripped
 04     [c2a1d1bb] (21/40) Accurately ripped
 05     [8a64bc9e] (22/40) Accurately ripped
Offsetted by 238:
 01     [839da10e] (03/41) Accurately ripped
 02     [6a83cf77] (03/42) Accurately ripped
 03     [7e194f6a] (03/41) Accurately ripped
 04     [76a85b4d] (03/40) Accurately ripped
 05     [e628dafd] (03/40) Accurately ripped
Offsetted by 370:
 01     [04cd6a06] (13/41) Accurately ripped
 02     [07809275] (13/42) Accurately ripped
 03     [34e89f46] (13/41) Accurately ripped
 04     [0997ebb5] (12/40) Accurately ripped
 05     [56072868] (11/40) Accurately ripped
Offsetted by 2030:
 01     [925a5e8e] (04/41) Accurately ripped
 02     [ceede75f] (04/42) Accurately ripped
 03     [9beec408] (04/41) No match but offset
 04     [e74f2508] (04/40) No match but offset
 05     [c54392e3] (04/40) No match but offset

Track Peak [ CRC32  ] [W/O NULL] [  LOG   ]
 --   78,4 [84C7EBDD] [83A3A2B4]
 01   56,0 [DBE39F7B] [2DCFE7C2]   CRC32
 02   72,7 [11DFB283] [C92E2740]   CRC32
 03   78,4 [B19B983B] [D898576A]   CRC32
 04   65,0 [DE0C1FEF] [BBDA4F6B]   CRC32
 05   65,5 [EB662A3B] [DCA1F8D8]   CRC32
#777
Канадская прог-роковая группа из Квебека. Существовала с 1973 по 1980 годы. История Harmonium началось с того, что гитарист и вокалист по имени Серж Фьори на одном из музыкально-театральных выступлений встретил другого гитариста и вокалиста Мишеля Нормандо. Чуть позже, в 1973 году, к ним присоединился басист Луи Валуа и на этом было решено формирование группы считать завершенным. Появилось имя Harmonium, а вскоре и контракт. Дело в том, что в этой канадской провинции существует весьма внушительная поддержка различных «этаких» коллективов со стороны правительственных организаций. И получилось так, что в отличие от тех же, скажем, британцев, которые все время становления своих групп проводили в основном в поиске лейбла, где можно было бы издаться, лейбл сам нашел группу. Это были люди из Quality, которые искали тогда молодые и талантливые группы.
Некоторое время спустя, в эфире местных радиостанций появились три первых композиции группы - Pour un instant, Un musicien parmi tant d’autres и логическое продолжение последней - Un refrain parmi tant d’autres. Впрочем, первые две можно услышать и на дебютном одноименном альбоме группы, который был выпущен в 1974 году. Альбом полон акустических гитар, французского языка, поп-мелодий и капельки фолка. Совершенно никаких претензий на какую-то сложность. То есть классифицировать этот альбом как прогрессив вряд ли получится.
Впрочем, и без этого с музыкой все в порядке. В то же время Pour un instant вышел и синглом с композицией 100. 000 Raisons на второй стороне, которую, также можно услышать и на переизданном на CD дебютном альбоме группы. Затем были несколько обязательных концертов в окрестностях и даже небольшой тур по Квебеку.
В 1975 году появляется второй диск группы - Si on avait besoin d’une cinquieme saison, также известный как Les Cinq Saisons. К этому времени в группу влился флейтист и духовик Пьер Деньоль. Вторая работа разительно отличалась от дебютника, складывается ощущение, что записывали альбом совершенно другие ребята. Альбом концептуальный. Трек-лист состоит из 5 композиций, каждая из которых посвящена одному времени года и 5-я - Histoires sans Paroles – символизировала «новое время». На ней спела Джуди Ричардс. Стоит еще упомянуть присутствие на пластинке пианиста полу-мистической группы Necessite Сержа Локата. По мнению многих фанатов, эта работа стала пиком музыкального развития коллектива, и с этого момента о группе Harmonium можно было уже говорить как о весьма талантливой прог-рок-группе... (сеть)

Credits
Arranged By – Fred Torak, Harmonium
Bass Guitar, Electric Piano, Vocals – Louis Valois
Engineer – Peter Burns
Executive-Producer [Producteur Delegue] – R.A. (Bob) Morten*
Flute, Piccolo Flute, Soprano Saxophone, Clarinet – Pierre Daigneault
Grand Piano, Electric Piano, Mellotron, Synthesizer – Serge Locat
Guitar, Accordion, Dulcimer, Vocals – Michel Normandeau
Guitar, Twelve-String Guitar, Flute, Harp [Zither], Bass Drum, Vocals – Serge Fiori
Mixed By – Nelson Vipond, Peter Burns
Ondes Martenot – Marie Bernard
Producer – Harmonium, Peter Burns
Producer [Directeur Artistique] – Yves Ladouceur
Written-By – M. Normandeau (tracks: 1, 3), S. Fiori*
Notes
Title on CD spine: "Si On Avait Besoin D'Une Cinquieme Saison".

Enregistre au Studio Six, Montreal
Правила, инструкции, FAQ!!!
Торрент  Добавлен [16 мар 2014, 00:04] Скачать торрент Магнет ссылка
Скачать торрент
[ Размер 18.5 КБ / Просмотров 42 ]

Статус  
 
Размер  217.16 МБ
Приватный: Нет (DHT включён)
.torrent скачан  0
 


     Отправить личное сообщение
   
Страница 1 из 1
Показать сообщения за:  Поле сортировки  
Начать новую тему Ответить на тему


Сейчас этот форум просматривают: нет зарегистрированных пользователей и гости: 0


Вы не можете начинать темы
Вы не можете отвечать на сообщения
Вы не можете редактировать свои сообщения
Вы не можете удалять свои сообщения
Вы не можете добавлять вложения

Перейти:  
cron