Начать новую тему Ответить на тему
Статистика раздачи
Размер: 339.98 МБ | Добавлен: 03 янв 2013, 15:57 | Скачали: 2
Сидеров: 17  [0 байт/сек]    Личеров: 7  [0 байт/сек]
Пред. тема | След. тема 

Автор
Сообщение

СообщениеДобавлено: 03 янв 2013, 15:57 

Ответить с цитатой 

Жанр: Hard Rock
Страна-производитель диска: Japan
Год выхода альбома: 1971
Год выпуска диска: 1990
Издатель (лейбл): Deram
Номер по каталогу: POCD-1501
Страна: Ireland
Аудиокодек: FLAC (*.flac)
Тип рипа: image+.cue
Битрейт аудио: lossless
Продолжительность: 55:11
Источник (релизер): Own Disc
Наличие сканов в содержимом раздачи: нет (Фото)

Треклист:
01 The Friendly Ranger At Clontarf Castle
02 Honesty Is No Excuse
03 Diddy Levine
04 Ray Gun
05 Look What The Wind Blew In
06 Eire
07 Return Of The Farmer's Son
08 Clifton Grange Hotel
09 Saga Of The Ageing Orphan
10 Remembering, Part I
11 Dublin (New Day EP)
12 Remembering, Part II (New Day)(New Day EP)
13 Old Moon Madness (New Day EP)
14 Things Ain't Working Out Down At The Farm (New Day EP)



Exact Audio Copy V1.0 beta 3 from 29. August 2011

EAC extraction logfile from 17. October 2012, 19:32

Thin Lizzy / Thin Lizzy

Used drive : HL-DT-STDVD+-RW GA31N Adapter: 1 ID: 0

Read mode : Secure
Utilize accurate stream : Yes
Defeat audio cache : Yes
Make use of C2 pointers : No

Read offset correction : 103
Overread into Lead-In and Lead-Out : No
Fill up missing offset samples with silence : Yes
Delete leading and trailing silent blocks : No
Null samples used in CRC calculations : Yes
Used interface : Native Win32 interface for Win NT & 2000

Used output format : User Defined Encoder
Selected bitrate : 1024 kBit/s
Quality : High
Add ID3 tag : No
Command line compressor : D:\Users\Recup\To Listen To\TORRENTS\flac.exe
Additional command line options : -5 %source%

TOC of the extracted CD

Track | Start | Length | Start sector | End sector
---------------------------------------------------------
1 | 0:00.37 | 3:01.18 | 37 | 13629
2 | 3:01.55 | 3:43.12 | 13630 | 30366
3 | 6:44.67 | 7:08.13 | 30367 | 62479
4 | 13:53.05 | 3:08.20 | 62480 | 76599
5 | 17:01.25 | 3:26.15 | 76600 | 92064
6 | 20:27.40 | 2:10.45 | 92065 | 101859
7 | 22:38.10 | 4:15.70 | 101860 | 121054
8 | 26:54.05 | 2:31.15 | 121055 | 132394
9 | 29:25.20 | 3:39.57 | 132395 | 148876
10 | 33:05.02 | 6:02.43 | 148877 | 176069
11 | 39:07.45 | 2:30.35 | 176070 | 187354
12 | 41:38.05 | 5:08.05 | 187355 | 210459
13 | 46:46.10 | 3:55.57 | 210460 | 228141
14 | 50:41.67 | 4:29.28 | 228142 | 248344

Range status and errors

Selected range

Filename D:\Users\Recup\To Listen To\1971 - Thin Lizzy (1990, 1st Japan, Deram POCD-1051)\Thin Lizzy - Thin Lizzy.wav

Peak level 100.0 %
Extraction speed 2.1 X
Range quality 100.0 %
Test CRC 0FE67CD9
Copy CRC 0FE67CD9
Copy OK

No errors occurred

AccurateRip summary

Track 1 not present in database
Track 2 not present in database
Track 3 not present in database
Track 4 not present in database
Track 5 not present in database
Track 6 not present in database
Track 7 not present in database
Track 8 not present in database
Track 9 not present in database
Track 10 not present in database
Track 11 not present in database
Track 12 not present in database
Track 13 not present in database
Track 14 not present in database

None of the tracks are present in the AccurateRip database

End of status report

---- CUETools DB Plugin V2.1.3

[CTDB TOCID: nCqSoA89OYiwmpLVlcBH7SgoLSw-] disk not present in database, Submit result: discs with pregaps not supported in this protocol version


REM GENRE "Folk Rock"
REM DATE 1971
REM DISCID B70CEF0E
REM COMMENT "ExactAudioCopy v1.0b3"
PERFORMER "Thin Lizzy"
TITLE "Thin Lizzy"
FILE "Thin Lizzy - Thin Lizzy.flac" WAVE
TRACK 01 AUDIO
TITLE "The Friendly Ranger At Clontarf Castle"
PERFORMER "Thin Lizzy"
INDEX 00 00:00:00
INDEX 01 00:00:37
TRACK 02 AUDIO
TITLE "Honesty Is No Excuse"
PERFORMER "Thin Lizzy"
INDEX 01 03:01:55
TRACK 03 AUDIO
TITLE "Diddy Levine"
PERFORMER "Thin Lizzy"
INDEX 00 06:41:58
INDEX 01 06:44:67
TRACK 04 AUDIO
TITLE "Ray-Gun"
PERFORMER "Thin Lizzy"
INDEX 00 13:50:01
INDEX 01 13:53:05
TRACK 05 AUDIO
TITLE "Look What The Wind Blew In"
PERFORMER "Thin Lizzy"
INDEX 00 16:58:15
INDEX 01 17:01:25
TRACK 06 AUDIO
TITLE "Eire"
PERFORMER "Thin Lizzy"
INDEX 00 20:24:73
INDEX 01 20:27:40
TRACK 07 AUDIO
TITLE "Return Of The Farmer's Son"
PERFORMER "Thin Lizzy"
INDEX 00 22:35:20
INDEX 01 22:38:10
TRACK 08 AUDIO
TITLE "Clifton Grange Hotel"
PERFORMER "Thin Lizzy"
INDEX 00 26:52:11
INDEX 01 26:54:05
TRACK 09 AUDIO
TITLE "Saga Of The Ageing Orphan"
PERFORMER "Thin Lizzy"
INDEX 00 29:21:55
INDEX 01 29:25:20
TRACK 10 AUDIO
TITLE "Remembering, Part I"
PERFORMER "Thin Lizzy"
INDEX 00 33:05:01
INDEX 01 33:05:02
TRACK 11 AUDIO
TITLE "Dublin (New Day EP)"
PERFORMER "Thin Lizzy"
INDEX 00 39:04:32
INDEX 01 39:07:45
TRACK 12 AUDIO
TITLE "Remembering, Part II (New Day)(New Day EP)"
PERFORMER "Thin Lizzy"
INDEX 00 41:34:28
INDEX 01 41:38:05
TRACK 13 AUDIO
TITLE "Old Moon Madness (New Day EP)"
PERFORMER "Thin Lizzy"
INDEX 00 46:42:19
INDEX 01 46:46:10
TRACK 14 AUDIO
TITLE "Things Ain't Working Out Down At The Farm (New Day EP)"
PERFORMER "Thin Lizzy"
INDEX 00 50:39:00
INDEX 01 50:41:67




--------------------------------------------------------------------------------
Analyzed: Thin Lizzy / Thin Lizzy
--------------------------------------------------------------------------------

DR Peak RMS Duration Track
--------------------------------------------------------------------------------
DR11 -1.37 dB -15.12 dB 3:01 01-The Friendly Ranger At Clontarf Castle
DR8 -1.76 dB -11.00 dB 3:43 02-Honesty Is No Excuse
DR9 -1.76 dB -13.62 dB 7:08 03-Diddy Levine
DR9 -1.76 dB -12.25 dB 3:08 04-Ray-Gun
DR9 -1.76 dB -12.41 dB 3:26 05-Look What The Wind Blew In
DR9 -1.76 dB -13.89 dB 2:11 06-Eire
DR8 -1.76 dB -10.35 dB 4:16 07-Return Of The Farmer's Son
DR8 -1.76 dB -11.94 dB 2:31 08-Clifton Grange Hotel
DR11 -1.76 dB -15.33 dB 3:40 09-Saga Of The Ageing Orphan
DR7 -1.76 dB -11.20 dB 6:03 10-Remembering, Part I
DR12 0.00 dB -16.13 dB 2:30 11-Dublin (New Day EP)
DR11 -1.37 dB -14.89 dB 5:08 12-Remembering, Part II (New Day)(New Day EP)
DR11 -1.37 dB -14.39 dB 3:56 13-Old Moon Madness (New Day EP)
DR8 -1.37 dB -11.84 dB 4:29 14-Things Ain't Working Out Down At The Farm (New Day EP)
--------------------------------------------------------------------------------

Number of tracks: 14
Official DR value: DR9
================================================================================

Правила, инструкции, FAQ!!!
Торрент  Добавлен [03 янв 2013, 15:57] Скачать торрент Магнет ссылка
Скачать торрент
[ Размер 14.62 КБ / Просмотров 22 ]

Статус
Проверен 
 
Размер  339.98 МБ
Приватный: Нет (DHT включён)
.torrent скачан  2
 


     Отправить личное сообщение
   
Страница 1 из 1
Показать сообщения за:  Поле сортировки  
Начать новую тему Ответить на тему


Сейчас этот форум просматривают: нет зарегистрированных пользователей и гости: 0


Вы не можете начинать темы
Вы не можете отвечать на сообщения
Вы не можете редактировать свои сообщения
Вы не можете удалять свои сообщения
Вы не можете добавлять вложения

Перейти:  
cron