Начать новую тему Ответить на тему
Статистика раздачи
Размер: 1.68 ГБ | Добавлен: 24 авг 2016, 11:47 | Скачали: 0
Сидеров: 2  [0 байт/сек]    Личеров: 0  [0 байт/сек]
Пред. тема | След. тема 

Автор
Сообщение

СообщениеДобавлено: 24 авг 2016, 11:47 

Ответить с цитатой 

Howe II - High Gear

Жанр: Hard Rock
Год выпуска: 1989
Лейбл: Roadrunner Records - RR 9467 1
Страна-производитель: Holland
Аудио кодек: FLAC
Тип рипа: image+.cue
Формат записи: 24/192
Формат раздачи: 24/192
Продолжительность: 42:10

A1 High Gear
A2 Carry The Torch
A3 Strat-O-Various
A4 Disorderly Conduct
A5 Thinking Of You
B1 Standing On The Line
B2 Ferocious
B3 Don't Let The Sloe Gin (Order The Wine)
B4 Party Favors
B5 Social Fever

Хау II - группа Грега Хау, мастера гитарного фьюжена. Любители хард-рока в стиле Ван Хейлен думаю и так прекрасно знают этот альбом, а вот поклонники Грега как фьюжен-гитариста могут заново открыть его для себя.
Andy Hinds at AllMusic gave the album four stars out of five, saying that "The songs on High Gear are good, the riffs are killer, and the execution is flawless." He praised Greg's guitar work as "more effective than ever; focused like a laser, his brilliant solos drive home the point of the songs rather than being the point of the songs" and likened Albert's vocals to David Lee Roth. More praise went to the band overall: "The entire band plays with an articulate, inspired precision and energy that is truly awesome."
Bass, Backing Vocals – Vern Parsons
Drums, Backing Vocals – Joe Nevolo
Guitar – Jason Becker (tracks: B4), Mike Varney (tracks: B4)
Guitar, Backing Vocals – Greg Howe
Mastered By – George Horn
Mixed By – Greg Howe, Steve Fontano
Vocals – Al Howe
Источник оцифровки: сеть
Код класса состояния винила: EX
Устройство воспроизведения: JVC QL-Y5F
Головка звукоснимателя: Ortofon VMS 20
Предварительный усилитель: Nait Audio 522 MM Boards (Naim 3 Int. Amp)
АЦП: н/д
Обработка: нет

*Oцифровка шла в комплекте с винилом , не более того (сделано без претензии на качество). Винил конечно звучит намного лучше, но что есть. Мне эта оцифровка за ненадобностью - но может кому пригодится и этот релиз. Я только добавил cue-файл и сделал оформление по образцу.

Фрагменты треков A1 и B1 в файле Samples.
ffoobar2000 1.1.8 / Dynamic Range Meter 1.1.1
log date: 2015-04-05 22:29:15

--------------------------------------------------------------------------------
Analyzed: Howe II / High Gear
--------------------------------------------------------------------------------

DR Peak RMS Duration Track
--------------------------------------------------------------------------------
DR13 -1.74 dB -17.46 dB 4:43 01-A1 - High Gear
DR12 -3.21 dB -17.26 dB 4:00 02-A2 - Carry The Torch
DR11 -7.28 dB -21.45 dB 1:14 03-A3 - Strat-O-Various
DR14 -2.15 dB -17.60 dB 4:35 04-A4 - Disorderly Conduct
DR14 -1.81 dB -18.55 dB 5:01 05-A5 - Thinking Of You
DR14 -3.52 dB -19.19 dB 3:34 06-B1 - Standing On The Line
DR13 -3.35 dB -17.67 dB 4:34 07-B2 - Ferocious
DR13 -3.82 dB -18.73 dB 5:09 08-B3 - Don't Let The Sloe Gin (Order The Wine)
DR13 -3.04 dB -18.48 dB 3:30 09-B4 - Party Favors
DR14 -3.64 dB -19.03 dB 5:49 10-B5 - Social Fever
--------------------------------------------------------------------------------

Number of tracks: 10
Official DR value: DR13

Samplerate: 192000 Hz
Channels: 2
Bits per sample: 24
Bitrate: 5494 kbps
Codec: FLAC
================================================================================
Правила, инструкции, FAQ!!!
Торрент  Добавлен [24 авг 2016, 11:47] Скачать торрент Магнет ссылка
Скачать торрент
[ Размер 17.57 КБ / Просмотров 7 ]

Статус
Проверен 
 
Размер  1.68 ГБ
Приватный: Нет (DHT включён)
.torrent скачан  0
 


     Отправить личное сообщение
   
Страница 1 из 1
Показать сообщения за:  Поле сортировки  
Начать новую тему Ответить на тему


Сейчас этот форум просматривают: нет зарегистрированных пользователей и гости: 0


Вы не можете начинать темы
Вы не можете отвечать на сообщения
Вы не можете редактировать свои сообщения
Вы не можете удалять свои сообщения
Вы не можете добавлять вложения

Перейти:  
cron
cron