Начать новую тему Ответить на тему
Статистика раздачи
Размер: 1.48 ГБ | Добавлен: 24 авг 2016, 11:36 | Скачали: 0
Сидеров: 3  [0 байт/сек]    Личеров: 4  [0 байт/сек]
Пред. тема | След. тема 

Автор
Сообщение

СообщениеДобавлено: 24 авг 2016, 11:36 

Ответить с цитатой 

Herman Ze German / Herman Ze German & Friends (JP)

Жанр: Hard Rock
Носитель:LP
Год выпуска: 1985
Лейбл: Capitol Records – ECS-91158
Страна-производитель: JP
Аудио кодек: FLAC
Тип рипа: image+.cue
Формат записи: 32/192
Формат раздачи: 24/192
Продолжительность: 00:34:00
Herman Ze German

A01 - I'll Say Goodbye 4:09
A02 - Junk Funk 3:04
A03 - Destiny 3:15
A04 - Rock Your Balls 3:33
A05 - Wipe Out 2:21

B01 - Hard Sensation 3:45
B02 - Messing Around 3:15
B03 - Having A Good Time 4:04
B04 - Do It 2:58
B05 - Pancake 3:18
Источник оцифровки: автором раздачи
Код класса состояния винила: NM
Устройство воспроизведения: Pioneer PL-30L
Головка звукоснимателя: AT TT30Ems
Предварительный усилитель: Trans/NAD PP2iM
АЦП: Xonar Essence ST
Программа-оцифровщик: AA6
Обработка: BEZZZZZ
NO
Credits:

http://www.hermanrarebell.com/band.html

Backing Vocals – Darlene Love (tracks: 8)
Bass – Brian Soule (tracks: 5), Juan Croucier (tracks: 1, 2, 6, 10), Randy Nauert (tracks: 5)
Bass, Vocals – Pedro Schemm (tracks: 4)
Drums – Herman Rarebell
Guitar – Charlie Huhn (tracks: 5), Chris Story (tracks: 1), D.H. Cooper, Michael Thompson (tracks: 4, 5)
Keyboards – Paul Collins (tracks: 5)
Vocals – Charlie Huhn (tracks: 9), Don Dokken, Jack Russell (2) (tracks: 2, 7), Steve Marriott (tracks: 8)
Produced by Rarebell,Wagener and Don Dokken

Barcode and Other Identifiers:
Rights Society: JASRAC
Other (Price): 2,300
REM GENRE Hard Rock
REM DATE 1985
REM yamata6839_VINYLRIP
REM Capitol Records – ECS-91158, Japan
REM Produced by Rarebell,Wagener and Don Dokken
PERFORMER "Herman Ze German"
TITLE "Herman Ze German & Friends"
FILE "Herman Ze German & Friends.flac" WAVE
TRACK 01 AUDIO
TITLE "I'll Say Goodbye"
PERFORMER "Herman Ze German"
INDEX 01 00:01:10
TRACK 02 AUDIO
TITLE "Junk Funk"
PERFORMER "Herman Ze German"
INDEX 01 04:12:42
TRACK 03 AUDIO
TITLE "Destiny"
PERFORMER "Herman Ze German"
INDEX 01 07:18:23
TRACK 04 AUDIO
TITLE "Rock Your Balls"
PERFORMER "Herman Ze German"
INDEX 01 10:32:61
TRACK 05 AUDIO
TITLE "Wipe Out"
PERFORMER "Herman Ze German"
INDEX 01 14:06:50
TRACK 06 AUDIO
TITLE "Hard Sensation"
PERFORMER "Herman Ze German"
INDEX 01 16:30:31
TRACK 07 AUDIO
TITLE "Messing Around"
PERFORMER "Herman Ze German"
INDEX 01 20:19:48
TRACK 08 AUDIO
TITLE "Having A Good Time"
PERFORMER "Herman Ze German"
INDEX 01 23:37:35
TRACK 09 AUDIO
TITLE "Do It"
PERFORMER "Herman Ze German"
INDEX 01 27:41:39
TRACK 010 AUDIO
TITLE "Pancake"
PERFORMER "Herman Ze German"
INDEX 01 30:39:62
Все материалы представлены исключительно в ознакомительных целях
Правила, инструкции, FAQ!!!
Торрент  Добавлен [24 авг 2016, 11:36] Скачать торрент Магнет ссылка
Скачать торрент
[ Размер 15.57 КБ / Просмотров 21 ]

Статус
Проверен 
 
Размер  1.48 ГБ
Приватный: Нет (DHT включён)
.torrent скачан  0
 


     Отправить личное сообщение
   
Страница 1 из 1
Показать сообщения за:  Поле сортировки  
Начать новую тему Ответить на тему


Сейчас этот форум просматривают: нет зарегистрированных пользователей и гости: 0


Вы не можете начинать темы
Вы не можете отвечать на сообщения
Вы не можете редактировать свои сообщения
Вы не можете удалять свои сообщения
Вы не можете добавлять вложения

Перейти:  
cron