Начать новую тему Ответить на тему
Статистика раздачи
Размер: 1.57 ГБ | Добавлен: 24 авг 2016, 11:33 | Скачали: 1
Сидеров: 4  [0 байт/сек]    Личеров: 6  [0 байт/сек]
Пред. тема | След. тема 

Автор
Сообщение

СообщениеДобавлено: 24 авг 2016, 11:33 

Ответить с цитатой 

Keel / The Final Frontier (Japan)

Жанр: Hard Rock, Heavy Metal
Носитель:LP
Год выпуска: 1986
Лейбл: Gold Mountain – VIL-28020
Страна-производитель:Japan
Аудио кодек: FLAC
Тип рипа: image+.cue
Формат записи: 32/192
Формат раздачи: 24/192
Продолжительность: 00:36:24
Keel

A1 - The Final Frontier 3:55
A2 - Rock And Roll Animal 4:50
Backing Vocals – Jamie St. James
A3 - Because The Night 3:48
A4 - Here Today, Gone Tomorrow 4:08
A5 - Arm And A Leg 3:13

B1 - Raised On Rock 3:12
Guitar [Rhythm] – Joan Jett
Vocals – Michael Des Barres
B2 - Just Another Girl 3:17
B3 - Tears Of Fire 4:24
Guitar [Rhythm] – Mitch Perry
B4 - Nightfall 1:53
B5 - No Pain No Gain 3:48
Backing Vocals – Gregg Giuffria
Источник оцифровки: автором раздачи
Код класса состояния винила: NM
Устройство воспроизведения: Pioneer PL-30L
Головка звукоснимателя: TT30E
Предварительный усилитель: NAD PP2iM
АЦП: Xonar Essence STX
Программа-оцифровщик: Sound Forge Pro 10
Обработка: ------------
NO
Credits:
Bass Guitar – Kenny Chaisson
Drums – Dwain Miller
Engineer [Assistant] – Bruce Buchhalter*, Kevin Smith, Tom Nist
Guitar – Ron Keel
Keyboards – Ron Keel
Lead Guitar – Bryan Jay, Marc Ferrari
Lead Vocals – Ron Keel
Mastered By – George Marino
Mixed By – Dave Wittman
Photography By – Neil Zlowzower*
Producer – Gene Simmons
Recorded By – Dave Wittman
Vocals – Bryan Jay, Dwain Miller, Kenny Chaisson, Marc Ferrari
Written-By – Springsteen* (tracks: 3), B. Jay* (tracks: 5), G. Chaisson* (tracks: 1), K. Chaisson* (tracks: 5), M. Ferrari* (tracks: 5, 6, 8, 9), Smith* (tracks: 3), R. Keel* (tracks: 1, 2, 4, 5, 7, 10)
Notes:
Comes with English picture/lyric insert, Japanese text/lyric insert & obi-strip.
Recorded at: Electric Lady, New York City, NY / Baby-O, Hollywood, CA / The Village Recorder, Santa Monica, CA.

"This album is dedicated to the astronauts of the Space Shuttle Challenger the Twenty Eighth of January, Nineteen Hundred Eighty Six".
REM GENRE Hard Rock, Heavy Metal
REM DATE 1986
REM yamata6839_VINYLRIP
REM Gold Mountain – VIL-28020, JP
REM Mastered By – George Marino
REM Producer – Gene Simmons
PERFORMER "Keel"
TITLE "The Final Frontier"
FILE "KEEL - The Final Frontier.flac" WAVE
TRACK 01 AUDIO
TITLE "The Final Frontier"
PERFORMER "Keel"
INDEX 01 00:00:00
TRACK 02 AUDIO
TITLE "Rock And Roll Animal"
PERFORMER "Keel"
INDEX 01 03:56:43
TRACK 03 AUDIO
TITLE "Because The Night"
PERFORMER "Keel"
INDEX 01 08:45:25
TRACK 04 AUDIO
TITLE "Here Today, Gone Tomorrow"
PERFORMER "Keel"
INDEX 01 12:33:73
TRACK 05 AUDIO
TITLE "Arm And A Leg"
PERFORMER "Keel"
INDEX 01 16:40:38
TRACK 06 AUDIO
TITLE "Raised On Rock"
PERFORMER "Keel"
INDEX 01 19:53:20
TRACK 07 AUDIO
TITLE "Just Another Girl"
PERFORMER "Keel"
INDEX 01 23:07:00
TRACK 08 AUDIO
TITLE "Tears Of Fire"
PERFORMER "Keel"
INDEX 01 26:22:54
TRACK 09 AUDIO
TITLE "Nightfall"
PERFORMER "Keel"
INDEX 01 30:44:48
TRACK 010 AUDIO
TITLE "No Pain No Gain"
PERFORMER "Keel"
INDEX 01 32:37:65
Все материалы представлены исключительно в ознакомительных целях ознакомиться можно пароль 44 Welcom Comrades in Arms Vinyl!
Правила, инструкции, FAQ!!!
Торрент  Добавлен [24 авг 2016, 11:33] Скачать торрент Магнет ссылка
Скачать торрент
[ Размер 16.43 КБ / Просмотров 21 ]

Статус
Проверен 
 
Размер  1.57 ГБ
Приватный: Нет (DHT включён)
.torrent скачан  1
 


     Отправить личное сообщение
   
Страница 1 из 1
Показать сообщения за:  Поле сортировки  
Начать новую тему Ответить на тему


Сейчас этот форум просматривают: нет зарегистрированных пользователей и гости: 0


Вы не можете начинать темы
Вы не можете отвечать на сообщения
Вы не можете редактировать свои сообщения
Вы не можете удалять свои сообщения
Вы не можете добавлять вложения

Перейти:  
cron
cron