Начать новую тему Ответить на тему
Статистика раздачи
Размер: 1.3 ГБ | Добавлен: 24 авг 2016, 11:57 | Скачали: 1
Сидеров: 9  [0 байт/сек]    Личеров: 1  [0 байт/сек]
Пред. тема | След. тема 

Автор
Сообщение

СообщениеДобавлено: 24 авг 2016, 11:57 

Ответить с цитатой 

King's X - Faith Hope Love

Жанр: Hard Rock, Funk Metal
Носитель: LP
Год выпуска: 1990
Лейбл: Atlantic – A182145
Страна-производитель: USA
Аудио кодек: FLAC
Тип рипа: tracks+.cue
Формат записи: 24/96
Формат раздачи: 24/96
Продолжительность: 01:02:07
Треклист:
01. We Are Finding Who We Are (4:40)
02. It's Love (4:34)
03. I'll Never Get Tired Of You (3:49)
04. Fine Art Of Friendship (4:21)
05. Mr. Wilson (3:39)
06. Moanjam (6:05)
07. Six Broken Soldiers (3:38)
08. I Can't Help It (3:54)
09. Talk To You (4:36)
10. Everywhere I Go (3:54)
11. We Were Born To Be Loved (4:52)
12. Faith Hope Love (9:22)
13. Legal Kill (4:45)

Источник оцифровки: третьим лицом
Код класса состояния винила: Ex
Устройство воспроизведения: VPI Scoutmaster / Trans-Fi Terminator T3 Pro
Головка звукоснимателя: Audio-Technica AT33PTG/II
Предварительный усилитель: Musical Surroundings Phonomena
АЦП: RME ADI-2
Программа-оцифровщик: не известно
Обработка: не известно
Код:
Код:
foobar2000 1.3.5 / Dynamic Range Meter 1.1.1
log date: 2015-03-29 11:55:09

--------------------------------------------------------------------------------
Analyzed: King's X / Faith Hope Love
--------------------------------------------------------------------------------

DR         Peak         RMS     Duration Track
--------------------------------------------------------------------------------
DR11      -1.25 dB   -14.45 dB      4:40 01-We Are Finding Who We Are
DR12      -0.70 dB   -14.46 dB      4:34 02-It's Love
DR11      -1.44 dB   -14.80 dB      3:49 03-I'll Never Get Tired Of You
DR11      -0.81 dB   -13.90 dB      4:21 04-Fine Art Of Friendship
DR12      -1.34 dB   -14.85 dB      3:39 05-Mr. Wilson
DR12      -1.59 dB   -14.95 dB      6:05 06-Moanjam
DR12      -2.49 dB   -17.18 dB      3:38 07-Six Broken Soldiers
DR12      -0.70 dB   -14.03 dB      3:54 08-I Can't Help It
DR11      -0.90 dB   -13.48 dB      4:36 09-Talk To You
DR11      -1.24 dB   -15.98 dB      3:54 10-Everywhere I Go
DR11      -1.83 dB   -14.85 dB      4:52 11-We Were Born To Be Loved
DR12      -1.73 dB   -16.17 dB      9:22 12-Faith Hope Love
DR12      -3.31 dB   -18.19 dB      4:45 13-Legal Kill
--------------------------------------------------------------------------------

Number of tracks:  13
Official DR value: DR12

Samplerate:        96000 Hz
Channels:          2
Bits per sample:   24
Bitrate:           4608 kbps
Codec:             PCM
================================================================================

Не понятно отношение автора к тому, когда его рипы без его ведома выкладывают. В коментариях больше не причастные возмущаются, а писать письма чесноговоря не вижу смысла - "что выложено в сеть, то достояние всех" (с) Если эта раздача что-то там нарушает, спишите на мою безграмотность и отсутствие логики.
В раздаче картинки с discogs от другого издания, родных увы не нашел.
Звук интереснее чем на СиДи (7 82145-2). Зацените, если кто пропустил.
Правила, инструкции, FAQ!!!
Торрент  Добавлен [24 авг 2016, 11:57] Скачать торрент Магнет ссылка
Скачать торрент
[ Размер 14.63 КБ / Просмотров 7 ]

Статус
Проверен 
 
Размер  1.3 ГБ
Приватный: Нет (DHT включён)
.torrent скачан  1
 


     Отправить личное сообщение
   
Страница 1 из 1
Показать сообщения за:  Поле сортировки  
Начать новую тему Ответить на тему


Сейчас этот форум просматривают: нет зарегистрированных пользователей и гости: 0


Вы не можете начинать темы
Вы не можете отвечать на сообщения
Вы не можете редактировать свои сообщения
Вы не можете удалять свои сообщения
Вы не можете добавлять вложения

Перейти:  
cron