Начать новую тему Ответить на тему
Статистика раздачи
Размер: 307.65 МБ | Добавлен: 03 май 2020, 16:56 | Скачали: 0
Сидеров: 0  [0 байт/сек]    Личеров: 0  [0 байт/сек]
Пред. тема | След. тема 

Автор
Сообщение

СообщениеДобавлено: 03 май 2020, 16:56 

Ответить с цитатой 

Quiet Riot / Quiet Riot
Жанр: Hard Rock/Arena Rock
Носитель: CD
Страна-производитель диска (релиза): UK
Год издания: 2010
Издатель (лейбл): Rock Candy
Номер по каталогу: CANDY080
Страна исполнителя (группы): USA
Аудиокодек: FLAC (*.flac)
Тип рипа: image+.cue
Продолжительность: 44:11
Источник: собственный рип
Наличие сканов в содержимом раздачи: да(ознакомительные)
Треклист:
1 Stay With Me Tonight 4:39
2 Callin' The Shots 4:41
3 Run To You 4:38
4 I'm Fallin' 4:17
5 King Of The Hill 4:24
6 The Joker 3:55
7 Lunar Obsession 1:44
8 Don't Wanna Be Your Fool 5:20
9 Coppin' A Feel 3:44
10 In A Rush 2:38
11 Empty Promises 4:24
Код:
Exact Audio Copy V1.3 from 2. September 2016
Отчёт EAC об извлечении, выполненном 3. мая 2020, 12:08
Quiet Riot / Quiet Riot
Дисковод: ASUS    DRW-1612BL   Adapter: 3  ID: 1
Режим чтения                 : Достоверность
Использование точного потока : Да
Отключение кэша аудио        : Да
Использование указателей C2  : Нет
Коррекция смещения при чтении                     : 6
Способность читать области Lead-in и Lead-out     : Нет
Заполнение пропущенных сэмплов тишиной            : Да
Удаление блоков с тишиной в начале и конце        : Нет
При вычислениях CRC использовались нулевые сэмплы : Да
Интерфейс                                         : Установленный внешний ASPI-интерфейс
Выходной формат          : Пользовательский кодировщик
Выбранный битрейт        : 128 kBit/s
Качество                 : Высокий
Добавление ID3-тега      : Нет
Утилита сжатия           : C:\Program Files\Exact Audio Copy\Flac\flac.exe
Дополнительные параметры : -V -8 -T "Date=%year%" -T "Genre=%genre%" %source%
TOC извлечённого CD
     Трек |   Старт  | Длительность | Начальный сектор | Конечный сектор
    ---------------------------------------------------------------------
       1  |  0:00.00 |    4:39.71   |           0      |      20995
       2  |  4:39.71 |    4:41.23   |       20996      |      42093
       3  |  9:21.19 |    4:38.20   |       42094      |      62963
       4  | 13:59.39 |    4:17.60   |       62964      |      82298
       5  | 18:17.24 |    4:24.25   |       82299      |     102123
       6  | 22:41.49 |    3:55.37   |      102124      |     119785
       7  | 26:37.11 |    1:44.35   |      119786      |     127620
       8  | 28:21.46 |    5:02.45   |      127621      |     150315
       9  | 33:24.16 |    3:44.30   |      150316      |     167145
      10  | 37:08.46 |    2:38.20   |      167146      |     179015
      11  | 39:46.66 |    4:24.59   |      179016      |     198874
Характеристики диапазона извлечения и сообщения об ошибках
Выбранный диапазон
     Имя файла D:\Quiet Riot - Quiet Riot.wav
     Пиковый уровень 97.7 %
     Скорость извлечения 6.5 X
     Качество диапазона 99.9 %
     CRC теста 99E2D9A4
     CRC копии 99E2D9A4
     Копирование... OK
Ошибок не произошло
AccurateRip: сводка
Трек  1  : извлечено точно (доверие 2)  [7A4CC40D]  (AR v2)
Трек  2  : извлечено точно (доверие 2)  [46B6A11B]  (AR v2)
Трек  3  : извлечено точно (доверие 2)  [44700810]  (AR v2)
Трек  4  : извлечено точно (доверие 2)  [C74506B4]  (AR v2)
Трек  5  : извлечено точно (доверие 2)  [69DADC10]  (AR v2)
Трек  6  : извлечено точно (доверие 2)  [7AE13765]  (AR v2)
Трек  7  : извлечено точно (доверие 2)  [D7C7DE27]  (AR v2)
Трек  8  : извлечено точно (доверие 2)  [78D3CA29]  (AR v2)
Трек  9  : извлечено точно (доверие 2)  [7DF8AB91]  (AR v2)
Трек 10  : извлечено точно (доверие 2)  [25BC5273]  (AR v2)
Трек 11  : извлечено точно (доверие 2)  [A315C841]  (AR v2)
Все треки извлечены точно
Конец отчёта
---- CUETools DB Plugin V2.1.6
[CTDB TOCID: ciOVUheRHhnQNlBjAVn0mhebFjs-] found
Submit result: ciOVUheRHhnQNlBjAVn0mhebFjs- has been confirmed
Track | CTDB Status
  1   | (5/5) Accurately ripped
  2   | (5/5) Accurately ripped
  3   | (5/5) Accurately ripped
  4   | (5/5) Accurately ripped
  5   | (5/5) Accurately ripped
  6   | (5/5) Accurately ripped
  7   | (5/5) Accurately ripped
  8   | (5/5) Accurately ripped
  9   | (5/5) Accurately ripped
 10   | (5/5) Accurately ripped
 11   | (5/5) Accurately ripped
==== Контрольная сумма отчёта 26E7F5F1CE5A46262A5C6E5FE18B34B3C520280D24C1CC0A687FDEEF865F5041 ====
Код:
REM GENRE Rock
REM DATE 1988
REM DISCID 8F0A5B0B
REM COMMENT "ExactAudioCopy v1.3"
PERFORMER "Quiet Riot"
TITLE "Quiet Riot"
REM COMPOSER ""
FILE "Quiet Riot - Quiet Riot.flac" WAVE
  TRACK 01 AUDIO
    TITLE "Stay With Me Tonight"
    PERFORMER "Quiet Riot"
    REM COMPOSER ""
    INDEX 01 00:00:00
  TRACK 02 AUDIO
    TITLE "Callin' The Shots"
    PERFORMER "Quiet Riot"
    REM COMPOSER ""
    INDEX 01 04:39:71
  TRACK 03 AUDIO
    TITLE "Run To You"
    PERFORMER "Quiet Riot"
    REM COMPOSER ""
    INDEX 00 09:20:11
    INDEX 01 09:21:19
  TRACK 04 AUDIO
    TITLE "I'm Fallin'"
    PERFORMER "Quiet Riot"
    REM COMPOSER ""
    INDEX 01 13:59:39
  TRACK 05 AUDIO
    TITLE "King Of The Hill"
    PERFORMER "Quiet Riot"
    REM COMPOSER ""
    INDEX 00 18:17:19
    INDEX 01 18:17:24
  TRACK 06 AUDIO
    TITLE "The Joker"
    PERFORMER "Quiet Riot"
    REM COMPOSER ""
    INDEX 00 22:41:26
    INDEX 01 22:41:49
  TRACK 07 AUDIO
    TITLE "Lunar Obsession"
    PERFORMER "Quiet Riot"
    REM COMPOSER ""
    INDEX 00 26:37:09
    INDEX 01 26:37:11
  TRACK 08 AUDIO
    TITLE "Don't Wanna Be Your Fool"
    PERFORMER "Quiet Riot"
    REM COMPOSER ""
    INDEX 00 28:20:04
    INDEX 01 28:21:46
  TRACK 09 AUDIO
    TITLE "Coppin' A Feel"
    PERFORMER "Quiet Riot"
    REM COMPOSER ""
    INDEX 00 33:22:66
    INDEX 01 33:24:16
  TRACK 10 AUDIO
    TITLE "In A Rush"
    PERFORMER "Quiet Riot"
    REM COMPOSER ""
    INDEX 00 37:06:61
    INDEX 01 37:08:46
  TRACK 11 AUDIO
    TITLE "Empty Promises"
    PERFORMER "Quiet Riot"
    REM COMPOSER ""
    INDEX 00 39:46:19
    INDEX 01 39:46:66
Bass – Sean McNabb
Guitar – Carlos Cavazo
Lead Vocals – Paul Shortino
Drums – Frankie Banali
Правила, инструкции, FAQ!!!
Торрент  Добавлен [03 май 2020, 16:56] Скачать торрент Магнет ссылка
Скачать торрент
[ Размер 25.13 КБ / Просмотров 3 ]

Статус
Проверен 
 
Размер  307.65 МБ
Приватный: Нет (DHT включён)
.torrent скачан  0
 


     Отправить личное сообщение
   
Страница 1 из 1
Показать сообщения за:  Поле сортировки  
Начать новую тему Ответить на тему


Сейчас этот форум просматривают: нет зарегистрированных пользователей и гости: 0


Вы не можете начинать темы
Вы не можете отвечать на сообщения
Вы не можете редактировать свои сообщения
Вы не можете удалять свои сообщения
Вы не можете добавлять вложения

Перейти:  
cron