Начать новую тему Ответить на тему
Статистика раздачи
Размер: 3.43 ГБ | Добавлен: 16 мар 2014, 00:16 | Скачали: 1
Сидеров: 1  [0 байт/сек]    Личеров: 1  [0 байт/сек]
Пред. тема | След. тема 

Автор
Сообщение

СообщениеДобавлено: 16 мар 2014, 00:16 

Ответить с цитатой 

Hanoi Rocks - 6 альбомов (1981-1986) Mini LP SHM-CD Collection


Год:
2013 | Жанр: Rock / Glam / Hard Rock | Издание: Victor Entertainment | Каталог№: VICP-70186-91 | Продолжительность: 05:45:38 | Источник: ALLexxess | Сканы: Есть Кодек: FLAC | Тип рипа: Image+.cue | Метод сжатия: Lossless

Продолжительноcть: 00:45:44
Треклист:

01. Tragedy (4:06)
02. Village Girl (3:05)
03. Stop Cryin' (3:56)
04. Don't Never Leave Me (4:00)
05. Lost In The City (3:51)
06. First Timer (3:04)
07. Cheyenne (4:02)
08. 11th Street Kids (3:59)
09. Walking With My Angel (2:14)
10. Pretender (3:36)
11. Cafe Avenue (Original Version) / Bonus Track (4:55)
12. Rebel On The Run / Bonus Track (2:49)
13. I Love You (Demo) / Bonus Track (2:08)
Код:
Код:
REM GENRE "Rock / Glam / Hard Rock"
REM DATE 1981
REM DISCID B70AB80D
REM COMMENT "ExactAudioCopy v1.0b3"
PERFORMER "Hanoi Rocks"
TITLE "Bangkok Shocks Saigon Shakes Hanoi Rocks"
FILE "Hanoi Rocks - Bangkok Shocks Saigon Shakes Hanoi Rocks.flac" WAVE
  TRACK 01 AUDIO
    TITLE "Tragedy"
    PERFORMER "Hanoi Rocks"
    INDEX 01 00:00:00
  TRACK 02 AUDIO
    TITLE "Village Girl"
    PERFORMER "Hanoi Rocks"
    INDEX 00 04:04:44
    INDEX 01 04:06:00
  TRACK 03 AUDIO
    TITLE "Stop Cryin'"
    PERFORMER "Hanoi Rocks"
    INDEX 00 07:08:07
    INDEX 01 07:10:43
  TRACK 04 AUDIO
    TITLE "Don't Never Leave Me"
    PERFORMER "Hanoi Rocks"
    INDEX 00 11:05:02
    INDEX 01 11:06:38
  TRACK 05 AUDIO
    TITLE "Lost In The City"
    PERFORMER "Hanoi Rocks"
    INDEX 00 15:04:27
    INDEX 01 15:06:08
  TRACK 06 AUDIO
    TITLE "First Timer"
    PERFORMER "Hanoi Rocks"
    INDEX 00 18:55:49
    INDEX 01 18:57:23
  TRACK 07 AUDIO
    TITLE "Cheyenne"
    PERFORMER "Hanoi Rocks"
    INDEX 00 21:59:62
    INDEX 01 22:01:23
  TRACK 08 AUDIO
    TITLE "11th Street Kids"
    PERFORMER "Hanoi Rocks"
    INDEX 00 26:02:69
    INDEX 01 26:02:70
  TRACK 09 AUDIO
    TITLE "Walking With My Angel"
    PERFORMER "Hanoi Rocks"
    INDEX 00 30:01:37
    INDEX 01 30:02:30
  TRACK 10 AUDIO
    TITLE "Pretender"
    PERFORMER "Hanoi Rocks"
    INDEX 00 32:15:49
    INDEX 01 32:16:60
  TRACK 11 AUDIO
    TITLE "Cafe Avenue (Original Version) / Bonus Track"
    PERFORMER "Hanoi Rocks"
    INDEX 00 35:48:41
    INDEX 01 35:52:30
  TRACK 12 AUDIO
    TITLE "Rebel On The Run / Bonus Track"
    PERFORMER "Hanoi Rocks"
    INDEX 00 40:46:21
    INDEX 01 40:47:50
  TRACK 13 AUDIO
    TITLE "I Love You (Demo) / Bonus Track"
    PERFORMER "Hanoi Rocks"
    INDEX 00 43:35:31
    INDEX 01 43:36:60

Код:
Код:
Exact Audio Copy V1.0 beta 3 from 29. August 2011

EAC extraction logfile from 6. January 2014, 18:28

Hanoi Rocks / Bangkok Shocks Saigon Shakes Hanoi Rocks

Used drive  : PLEXTOR BD-R  PX-B950SA   Adapter: 6  ID: 0

Read mode               : Secure
Utilize accurate stream : Yes
Defeat audio cache      : Yes
Make use of C2 pointers : No

Read offset correction                      : 6
Overread into Lead-In and Lead-Out          : No
Fill up missing offset samples with silence : Yes
Delete leading and trailing silent blocks   : No
Null samples used in CRC calculations       : Yes
Used interface                              : Native Win32 interface for Win NT & 2000

Used output format : Internal WAV Routines
Sample format      : 44.100 Hz; 16 Bit; Stereo

TOC of the extracted CD

     Track |   Start  |  Length  | Start sector | End sector
    ---------------------------------------------------------
        1  |  0:00.00 |  4:06.00 |         0    |    18449
        2  |  4:06.00 |  3:04.43 |     18450    |    32292
        3  |  7:10.43 |  3:55.70 |     32293    |    49987
        4  | 11:06.38 |  3:59.45 |     49988    |    67957
        5  | 15:06.08 |  3:51.15 |     67958    |    85297
        6  | 18:57.23 |  3:04.00 |     85298    |    99097
        7  | 22:01.23 |  4:01.47 |     99098    |   117219
        8  | 26:02.70 |  3:59.35 |    117220    |   135179
        9  | 30:02.30 |  2:14.30 |    135180    |   145259
       10  | 32:16.60 |  3:35.45 |    145260    |   161429
       11  | 35:52.30 |  4:55.20 |    161430    |   183574
       12  | 40:47.50 |  2:49.10 |    183575    |   196259
       13  | 43:36.60 |  2:07.50 |    196260    |   205834

Range status and errors

Selected range

     Filename C:\Users\Meijin\Desktop\Lossless Galaxy ALLexxess\Hanoi Rocks\1981 Bangkok Shocks Saigon Shakes Hanoi Rocks (Mini LP SHM-CD Victor Japan 2013)\Hanoi Rocks - Bangkok Shocks Saigon Shakes Hanoi Rocks.wav

     Peak level 98.8 %
     Extraction speed 3.1 X
     Range quality 100.0 %
     Test CRC 39A9A7FB
     Copy CRC 39A9A7FB
     Copy OK

No errors occurred

AccurateRip summary

Track  1  not present in database
Track  2  not present in database
Track  3  not present in database
Track  4  not present in database
Track  5  not present in database
Track  6  not present in database
Track  7  not present in database
Track  8  not present in database
Track  9  not present in database
Track 10  not present in database
Track 11  not present in database
Track 12  not present in database
Track 13  not present in database

None of the tracks are present in the AccurateRip database

End of status report

==== Log checksum 7B998D9F4686FBDACDDB6F6323110871A14A887C1058B4AC1F794A069CFE6F56 ====

Код:
Код:
-----------------------

DON'T MODIFY THIS FILE

-----------------------

PERFORMER: auCDtect Task Manager, ver. 1.6.0 RC1 build 1.6.0.1
Copyright (c) 2008-2010 y-soft. All rights reserved
http:/y-soft.org

ANALYZER: auCDtect: CD records authenticity detector, version 0.8.2
Copyright (c) 2004 Oleg Berngardt. All rights reserved.
Copyright (c) 2004 Alexander Djourik. All rights reserved.

FILE: Hanoi Rocks - Bangkok Shocks Saigon Shakes Hanoi Rocks.flac
  Size: 362375272 Hash: 87940C405FE0139330CCE3889752ECF3 Accuracy: -m0
  Conclusion: CDDA 100%
  Signature: 66BAE07CD3147F45CE757E28A3C959C318D55DE8


Продолжительноcть: 00:49:46
Треклист:
01. Motorvatin' (3:12)
02. Don't Follow Me (3:17)
03. Visitor (3:13)
04. Teenangels Outsiders (3:22)
05. Sweet Home Suburbia (4:44)
06. M.C. Baby (3:01)
07. No Law Or Order (3:41)
08. Oriental Beat (3:09)
09. Devil Woman (2:55)
10. Lightnin' Bar Blues (2:39)
11. Fallen Star (2:37)
12. Devil Woman (Original Version) / Bonus Track (2:53)
13. Do The Duck / Bonus Track (2:47)
14. Hometown Breakdown (Demo) / Bonus Track (4:01)
15. Willing To Cross The Ocean (Demo) / Bonus Track (4:16)
REM GENRE "Rock / Glam / Hard Rock"
REM DATE 1982
REM DISCID C90BA90F
REM COMMENT "ExactAudioCopy v1.0b3"
PERFORMER "Hanoi Rocks"
TITLE "Oriental Beat"
FILE "Hanoi Rocks - Oriental Beat.flac" WAVE
TRACK 01 AUDIO
TITLE "Motorvatin'"
PERFORMER "Hanoi Rocks"
INDEX 01 00:00:00
TRACK 02 AUDIO
TITLE "Don't Follow Me"
PERFORMER "Hanoi Rocks"
INDEX 00 03:11:16
INDEX 01 03:12:31
TRACK 03 AUDIO
TITLE "Visitor"
PERFORMER "Hanoi Rocks"
INDEX 00 06:28:06
INDEX 01 06:29:28
TRACK 04 AUDIO
TITLE "Teenangels Outsiders"
PERFORMER "Hanoi Rocks"
INDEX 00 09:39:74
INDEX 01 09:42:63
TRACK 05 AUDIO
TITLE "Sweet Home Suburbia"
PERFORMER "Hanoi Rocks"
INDEX 00 13:03:21
INDEX 01 13:04:61
TRACK 06 AUDIO
TITLE "M.C. Baby"
PERFORMER "Hanoi Rocks"
INDEX 00 17:46:34
INDEX 01 17:48:31
TRACK 07 AUDIO
TITLE "No Law Or Order"
PERFORMER "Hanoi Rocks"
INDEX 00 20:48:11
INDEX 01 20:49:53
TRACK 08 AUDIO
TITLE "Oriental Beat"
PERFORMER "Hanoi Rocks"
INDEX 00 24:28:14
INDEX 01 24:30:38
TRACK 09 AUDIO
TITLE "Devil Woman"
PERFORMER "Hanoi Rocks"
INDEX 00 27:37:04
INDEX 01 27:39:08
TRACK 10 AUDIO
TITLE "Lightnin' Bar Blues"
PERFORMER "Hanoi Rocks"
INDEX 00 30:32:01
INDEX 01 30:33:56
TRACK 11 AUDIO
TITLE "Fallen Star"
PERFORMER "Hanoi Rocks"
INDEX 00 33:10:24
INDEX 01 33:12:41
TRACK 12 AUDIO
TITLE "Devil Woman (Original Version) / Bonus Track"
PERFORMER "Hanoi Rocks"
INDEX 00 35:45:16
INDEX 01 35:49:11
TRACK 13 AUDIO
TITLE "Do The Duck / Bonus Track"
PERFORMER "Hanoi Rocks"
INDEX 00 38:40:66
INDEX 01 38:42:21
TRACK 14 AUDIO
TITLE "Hometown Breakdown (Demo) / Bonus Track"
PERFORMER "Hanoi Rocks"
INDEX 00 41:27:36
INDEX 01 41:28:66
TRACK 15 AUDIO
TITLE "Willing To Cross The Ocean (Demo) / Bonus Track"
PERFORMER "Hanoi Rocks"
INDEX 00 45:28:46
INDEX 01 45:30:01
Код:
Код:
Exact Audio Copy V1.0 beta 3 from 29. August 2011

EAC extraction logfile from 6. January 2014, 13:23

Hanoi Rocks / Oriental Beat

Used drive  : PLEXTOR BD-R  PX-B950SA   Adapter: 6  ID: 0

Read mode               : Secure
Utilize accurate stream : Yes
Defeat audio cache      : Yes
Make use of C2 pointers : No

Read offset correction                      : 6
Overread into Lead-In and Lead-Out          : No
Fill up missing offset samples with silence : Yes
Delete leading and trailing silent blocks   : No
Null samples used in CRC calculations       : Yes
Used interface                              : Native Win32 interface for Win NT & 2000

Used output format : Internal WAV Routines
Sample format      : 44.100 Hz; 16 Bit; Stereo

TOC of the extracted CD

     Track |   Start  |  Length  | Start sector | End sector
    ---------------------------------------------------------
        1  |  0:00.00 |  3:12.31 |         0    |    14430
        2  |  3:12.31 |  3:16.72 |     14431    |    29202
        3  |  6:29.28 |  3:13.35 |     29203    |    43712
        4  |  9:42.63 |  3:21.73 |     43713    |    58860
        5  | 13:04.61 |  4:43.45 |     58861    |    80130
        6  | 17:48.31 |  3:01.22 |     80131    |    93727
        7  | 20:49.53 |  3:40.60 |     93728    |   110287
        8  | 24:30.38 |  3:08.45 |    110288    |   124432
        9  | 27:39.08 |  2:54.48 |    124433    |   137530
       10  | 30:33.56 |  2:38.60 |    137531    |   149440
       11  | 33:12.41 |  2:36.45 |    149441    |   161185
       12  | 35:49.11 |  2:53.10 |    161186    |   174170
       13  | 38:42.21 |  2:46.45 |    174171    |   186665
       14  | 41:28.66 |  4:01.10 |    186666    |   204750
       15  | 45:30.01 |  4:15.45 |    204751    |   223920

Range status and errors

Selected range

     Filename C:\Users\Meijin\Desktop\Lossless Galaxy ALLexxess\Hanoi Rocks\1982 Oriental Beat (Mini LP SHM-CD Victor Japan 2013)\Hanoi Rocks - Oriental Beat.wav

     Peak level 98.8 %
     Extraction speed 7.1 X
     Range quality 100.0 %
     Test CRC 9C3CE4E3
     Copy CRC 9C3CE4E3
     Copy OK

No errors occurred

AccurateRip summary

Track  1  not present in database
Track  2  not present in database
Track  3  not present in database
Track  4  not present in database
Track  5  not present in database
Track  6  not present in database
Track  7  not present in database
Track  8  not present in database
Track  9  not present in database
Track 10  not present in database
Track 11  not present in database
Track 12  not present in database
Track 13  not present in database
Track 14  not present in database
Track 15  not present in database

None of the tracks are present in the AccurateRip database

End of status report

==== Log checksum A2631F220FADA6F67A9705BAC3A7DCE6F364FBCD8D8BF1BDDD9430737CFB1494 ====

Код:
Код:
-----------------------

DON'T MODIFY THIS FILE

-----------------------

PERFORMER: auCDtect Task Manager, ver. 1.6.0 RC1 build 1.6.0.1
Copyright (c) 2008-2010 y-soft. All rights reserved
http:/y-soft.org

ANALYZER: auCDtect: CD records authenticity detector, version 0.8.2
Copyright (c) 2004 Oleg Berngardt. All rights reserved.
Copyright (c) 2004 Alexander Djourik. All rights reserved.

FILE: Hanoi Rocks - Oriental Beat.flac
  Size: 366099062 Hash: BE0564CE1EB0220DC8F8342E59CB07AC Accuracy: -m0
  Conclusion: MPEG 95%
  Signature: 26C09884BD67BA1170BB4416E15583AD91AD47A9


Продолжительноcть: 00:49:59
Треклист:
01. Love's An Injection (3:21)
02. I Want You (3:14)
03. Cafe Avenue (3:22)
04. Nothing New (3:19)
05. Kill City (4:26)
06. Self Destruction Blues (2:44)
07. Beer And A Cigarette (3:21)
08. Whispers In The Dark (3:34)
09. Taxi Driver (4:12)
10. Desperados (3:58)
11. Problem Child (2:02)
12. Dead By X-Mas (3:02)
13. In Th Year '79 (It's Too Late) / Bonus Track (2:17)
14. Love's An Injection (Demo) / Bonus Track (3:04)
15. Black Sabbath (feat. Razzle On Vocals & Michael On Drums) / Bonus Track (4:02)
REM GENRE "Rock / Glam / Hard Rock"
REM DATE 1982
REM DISCID E10BB60F
REM COMMENT "ExactAudioCopy v1.0b3"
PERFORMER "Hanoi Rocks"
TITLE "Self Destruction Blues"
FILE "Hanoi Rocks - Self Destruction Blues.flac" WAVE
TRACK 01 AUDIO
TITLE "Love's An Injection"
PERFORMER "Hanoi Rocks"
INDEX 01 00:00:00
TRACK 02 AUDIO
TITLE "I Want You"
PERFORMER "Hanoi Rocks"
INDEX 00 03:21:20
INDEX 01 03:21:35
TRACK 03 AUDIO
TITLE "Cafe Avenue"
PERFORMER "Hanoi Rocks"
INDEX 00 06:34:45
INDEX 01 06:35:48
TRACK 04 AUDIO
TITLE "Nothing New"
PERFORMER "Hanoi Rocks"
INDEX 00 09:57:20
INDEX 01 09:57:65
TRACK 05 AUDIO
TITLE "Kill City"
PERFORMER "Hanoi Rocks"
INDEX 00 13:15:53
INDEX 01 13:16:63
TRACK 06 AUDIO
TITLE "Self Destruction Blues"
PERFORMER "Hanoi Rocks"
INDEX 00 17:42:68
INDEX 01 17:43:00
TRACK 07 AUDIO
TITLE "Beer And A Cigarette"
PERFORMER "Hanoi Rocks"
INDEX 00 20:26:23
INDEX 01 20:27:23
TRACK 08 AUDIO
TITLE "Whispers In The Dark"
PERFORMER "Hanoi Rocks"
INDEX 00 23:47:53
INDEX 01 23:48:50
TRACK 09 AUDIO
TITLE "Taxi Driver"
PERFORMER "Hanoi Rocks"
INDEX 00 27:22:00
INDEX 01 27:22:18
TRACK 10 AUDIO
TITLE "Desperados"
PERFORMER "Hanoi Rocks"
INDEX 00 31:33:50
INDEX 01 31:33:58
TRACK 11 AUDIO
TITLE "Problem Child"
PERFORMER "Hanoi Rocks"
INDEX 00 35:31:68
INDEX 01 35:32:00
TRACK 12 AUDIO
TITLE "Dead By X-Mas"
PERFORMER "Hanoi Rocks"
INDEX 00 37:32:48
INDEX 01 37:33:45
TRACK 13 AUDIO
TITLE "In Th Year '79 (It's Too Late) / Bonus Track"
PERFORMER "Hanoi Rocks"
INDEX 00 40:31:40
INDEX 01 40:35:25
TRACK 14 AUDIO
TITLE "Love's An Injection (Demo) / Bonus Track"
PERFORMER "Hanoi Rocks"
INDEX 00 42:50:65
INDEX 01 42:52:20
TRACK 15 AUDIO
TITLE "Black Sabbath (feat. Razzle On Vocals & Michael On Drums) / Bonus Track"
PERFORMER "Hanoi Rocks"
INDEX 00 45:55:25
INDEX 01 45:56:55
Код:
Код:
Exact Audio Copy V1.0 beta 3 from 29. August 2011

EAC extraction logfile from 6. January 2014, 12:51

Hanoi Rocks / Self Destruction Blues

Used drive  : PLEXTOR BD-R  PX-B950SA   Adapter: 6  ID: 0

Read mode               : Secure
Utilize accurate stream : Yes
Defeat audio cache      : Yes
Make use of C2 pointers : No

Read offset correction                      : 6
Overread into Lead-In and Lead-Out          : No
Fill up missing offset samples with silence : Yes
Delete leading and trailing silent blocks   : No
Null samples used in CRC calculations       : Yes
Used interface                              : Native Win32 interface for Win NT & 2000

Used output format : Internal WAV Routines
Sample format      : 44.100 Hz; 16 Bit; Stereo

TOC of the extracted CD

     Track |   Start  |  Length  | Start sector | End sector
    ---------------------------------------------------------
        1  |  0:00.00 |  3:21.35 |         0    |    15109
        2  |  3:21.35 |  3:14.13 |     15110    |    29672
        3  |  6:35.48 |  3:22.17 |     29673    |    44839
        4  |  9:57.65 |  3:18.73 |     44840    |    59762
        5  | 13:16.63 |  4:26.12 |     59763    |    79724
        6  | 17:43.00 |  2:44.23 |     79725    |    92047
        7  | 20:27.23 |  3:21.27 |     92048    |   107149
        8  | 23:48.50 |  3:33.43 |    107150    |   123167
        9  | 27:22.18 |  4:11.40 |    123168    |   142032
       10  | 31:33.58 |  3:58.17 |    142033    |   159899
       11  | 35:32.00 |  2:01.45 |    159900    |   169019
       12  | 37:33.45 |  3:01.55 |    169020    |   182649
       13  | 40:35.25 |  2:16.70 |    182650    |   192919
       14  | 42:52.20 |  3:04.35 |    192920    |   206754
       15  | 45:56.55 |  4:02.00 |    206755    |   224904

Range status and errors

Selected range

     Filename C:\Users\Meijin\Desktop\Lossless Galaxy ALLexxess\Hanoi Rocks\1982 Self Destruction Blues (Mini LP SHM-CD Victor Japan 2013)\Hanoi Rocks - Self Destruction Blues.wav

     Peak level 98.8 %
     Extraction speed 7.1 X
     Range quality 100.0 %
     Test CRC 98078346
     Copy CRC 98078346
     Copy OK

No errors occurred

AccurateRip summary

Track  1  not present in database
Track  2  not present in database
Track  3  not present in database
Track  4  not present in database
Track  5  not present in database
Track  6  not present in database
Track  7  not present in database
Track  8  not present in database
Track  9  not present in database
Track 10  not present in database
Track 11  not present in database
Track 12  not present in database
Track 13  not present in database
Track 14  not present in database
Track 15  not present in database

None of the tracks are present in the AccurateRip database

End of status report

==== Log checksum 5DEF453BE18A334EF4D5EB9129157E51ECF5987B580353F715E4126BD69EFDA7 ====

Код:
Код:
-----------------------

DON'T MODIFY THIS FILE

-----------------------

PERFORMER: auCDtect Task Manager, ver. 1.6.0 RC1 build 1.6.0.1
Copyright (c) 2008-2010 y-soft. All rights reserved
http:/y-soft.org

ANALYZER: auCDtect: CD records authenticity detector, version 0.8.2
Copyright (c) 2004 Oleg Berngardt. All rights reserved.
Copyright (c) 2004 Alexander Djourik. All rights reserved.

FILE: Hanoi Rocks - Self Destruction Blues.flac
  Size: 377525829 Hash: 0CAAD0C7DAAB0B355BCEC6FCCDAC75E6 Accuracy: -m0
  Conclusion: CDDA 100%
  Signature: AC4E6AFA1C3EDE06CC9FC89F10FC6F42F7D3F70D


Продолжительноcть: 00:57:12
Треклист:
01. Strange Boys Play Weird Openings (0:43)
02. Malibu Beach Nightmare (2:47)
03. Mental Beat (5:03)
04. Tooting Bec Wreck (6:12)
05. Until I Get You (4:37)
06. Sailing Down The Tears (4:10)
07. Lick Summer Love (4:22)
08. Beating Gets Faster (3:51)
09. Ice Cream Summer (5:10)
10. Back To Mystery City (4:59)
11. Malibu Beach Nightmare (Calypso) / Bonus Track (2:06)
12. Back To Mystery City (Demo) / Bonus Track (4:58)
13. Until I Get You (Demo) / Bonus Track (3:54)
14. Ice Cream Summer (Demo) / Bonus Track (4:22)
REM GENRE "Rock / Glam / Hard Rock"
REM DATE 1983
REM DISCID A90D680E
REM COMMENT "ExactAudioCopy v1.0b3"
PERFORMER "Hanoi Rocks"
TITLE "Back To Mystery City"
FILE "Hanoi Rocks - Back To Mystery City.flac" WAVE
TRACK 01 AUDIO
TITLE "Strange Boys Play Weird Openings"
PERFORMER "Hanoi Rocks"
INDEX 01 00:00:00
TRACK 02 AUDIO
TITLE "Malibu Beach Nightmare"
PERFORMER "Hanoi Rocks"
INDEX 01 00:42:65
TRACK 03 AUDIO
TITLE "Mental Beat"
PERFORMER "Hanoi Rocks"
INDEX 01 03:29:45
TRACK 04 AUDIO
TITLE "Tooting Bec Wreck"
PERFORMER "Hanoi Rocks"
INDEX 01 08:32:23
TRACK 05 AUDIO
TITLE "Until I Get You"
PERFORMER "Hanoi Rocks"
INDEX 01 14:43:70
TRACK 06 AUDIO
TITLE "Sailing Down The Tears"
PERFORMER "Hanoi Rocks"
INDEX 00 19:19:38
INDEX 01 19:20:73
TRACK 07 AUDIO
TITLE "Lick Summer Love"
PERFORMER "Hanoi Rocks"
INDEX 00 23:29:25
INDEX 01 23:30:58
TRACK 08 AUDIO
TITLE "Beating Gets Faster"
PERFORMER "Hanoi Rocks"
INDEX 00 27:51:68
INDEX 01 27:53:08
TRACK 09 AUDIO
TITLE "Ice Cream Summer"
PERFORMER "Hanoi Rocks"
INDEX 01 31:44:45
TRACK 10 AUDIO
TITLE "Back To Mystery City"
PERFORMER "Hanoi Rocks"
INDEX 01 36:54:33
TRACK 11 AUDIO
TITLE "Malibu Beach Nightmare (Calypso) / Bonus Track"
PERFORMER "Hanoi Rocks"
INDEX 00 41:49:15
INDEX 01 41:53:00
TRACK 12 AUDIO
TITLE "Back To Mystery City (Demo) / Bonus Track"
PERFORMER "Hanoi Rocks"
INDEX 00 43:57:10
INDEX 01 43:58:40
TRACK 13 AUDIO
TITLE "Until I Get You (Demo) / Bonus Track"
PERFORMER "Hanoi Rocks"
INDEX 00 48:54:70
INDEX 01 48:56:25
TRACK 14 AUDIO
TITLE "Ice Cream Summer (Demo) / Bonus Track"
PERFORMER "Hanoi Rocks"
INDEX 00 52:48:45
INDEX 01 52:50:00
Код:
Код:
Exact Audio Copy V1.0 beta 3 from 29. August 2011

EAC extraction logfile from 6. January 2014, 12:16

Hanoi Rocks / Back To Mystery City

Used drive  : PLEXTOR BD-R  PX-B950SA   Adapter: 6  ID: 0

Read mode               : Secure
Utilize accurate stream : Yes
Defeat audio cache      : Yes
Make use of C2 pointers : No

Read offset correction                      : 6
Overread into Lead-In and Lead-Out          : No
Fill up missing offset samples with silence : Yes
Delete leading and trailing silent blocks   : No
Null samples used in CRC calculations       : Yes
Used interface                              : Native Win32 interface for Win NT & 2000

Used output format : Internal WAV Routines
Sample format      : 44.100 Hz; 16 Bit; Stereo

TOC of the extracted CD

     Track |   Start  |  Length  | Start sector | End sector
    ---------------------------------------------------------
        1  |  0:00.00 |  0:42.65 |         0    |     3214
        2  |  0:42.65 |  2:46.55 |      3215    |    15719
        3  |  3:29.45 |  5:02.53 |     15720    |    38422
        4  |  8:32.23 |  6:11.47 |     38423    |    66294
        5  | 14:43.70 |  4:37.03 |     66295    |    87072
        6  | 19:20.73 |  4:09.60 |     87073    |   105807
        7  | 23:30.58 |  4:22.25 |    105808    |   125482
        8  | 27:53.08 |  3:51.37 |    125483    |   142844
        9  | 31:44.45 |  5:09.63 |    142845    |   166082
       10  | 36:54.33 |  4:58.42 |    166083    |   188474
       11  | 41:53.00 |  2:05.40 |    188475    |   197889
       12  | 43:58.40 |  4:57.60 |    197890    |   220224
       13  | 48:56.25 |  3:53.50 |    220225    |   237749
       14  | 52:50.00 |  4:22.30 |    237750    |   257429

Range status and errors

Selected range

     Filename C:\Users\Meijin\Desktop\Lossless Galaxy ALLexxess\Hanoi Rocks\1983 Back To Mystery City (Mini LP SHM-CD Victor Japan 2013)\Hanoi Rocks - Back To Mystery City.wav

     Peak level 98.8 %
     Extraction speed 7.3 X
     Range quality 100.0 %
     Test CRC 7C650524
     Copy CRC 7C650524
     Copy OK

No errors occurred

AccurateRip summary

Track  1  not present in database
Track  2  not present in database
Track  3  not present in database
Track  4  not present in database
Track  5  not present in database
Track  6  not present in database
Track  7  not present in database
Track  8  not present in database
Track  9  not present in database
Track 10  not present in database
Track 11  not present in database
Track 12  not present in database
Track 13  not present in database
Track 14  not present in database

None of the tracks are present in the AccurateRip database

End of status report

==== Log checksum F77418DCE734CB4200FFE81F97E06F69F34C8A8D2FD75E983E4B35E12B0C9737 ====

Код:
Код:
-----------------------

DON'T MODIFY THIS FILE

-----------------------

PERFORMER: auCDtect Task Manager, ver. 1.6.0 RC1 build 1.6.0.1
Copyright (c) 2008-2010 y-soft. All rights reserved
http:/y-soft.org

ANALYZER: auCDtect: CD records authenticity detector, version 0.8.2
Copyright (c) 2004 Oleg Berngardt. All rights reserved.
Copyright (c) 2004 Alexander Djourik. All rights reserved.

FILE: Hanoi Rocks - Back To Mystery City.flac
  Size: 422217280 Hash: 425D53D095EAE31060BEBDABF73761EF Accuracy: -m0
  Conclusion: CDDA 100%
  Signature: 4BA1692EFC47B9171ECABFA85B995BF742D74995


Продолжительноcть: 01:06:21
Треклист:
01. Up Around The Bend (3:09)
02. High School (3:55)
03. I Can't Get It (4:15)
04. Underwater World (5:20)
05. Don't You Ever Leave Me (4:06)
06. Million Miles Away (4:50)
07. Boulevard Of Broken Dreams (4:06)
08. Boiler (Me Boiler 'N' Me) (4:25)
09. Futurama (3:09)
10. Cutting Corners (4:23)
11. Two Steps From The Move (Demo) / Bonus Track (2:22)
12. Oil And Gasoline / Bonus Track (4:44)
13. Magic Carpet Ride / Bonus Track (4:31)
14. Shakes / Bonus Track (3:25)
15. Don't You Ever Leave Me (12 Inch Version) / Bonus Track (4:02)
16. Never Get Enough (Demo) / Bonus Track (5:38)
Код:
Код:
REM GENRE "Rock / Glam / Hard Rock"
REM DATE 1984
REM DISCID CF0F8D10
REM COMMENT "ExactAudioCopy v1.0b3"
PERFORMER "Hanoi Rocks"
TITLE "Two Steps From The Move"
FILE "Hanoi Rocks - Two Steps From The Move.flac" WAVE
  TRACK 01 AUDIO
    TITLE "Up Around The Bend"
    PERFORMER "Hanoi Rocks"
    INDEX 01 00:00:00
  TRACK 02 AUDIO
    TITLE "High School"
    PERFORMER "Hanoi Rocks"
    INDEX 00 03:08:23
    INDEX 01 03:09:15
  TRACK 03 AUDIO
    TITLE "I Can't Get It"
    PERFORMER "Hanoi Rocks"
    INDEX 01 07:03:68
  TRACK 04 AUDIO
    TITLE "Underwater World"
    PERFORMER "Hanoi Rocks"
    INDEX 01 11:19:08
  TRACK 05 AUDIO
    TITLE "Don't You Ever Leave Me"
    PERFORMER "Hanoi Rocks"
    INDEX 01 16:39:03
  TRACK 06 AUDIO
    TITLE "Million Miles Away"
    PERFORMER "Hanoi Rocks"
    INDEX 01 20:45:28
  TRACK 07 AUDIO
    TITLE "Boulevard Of Broken Dreams"
    PERFORMER "Hanoi Rocks"
    INDEX 01 25:35:60
  TRACK 08 AUDIO
    TITLE "Boiler (Me Boiler 'N' Me)"
    PERFORMER "Hanoi Rocks"
    INDEX 01 29:41:38
  TRACK 09 AUDIO
    TITLE "Futurama"
    PERFORMER "Hanoi Rocks"
    INDEX 01 34:06:40
  TRACK 10 AUDIO
    TITLE "Cutting Corners"
    PERFORMER "Hanoi Rocks"
    INDEX 00 37:14:63
    INDEX 01 37:15:60
  TRACK 11 AUDIO
    TITLE "Two Steps From The Move (Demo) / Bonus Track"
    PERFORMER "Hanoi Rocks"
    INDEX 00 41:34:55
    INDEX 01 41:38:40
  TRACK 12 AUDIO
    TITLE "Oil And Gasoline / Bonus Track"
    PERFORMER "Hanoi Rocks"
    INDEX 00 43:59:05
    INDEX 01 44:00:35
  TRACK 13 AUDIO
    TITLE "Magic Carpet Ride / Bonus Track"
    PERFORMER "Hanoi Rocks"
    INDEX 00 48:43:35
    INDEX 01 48:44:65
  TRACK 14 AUDIO
    TITLE "Shakes / Bonus Track"
    PERFORMER "Hanoi Rocks"
    INDEX 00 53:14:45
    INDEX 01 53:16:00
  TRACK 15 AUDIO
    TITLE "Don't You Ever Leave Me (12 Inch Version) / Bonus Track"
    PERFORMER "Hanoi Rocks"
    INDEX 00 56:40:05
    INDEX 01 56:41:35
  TRACK 16 AUDIO
    TITLE "Never Get Enough (Demo) / Bonus Track"
    PERFORMER "Hanoi Rocks"
    INDEX 00 60:41:65
    INDEX 01 60:43:20
Код:
Код:
Exact Audio Copy V1.0 beta 3 from 29. August 2011

EAC extraction logfile from 6. January 2014, 11:40

Hanoi Rocks / Two Steps From The Move

Used drive  : PLEXTOR BD-R  PX-B950SA   Adapter: 6  ID: 0

Read mode               : Secure
Utilize accurate stream : Yes
Defeat audio cache      : Yes
Make use of C2 pointers : No

Read offset correction                      : 6
Overread into Lead-In and Lead-Out          : No
Fill up missing offset samples with silence : Yes
Delete leading and trailing silent blocks   : No
Null samples used in CRC calculations       : Yes
Used interface                              : Native Win32 interface for Win NT & 2000

Used output format : Internal WAV Routines
Sample format      : 44.100 Hz; 16 Bit; Stereo

TOC of the extracted CD

     Track |   Start  |  Length  | Start sector | End sector
    ---------------------------------------------------------
        1  |  0:00.00 |  3:09.15 |         0    |    14189
        2  |  3:09.15 |  3:54.53 |     14190    |    31792
        3  |  7:03.68 |  4:15.15 |     31793    |    50932
        4  | 11:19.08 |  5:19.70 |     50933    |    74927
        5  | 16:39.03 |  4:06.25 |     74928    |    93402
        6  | 20:45.28 |  4:50.32 |     93403    |   115184
        7  | 25:35.60 |  4:05.53 |    115185    |   133612
        8  | 29:41.38 |  4:25.02 |    133613    |   153489
        9  | 34:06.40 |  3:09.20 |    153490    |   167684
       10  | 37:15.60 |  4:22.55 |    167685    |   187389
       11  | 41:38.40 |  2:21.70 |    187390    |   198034
       12  | 44:00.35 |  4:44.30 |    198035    |   219364
       13  | 48:44.65 |  4:31.10 |    219365    |   239699
       14  | 53:16.00 |  3:25.35 |    239700    |   255109
       15  | 56:41.35 |  4:01.60 |    255110    |   273244
       16  | 60:43.20 |  5:37.60 |    273245    |   298579

Range status and errors

Selected range

     Filename C:\Users\Meijin\Desktop\Lossless Galaxy ALLexxess\Hanoi Rocks\1984 Two Steps From The Move (Mini LP SHM-CD Victor Japan 2013)\Hanoi Rocks - Two Steps From The Move.wav

     Peak level 98.8 %
     Extraction speed 6.7 X
     Range quality 100.0 %
     Test CRC A62C606C
     Copy CRC A62C606C
     Copy OK

No errors occurred

AccurateRip summary

Track  1  not present in database
Track  2  not present in database
Track  3  not present in database
Track  4  not present in database
Track  5  not present in database
Track  6  not present in database
Track  7  not present in database
Track  8  not present in database
Track  9  not present in database
Track 10  not present in database
Track 11  not present in database
Track 12  not present in database
Track 13  not present in database
Track 14  not present in database
Track 15  not present in database
Track 16  not present in database

None of the tracks are present in the AccurateRip database

End of status report

==== Log checksum 8CA4DC44197CE09B1D365772DD6E62B48245E3CF8FE5B2C1776A59B0A79985E1 ====

Код:
Код:
-----------------------

DON'T MODIFY THIS FILE

-----------------------

PERFORMER: auCDtect Task Manager, ver. 1.6.0 RC1 build 1.6.0.1
Copyright (c) 2008-2010 y-soft. All rights reserved
http:/y-soft.org

ANALYZER: auCDtect: CD records authenticity detector, version 0.8.2
Copyright (c) 2004 Oleg Berngardt. All rights reserved.
Copyright (c) 2004 Alexander Djourik. All rights reserved.

FILE: Hanoi Rocks - Two Steps From The Move.flac
  Size: 490705963 Hash: 22089248A48AE096E4C4CBDB84785B5B Accuracy: -m0
  Conclusion: CDDA 100%
  Signature: 08199B09DFE604621CD7B2783669CED162FCEC62


Продолжительноcть: 01:16:36
Треклист:
01. Strange Boys Play Weird Openings (0:43)
02. Malibu Beach Nightmare (2:49)
03. Ice Cream Summer (5:14)
04. Oriental Beat (3:22)
05. Don't You Ever Leave Me (4:09)
06. Tragedy (4:06)
07. Love's An Injection (3:24)
08. Underwater World (5:22)
09. Two Steps From The Move (2:39)
10. Under My Wheels (3:06)
11. Up Around The Bend (3:09)
12. Million Miles Away (4:52)
13. Cheyenne (3:34)
14. Life's Been So Hard (Demo) / Bonus Track (5:00)
15. Menaced By Nightingales (Demo) / Bonus Track (4:15)
16. Shame, Shame, Shame (Demo) / Bonus Track (4:18)
17. Fast Car (Demo) / Bonus Track (2:26)
18. Heart Attack (Demo) / Bonus Track (4:28)
19. Rock & Roll (Demo) / Bonus Track (4:00)
20. Lean On Me (Demo) / Bonus Track (5:40)
Код:
Код:
REM GENRE "Rock / Glam / Hard Rock"
REM DATE 1986
REM DISCID 1F11F314
REM COMMENT "ExactAudioCopy v1.0b3"
PERFORMER "Hanoi Rocks"
TITLE "Million Miles Away"
FILE "Hanoi Rocks - Million Miles Away.flac" WAVE
  TRACK 01 AUDIO
    TITLE "Strange Boys Play Weird Openings"
    PERFORMER "Hanoi Rocks"
    INDEX 01 00:00:00
  TRACK 02 AUDIO
    TITLE "Malibu Beach Nightmare"
    PERFORMER "Hanoi Rocks"
    INDEX 01 00:42:70
  TRACK 03 AUDIO
    TITLE "Ice Cream Summer"
    PERFORMER "Hanoi Rocks"
    INDEX 00 03:30:08
    INDEX 01 03:31:63
  TRACK 04 AUDIO
    TITLE "Oriental Beat"
    PERFORMER "Hanoi Rocks"
    INDEX 00 08:44:08
    INDEX 01 08:45:28
  TRACK 05 AUDIO
    TITLE "Don't You Ever Leave Me"
    PERFORMER "Hanoi Rocks"
    INDEX 00 12:06:10
    INDEX 01 12:07:43
  TRACK 06 AUDIO
    TITLE "Tragedy"
    PERFORMER "Hanoi Rocks"
    INDEX 00 16:14:13
    INDEX 01 16:16:35
  TRACK 07 AUDIO
    TITLE "Love's An Injection"
    PERFORMER "Hanoi Rocks"
    INDEX 00 20:21:25
    INDEX 01 20:22:38
  TRACK 08 AUDIO
    TITLE "Underwater World"
    PERFORMER "Hanoi Rocks"
    INDEX 00 23:45:18
    INDEX 01 23:46:40
  TRACK 09 AUDIO
    TITLE "Two Steps From The Move"
    PERFORMER "Hanoi Rocks"
    INDEX 00 29:06:43
    INDEX 01 29:08:18
  TRACK 10 AUDIO
    TITLE "Under My Wheels"
    PERFORMER "Hanoi Rocks"
    INDEX 00 31:45:58
    INDEX 01 31:47:20
  TRACK 11 AUDIO
    TITLE "Up Around The Bend"
    PERFORMER "Hanoi Rocks"
    INDEX 00 34:50:55
    INDEX 01 34:53:25
  TRACK 12 AUDIO
    TITLE "Million Miles Away"
    PERFORMER "Hanoi Rocks"
    INDEX 00 38:01:35
    INDEX 01 38:02:40
  TRACK 13 AUDIO
    TITLE "Cheyenne"
    PERFORMER "Hanoi Rocks"
    INDEX 00 42:53:58
    INDEX 01 42:54:58
  TRACK 14 AUDIO
    TITLE "Life's Been So Hard (Demo) / Bonus Track"
    PERFORMER "Hanoi Rocks"
    INDEX 00 46:25:30
    INDEX 01 46:29:15
  TRACK 15 AUDIO
    TITLE "Menaced By Nightingales (Demo) / Bonus Track"
    PERFORMER "Hanoi Rocks"
    INDEX 00 51:28:05
    INDEX 01 51:29:35
  TRACK 16 AUDIO
    TITLE "Shame, Shame, Shame (Demo) / Bonus Track"
    PERFORMER "Hanoi Rocks"
    INDEX 00 55:42:60
    INDEX 01 55:44:15
  TRACK 17 AUDIO
    TITLE "Fast Car (Demo) / Bonus Track"
    PERFORMER "Hanoi Rocks"
    INDEX 00 60:00:30
    INDEX 01 60:01:60
  TRACK 18 AUDIO
    TITLE "Heart Attack (Demo) / Bonus Track"
    PERFORMER "Hanoi Rocks"
    INDEX 00 62:26:50
    INDEX 01 62:28:05
  TRACK 19 AUDIO
    TITLE "Rock & Roll (Demo) / Bonus Track"
    PERFORMER "Hanoi Rocks"
    INDEX 00 66:54:35
    INDEX 01 66:55:65
  TRACK 20 AUDIO
    TITLE "Lean On Me (Demo) / Bonus Track"
    PERFORMER "Hanoi Rocks"
    INDEX 00 70:54:45
    INDEX 01 70:56:00

Код:
Код:
Exact Audio Copy V1.0 beta 3 from 29. August 2011

EAC extraction logfile from 6. January 2014, 10:54

Hanoi Rocks / Million Miles Away

Used drive  : PLEXTOR BD-R  PX-B950SA   Adapter: 6  ID: 0

Read mode               : Secure
Utilize accurate stream : Yes
Defeat audio cache      : Yes
Make use of C2 pointers : No

Read offset correction                      : 6
Overread into Lead-In and Lead-Out          : No
Fill up missing offset samples with silence : Yes
Delete leading and trailing silent blocks   : No
Null samples used in CRC calculations       : Yes
Used interface                              : Native Win32 interface for Win NT & 2000

Used output format : Internal WAV Routines
Sample format      : 44.100 Hz; 16 Bit; Stereo

TOC of the extracted CD

     Track |   Start  |  Length  | Start sector | End sector
    ---------------------------------------------------------
        1  |  0:00.00 |  0:42.70 |         0    |     3219
        2  |  0:42.70 |  2:48.68 |      3220    |    15887
        3  |  3:31.63 |  5:13.40 |     15888    |    39402
        4  |  8:45.28 |  3:22.15 |     39403    |    54567
        5  | 12:07.43 |  4:08.67 |     54568    |    73234
        6  | 16:16.35 |  4:06.03 |     73235    |    91687
        7  | 20:22.38 |  3:24.02 |     91688    |   106989
        8  | 23:46.40 |  5:21.53 |    106990    |   131117
        9  | 29:08.18 |  2:39.02 |    131118    |   143044
       10  | 31:47.20 |  3:06.05 |    143045    |   156999
       11  | 34:53.25 |  3:09.15 |    157000    |   171189
       12  | 38:02.40 |  4:52.18 |    171190    |   193107
       13  | 42:54.58 |  3:34.32 |    193108    |   209189
       14  | 46:29.15 |  5:00.20 |    209190    |   231709
       15  | 51:29.35 |  4:14.55 |    231710    |   250814
       16  | 55:44.15 |  4:17.45 |    250815    |   270134
       17  | 60:01.60 |  2:26.20 |    270135    |   281104
       18  | 62:28.05 |  4:27.60 |    281105    |   301189
       19  | 66:55.65 |  4:00.10 |    301190    |   319199
       20  | 70:56.00 |  5:39.70 |    319200    |   344694

Range status and errors

Selected range

     Filename C:\Users\Meijin\Desktop\Lossless Galaxy ALLexxess\Hanoi Rocks\1986 Million Miles Away (Mini LP SHM-CD Victor Japan 2013)\Hanoi Rocks - Million Miles Away.wav

     Peak level 98.8 %
     Extraction speed 8.8 X
     Range quality 100.0 %
     Test CRC 5C03C397
     Copy CRC 5C03C397
     Copy OK

No errors occurred

AccurateRip summary

Track  1  not present in database
Track  2  not present in database
Track  3  not present in database
Track  4  not present in database
Track  5  not present in database
Track  6  not present in database
Track  7  not present in database
Track  8  not present in database
Track  9  not present in database
Track 10  not present in database
Track 11  not present in database
Track 12  not present in database
Track 13  not present in database
Track 14  not present in database
Track 15  not present in database
Track 16  not present in database
Track 17  not present in database
Track 18  not present in database
Track 19  not present in database
Track 20  not present in database

None of the tracks are present in the AccurateRip database

End of status report

==== Log checksum 984AF4B410821D734468F8C1D6E9D7AB35C74599B80DB3B77DF55F3FB2737824 ====

Код:
Код:
-----------------------

DON'T MODIFY THIS FILE

-----------------------

PERFORMER: auCDtect Task Manager, ver. 1.6.0 RC1 build 1.6.0.1
Copyright (c) 2008-2010 y-soft. All rights reserved
http:/y-soft.org

ANALYZER: auCDtect: CD records authenticity detector, version 0.8.2
Copyright (c) 2004 Oleg Berngardt. All rights reserved.
Copyright (c) 2004 Alexander Djourik. All rights reserved.

FILE: Hanoi Rocks - Million Miles Away.flac
  Size: 563533368 Hash: 52AC485C65A20CCE55A497802909E39A Accuracy: -m0
  Conclusion: CDDA 100%
  Signature: F0F61D60354B68FB3D02F8DA34213243B4AA8CBE


Правила, инструкции, FAQ!!!
Торрент  Добавлен [16 мар 2014, 00:16] Скачать торрент Магнет ссылка
Скачать торрент
[ Размер 32.69 КБ / Просмотров 32 ]

Статус  
 
Размер  3.43 ГБ
Приватный: Нет (DHT включён)
.torrent скачан  1
 


     Отправить личное сообщение
   
Страница 1 из 1
Показать сообщения за:  Поле сортировки  
Начать новую тему Ответить на тему


Сейчас этот форум просматривают: нет зарегистрированных пользователей и гости: 0


Вы не можете начинать темы
Вы не можете отвечать на сообщения
Вы не можете редактировать свои сообщения
Вы не можете удалять свои сообщения
Вы не можете добавлять вложения

Перейти:  
cron