Начать новую тему Ответить на тему
Статистика раздачи
Размер: 837.31 МБ | Добавлен: 19 май 2020, 16:15 | Скачали: 0
Сидеров: 4  [0 байт/сек]    Личеров: 1  [0 байт/сек]
Пред. тема | След. тема 

Автор
Сообщение

СообщениеДобавлено: 19 май 2020, 16:15 

Ответить с цитатой 

Crisis Dance / Discography (1 EP, 2 Albums)
Жанр: Grunge
Носитель: CD
Страна-производитель диска (релиза): UK
Год издания: 2001-2003
Издатель (лейбл): Artmix International
Страна исполнителя (группы): Russia
Аудиокодек: FLAC (*.flac)
Тип рипа: tracks
Источник: собственный рип
Наличие сканов в содержимом раздачи: нет
Треклист:

(19:19)
01 One Day 3.56
02 Return 4.07
03 Revolution 2.32
04 Alone 4.59
05 Hey Man 3.41
Код:
Exact Audio Copy V1.5 from 20. February 2020
EAC extraction logfile from 17. May 2020, 3:31
Crisis Dance / Crisis Dance
Used drive  : hp      DVDRAM GU40N   Adapter: 1  ID: 0
Read mode               : Secure
Utilize accurate stream : Yes
Defeat audio cache      : Yes
Make use of C2 pointers : No
Read offset correction                      : 103
Overread into Lead-In and Lead-Out          : No
Fill up missing offset samples with silence : Yes
Delete leading and trailing silent blocks   : No
Null samples used in CRC calculations       : Yes
Used interface                              : Native Win32 interface for Win NT & 2000
Gap handling                                : Not detected, thus appended to previous track
Used output format              : User Defined Encoder
Selected bitrate                : 1024 kBit/s
Quality                         : High
Add ID3 tag                     : No
Command line compressor         : C:\Program Files (x86)\Exact Audio Copy\FLAC\FLAC.EXE
Additional command line options : -8 -V -T "ARTIST=%artist%" -T "TITLE=%title%" -T "ALBUM=%albumtitle%" -T "DATE=%year%" -T "TRACKNUMBER=%tracknr%" -T "GENRE=%genre%" -T "COMMENT=%comment%" -T "BAND=%albuminterpret%" -T "ALBUMARTIST=%albuminterpret%" -T "COMPOSER=%composer%" %haslyrics%--tag-from-file=LYRICS="%lyricsfile%"%haslyrics% -T "DISCNUMBER=%cdnumber%" -T "TOTALDISCS=%totalcds%" -T "TOTALTRACKS=%numtracks%" %hascover%--picture="%coverfile%"%hascover% %source% -o %dest%
TOC of the extracted CD
     Track |   Start  |  Length  | Start sector | End sector
    ---------------------------------------------------------
        1  |  0:00.00 |  3:55.15 |         0    |    17639
        2  |  3:55.15 |  4:08.73 |     17640    |    36312
        3  |  8:04.13 |  2:33.22 |     36313    |    47809
        4  | 10:37.35 |  5:00.20 |     47810    |    70329
        5  | 15:37.55 |  3:41.30 |     70330    |    86934
Track  1
     Filename C:\Users\Bella\Desktop\Crisis Dance FLAC\Crisis Dance - Crisis Dance - 2001 (FLAC)\01 Crisis Dance - Crisis Dance - One Day.wav
     Peak level 99.6 %
     Extraction speed 1.2 X
     Track quality 100.0 %
     Copy CRC 10BB1BAE
     Track not present in AccurateRip database
     Copy OK
Track  2
     Filename C:\Users\Bella\Desktop\Crisis Dance FLAC\Crisis Dance - Crisis Dance - 2001 (FLAC)\02 Crisis Dance - Crisis Dance - Return.wav
     Peak level 99.6 %
     Extraction speed 1.2 X
     Track quality 99.9 %
     Copy CRC EDF56A06
     Track not present in AccurateRip database
     Copy OK
Track  3
     Filename C:\Users\Bella\Desktop\Crisis Dance FLAC\Crisis Dance - Crisis Dance - 2001 (FLAC)\03 Crisis Dance - Crisis Dance - Revolution.wav
     Peak level 99.6 %
     Extraction speed 1.3 X
     Track quality 100.0 %
     Copy CRC C3B47D77
     Track not present in AccurateRip database
     Copy OK
Track  4
     Filename C:\Users\Bella\Desktop\Crisis Dance FLAC\Crisis Dance - Crisis Dance - 2001 (FLAC)\04 Crisis Dance - Crisis Dance - Alone.wav
     Peak level 99.5 %
     Extraction speed 1.6 X
     Track quality 100.0 %
     Copy CRC 7098F9CE
     Track not present in AccurateRip database
     Copy OK
Track  5
     Filename C:\Users\Bella\Desktop\Crisis Dance FLAC\Crisis Dance - Crisis Dance - 2001 (FLAC)\05 Crisis Dance - Crisis Dance - Hey Man.wav
     Peak level 99.5 %
     Extraction speed 1.6 X
     Track quality 100.0 %
     Copy CRC 121BBCF4
     Track not present in AccurateRip database
     Copy OK
None of the tracks are present in the AccurateRip database
No errors occurred
End of status report
---- CUETools DB Plugin V2.1.6
[CTDB TOCID: pQQca2L9tVIudGdqHdQSqAD.db0-] found
Submit result: already submitted
Track | CTDB Status
  1   | (1/1) Accurately ripped
  2   | (1/1) Accurately ripped
  3   | (1/1) Accurately ripped
  4   | (1/1) Accurately ripped
  5   | (1/1) Accurately ripped
==== Log checksum 3D3E7E017877BFA4A03E2EF853CCD117F44C1DF7C4B3EF84C9826B3BA9333B7A ====
Код:
foobar2000 1.5.3 / Dynamic Range Meter 1.1.1
log date: 2020-05-17 03:35:35
--------------------------------------------------------------------------------
Analyzed: Crisis Dance / Crisis Dance
--------------------------------------------------------------------------------
DR         Peak         RMS     Duration Track
--------------------------------------------------------------------------------
DR8       -0.04 dB    -9.53 dB      3:55 01-One Day
DR8       -0.03 dB    -9.63 dB      4:09 02-Return
DR9       -0.03 dB    -9.44 dB      2:33 03-Revolution
DR9       -0.04 dB   -10.21 dB      5:00 04-Alone
DR9       -0.04 dB   -11.04 dB      3:41 05-Hey Man
--------------------------------------------------------------------------------
Number of tracks:  5
Official DR value: DR9
Samplerate:        44100 Hz
Channels:          2
Bits per sample:   16
Bitrate:           974 kbps
Codec:             FLAC
================================================================================

(41:17)
01 Alone 4.55
02 The Game 5.25
03 Tomorrow 4.42
04 Sunrise 3.30
05 Otherside 3.52
06 See You No More 4.39
07 You Know.. 4.14
08 Hey Man 9.57
Код:
Exact Audio Copy V1.5 from 20. February 2020
EAC extraction logfile from 17. May 2020, 4:10
Crisis Dance / Alone
Used drive  : hp      DVDRAM GU40N   Adapter: 1  ID: 0
Read mode               : Secure
Utilize accurate stream : Yes
Defeat audio cache      : Yes
Make use of C2 pointers : No
Read offset correction                      : 103
Overread into Lead-In and Lead-Out          : No
Fill up missing offset samples with silence : Yes
Delete leading and trailing silent blocks   : No
Null samples used in CRC calculations       : Yes
Used interface                              : Native Win32 interface for Win NT & 2000
Gap handling                                : Not detected, thus appended to previous track
Used output format              : User Defined Encoder
Selected bitrate                : 1024 kBit/s
Quality                         : High
Add ID3 tag                     : No
Command line compressor         : C:\Program Files (x86)\Exact Audio Copy\FLAC\FLAC.EXE
Additional command line options : -8 -V -T "ARTIST=%artist%" -T "TITLE=%title%" -T "ALBUM=%albumtitle%" -T "DATE=%year%" -T "TRACKNUMBER=%tracknr%" -T "GENRE=%genre%" -T "COMMENT=%comment%" -T "BAND=%albuminterpret%" -T "ALBUMARTIST=%albuminterpret%" -T "COMPOSER=%composer%" %haslyrics%--tag-from-file=LYRICS="%lyricsfile%"%haslyrics% -T "DISCNUMBER=%cdnumber%" -T "TOTALDISCS=%totalcds%" -T "TOTALTRACKS=%numtracks%" %hascover%--picture="%coverfile%"%hascover% %source% -o %dest%
TOC of the extracted CD
     Track |   Start  |  Length  | Start sector | End sector
    ---------------------------------------------------------
        1  |  0:00.00 |  4:55.52 |         0    |    22176
        2  |  4:55.52 |  5:25.23 |     22177    |    46574
        3  | 10:21.00 |  4:42.19 |     46575    |    67743
        4  | 15:03.19 |  3:30.27 |     67744    |    83520
        5  | 18:33.46 |  3:52.07 |     83521    |   100927
        6  | 22:25.53 |  4:39.21 |    100928    |   121873
        7  | 27:04.74 |  4:14.71 |    121874    |   140994
        8  | 31:19.70 |  9:57.70 |    140995    |   185839
Track  1
     Filename C:\Users\Bella\Desktop\Crisis Dance FLAC\Crisis Dance - Alone - 2002 - (FLAC)\01 Crisis Dance - Alone - alone.wav
     Peak level 97.7 %
     Extraction speed 1.2 X
     Track quality 100.0 %
     Copy CRC 7B049ED9
     Track not present in AccurateRip database
     Copy OK
Track  2
     Filename C:\Users\Bella\Desktop\Crisis Dance FLAC\Crisis Dance - Alone - 2002 - (FLAC)\02 Crisis Dance - Alone - the game.wav
     Peak level 97.7 %
     Extraction speed 1.4 X
     Track quality 100.0 %
     Copy CRC FBFEBA99
     Track not present in AccurateRip database
     Copy OK
Track  3
     Filename C:\Users\Bella\Desktop\Crisis Dance FLAC\Crisis Dance - Alone - 2002 - (FLAC)\03 Crisis Dance - Alone - tomorrow.wav
     Peak level 97.7 %
     Extraction speed 1.5 X
     Track quality 100.0 %
     Copy CRC 194C513D
     Track not present in AccurateRip database
     Copy OK
Track  4
     Filename C:\Users\Bella\Desktop\Crisis Dance FLAC\Crisis Dance - Alone - 2002 - (FLAC)\04 Crisis Dance - Alone - sunrise.wav
     Peak level 97.7 %
     Extraction speed 1.5 X
     Track quality 100.0 %
     Copy CRC 8099D2A3
     Track not present in AccurateRip database
     Copy OK
Track  5
     Filename C:\Users\Bella\Desktop\Crisis Dance FLAC\Crisis Dance - Alone - 2002 - (FLAC)\05 Crisis Dance - Alone - otherside.wav
     Peak level 97.7 %
     Extraction speed 1.5 X
     Track quality 99.9 %
     Copy CRC 1CD31124
     Track not present in AccurateRip database
     Copy OK
Track  6
     Filename C:\Users\Bella\Desktop\Crisis Dance FLAC\Crisis Dance - Alone - 2002 - (FLAC)\06 Crisis Dance - Alone - see you no more.wav
     Peak level 97.7 %
     Extraction speed 1.8 X
     Track quality 100.0 %
     Copy CRC D2A8586C
     Track not present in AccurateRip database
     Copy OK
Track  7
     Filename C:\Users\Bella\Desktop\Crisis Dance FLAC\Crisis Dance - Alone - 2002 - (FLAC)\07 Crisis Dance - Alone - you know...wav
     Peak level 97.7 %
     Extraction speed 1.7 X
     Track quality 99.9 %
     Copy CRC CA93A4A8
     Track not present in AccurateRip database
     Copy OK
Track  8
     Filename C:\Users\Bella\Desktop\Crisis Dance FLAC\Crisis Dance - Alone - 2002 - (FLAC)\08 Crisis Dance - Alone - hey man.wav
     Peak level 97.7 %
     Extraction speed 2.1 X
     Track quality 99.9 %
     Copy CRC 246C4B11
     Track not present in AccurateRip database
     Copy OK
None of the tracks are present in the AccurateRip database
No errors occurred
End of status report
---- CUETools DB Plugin V2.1.6
[CTDB TOCID: 8cknsega0ZfoG5oai79P1vhFsV4-] found
Submit result: already submitted
Track | CTDB Status
  1   | (1/1) Accurately ripped
  2   | (1/1) Accurately ripped
  3   | (1/1) Accurately ripped
  4   | (1/1) Accurately ripped
  5   | (1/1) Accurately ripped
  6   | (1/1) Accurately ripped
  7   | (1/1) Accurately ripped
  8   | (1/1) Accurately ripped
==== Log checksum F77C6DEA384CDBC29AE4767DB8176A85CC7A2526F7116B01086B6EFDD4500F73 ====
Код:
foobar2000 1.5.3 / Dynamic Range Meter 1.1.1
log date: 2020-05-17 04:16:42
--------------------------------------------------------------------------------
Analyzed: Crisis Dance / Alone
--------------------------------------------------------------------------------
DR         Peak         RMS     Duration Track
--------------------------------------------------------------------------------
DR7       -0.19 dB    -7.63 dB      4:56 01-alone
DR6       -0.20 dB    -7.43 dB      5:25 02-the game
DR7       -0.20 dB    -7.34 dB      4:42 03-tomorrow
DR6       -0.20 dB    -7.39 dB      3:30 04-sunrise
DR6       -0.19 dB    -7.33 dB      3:52 05-otherside
DR6       -0.20 dB    -7.01 dB      4:39 06-see you no more
DR6       -0.20 dB    -6.85 dB      4:15 07-you know..
DR7       -0.19 dB    -9.67 dB      9:58 08-hey man
--------------------------------------------------------------------------------
Number of tracks:  8
Official DR value: DR6
Samplerate:        44100 Hz
Channels:          2
Bits per sample:   16
Bitrate:           925 kbps
Codec:             FLAC
================================================================================

(54:35)
01 Cure 3.27
02 Hallelujah 4.24
03 Fade Away 4.18
04 Blowback 4.51
05 Wasted 4.43
06 Chains 3.19
07 One Day 3.34
08 Coming Home 4.27
09 Believe 4.00
10 Waves 4.10
11 P.U.N.K. 1.15
12 Revolution 4.05
13 Return 4.05
14 Waltz 4.43
Код:
Exact Audio Copy V1.5 from 20. February 2020
EAC extraction logfile from 17. May 2020, 4:51
Crisis Dance / Out Of This World
Used drive  : hp      DVDRAM GU40N   Adapter: 1  ID: 0
Read mode               : Secure
Utilize accurate stream : Yes
Defeat audio cache      : Yes
Make use of C2 pointers : No
Read offset correction                      : 103
Overread into Lead-In and Lead-Out          : No
Fill up missing offset samples with silence : Yes
Delete leading and trailing silent blocks   : No
Null samples used in CRC calculations       : Yes
Used interface                              : Native Win32 interface for Win NT & 2000
Gap handling                                : Not detected, thus appended to previous track
Used output format              : User Defined Encoder
Selected bitrate                : 1024 kBit/s
Quality                         : High
Add ID3 tag                     : No
Command line compressor         : C:\Program Files (x86)\Exact Audio Copy\FLAC\FLAC.EXE
Additional command line options : -8 -V -T "ARTIST=%artist%" -T "TITLE=%title%" -T "ALBUM=%albumtitle%" -T "DATE=%year%" -T "TRACKNUMBER=%tracknr%" -T "GENRE=%genre%" -T "COMMENT=%comment%" -T "BAND=%albuminterpret%" -T "ALBUMARTIST=%albuminterpret%" -T "COMPOSER=%composer%" %haslyrics%--tag-from-file=LYRICS="%lyricsfile%"%haslyrics% -T "DISCNUMBER=%cdnumber%" -T "TOTALDISCS=%totalcds%" -T "TOTALTRACKS=%numtracks%" %hascover%--picture="%coverfile%"%hascover% %source% -o %dest%
TOC of the extracted CD
     Track |   Start  |  Length  | Start sector | End sector
    ---------------------------------------------------------
        1  |  0:00.00 |  3:29.39 |         0    |    15713
        2  |  3:29.39 |  4:26.13 |     15714    |    35676
        3  |  7:55.52 |  4:20.60 |     35677    |    55236
        4  | 12:16.37 |  4:53.07 |     55237    |    77218
        5  | 17:09.44 |  4:45.30 |     77219    |    98623
        6  | 21:54.74 |  3:21.67 |     98624    |   113765
        7  | 25:16.66 |  3:36.34 |    113766    |   129999
        8  | 28:53.25 |  4:39.38 |    130000    |   150962
        9  | 33:32.63 |  4:02.05 |    150963    |   169117
       10  | 37:34.68 |  4:12.74 |    169118    |   188091
       11  | 41:47.67 |  1:17.50 |    188092    |   193916
       12  | 43:05.42 |  2:38.61 |    193917    |   205827
       13  | 45:44.28 |  4:07.13 |    205828    |   224365
       14  | 49:51.41 |  4:43.73 |    224366    |   245663
Track  1
     Filename C:\Users\Bella\Desktop\Crisis Dance FLAC\Crisis Dance - Out Of This World - 2003 (FLAC)\01 Crisis Dance - Out Of This World - Cure.wav
     Peak level 97.7 %
     Extraction speed 1.1 X
     Track quality 100.0 %
     Copy CRC 75E4B931
     Track not present in AccurateRip database
     Copy OK
Track  2
     Filename C:\Users\Bella\Desktop\Crisis Dance FLAC\Crisis Dance - Out Of This World - 2003 (FLAC)\02 Crisis Dance - Out Of This World - Hallelujah.wav
     Peak level 97.7 %
     Extraction speed 1.3 X
     Track quality 100.0 %
     Copy CRC 06E8EE72
     Track not present in AccurateRip database
     Copy OK
Track  3
     Filename C:\Users\Bella\Desktop\Crisis Dance FLAC\Crisis Dance - Out Of This World - 2003 (FLAC)\03 Crisis Dance - Out Of This World - Fade Away.wav
     Peak level 97.7 %
     Extraction speed 1.4 X
     Track quality 100.0 %
     Copy CRC 8C664067
     Track not present in AccurateRip database
     Copy OK
Track  4
     Filename C:\Users\Bella\Desktop\Crisis Dance FLAC\Crisis Dance - Out Of This World - 2003 (FLAC)\04 Crisis Dance - Out Of This World - Blowback.wav
     Peak level 97.7 %
     Extraction speed 1.6 X
     Track quality 100.0 %
     Copy CRC A48055CB
     Track not present in AccurateRip database
     Copy OK
Track  5
     Filename C:\Users\Bella\Desktop\Crisis Dance FLAC\Crisis Dance - Out Of This World - 2003 (FLAC)\05 Crisis Dance - Out Of This World - Wasted.wav
     Peak level 97.7 %
     Extraction speed 1.7 X
     Track quality 100.0 %
     Copy CRC 807C345C
     Track not present in AccurateRip database
     Copy OK
Track  6
     Filename C:\Users\Bella\Desktop\Crisis Dance FLAC\Crisis Dance - Out Of This World - 2003 (FLAC)\06 Crisis Dance - Out Of This World - Chains.wav
     Peak level 97.7 %
     Extraction speed 1.7 X
     Track quality 100.0 %
     Copy CRC AB68B513
     Track not present in AccurateRip database
     Copy OK
Track  7
     Filename C:\Users\Bella\Desktop\Crisis Dance FLAC\Crisis Dance - Out Of This World - 2003 (FLAC)\07 Crisis Dance - Out Of This World - One Day.wav
     Peak level 97.7 %
     Extraction speed 1.6 X
     Track quality 99.9 %
     Copy CRC 0A7447A5
     Track not present in AccurateRip database
     Copy OK
Track  8
     Filename C:\Users\Bella\Desktop\Crisis Dance FLAC\Crisis Dance - Out Of This World - 2003 (FLAC)\08 Crisis Dance - Out Of This World - Coming Home.wav
     Peak level 97.7 %
     Extraction speed 1.7 X
     Track quality 99.9 %
     Copy CRC 7ABDB1C0
     Track not present in AccurateRip database
     Copy OK
Track  9
     Filename C:\Users\Bella\Desktop\Crisis Dance FLAC\Crisis Dance - Out Of This World - 2003 (FLAC)\09 Crisis Dance - Out Of This World - Believe.wav
     Peak level 97.7 %
     Extraction speed 2.0 X
     Track quality 100.0 %
     Copy CRC CED4C74A
     Track not present in AccurateRip database
     Copy OK
Track 10
     Filename C:\Users\Bella\Desktop\Crisis Dance FLAC\Crisis Dance - Out Of This World - 2003 (FLAC)\10 Crisis Dance - Out Of This World - Waves.wav
     Peak level 97.7 %
     Extraction speed 1.8 X
     Track quality 99.9 %
     Copy CRC 61D62DA5
     Track not present in AccurateRip database
     Copy OK
Track 11
     Filename C:\Users\Bella\Desktop\Crisis Dance FLAC\Crisis Dance - Out Of This World - 2003 (FLAC)\11 Crisis Dance - Out Of This World - P.U.N.K..wav
     Peak level 97.7 %
     Extraction speed 1.2 X
     Track quality 99.8 %
     Copy CRC 66DC8930
     Track not present in AccurateRip database
     Copy OK
Track 12
     Filename C:\Users\Bella\Desktop\Crisis Dance FLAC\Crisis Dance - Out Of This World - 2003 (FLAC)\12 Crisis Dance - Out Of This World - Revolution.wav
     Peak level 97.7 %
     Extraction speed 2.0 X
     Track quality 100.0 %
     Copy CRC 664B32BD
     Track not present in AccurateRip database
     Copy OK
Track 13
     Filename C:\Users\Bella\Desktop\Crisis Dance FLAC\Crisis Dance - Out Of This World - 2003 (FLAC)\13 Crisis Dance - Out Of This World - Return.wav
     Peak level 97.7 %
     Extraction speed 2.2 X
     Track quality 100.0 %
     Copy CRC 08608BCA
     Track not present in AccurateRip database
     Copy OK
Track 14
     Filename C:\Users\Bella\Desktop\Crisis Dance FLAC\Crisis Dance - Out Of This World - 2003 (FLAC)\14 Crisis Dance - Out Of This World - Waltz.wav
     Peak level 97.7 %
     Extraction speed 2.3 X
     Track quality 100.0 %
     Copy CRC D6162211
     Track not present in AccurateRip database
     Copy OK
None of the tracks are present in the AccurateRip database
No errors occurred
End of status report
---- CUETools DB Plugin V2.1.6
[CTDB TOCID: .JZHa4ENWGox4q.L8gA3UxnZZlk-] found
Submit result: already submitted
Track | CTDB Status
  1   | (1/1) Accurately ripped
  2   | (1/1) Accurately ripped
  3   | (1/1) Accurately ripped
  4   | (1/1) Accurately ripped
  5   | (1/1) Accurately ripped
  6   | (1/1) Accurately ripped
  7   | (1/1) Accurately ripped
  8   | (1/1) Accurately ripped
  9   | (1/1) Accurately ripped
 10   | (1/1) Accurately ripped
 11   | (1/1) Accurately ripped
 12   | (1/1) Accurately ripped
 13   | (1/1) Accurately ripped
 14   | (1/1) Accurately ripped
==== Log checksum E3782CBD63287D9427AD5BE9D51C0C11A56F7ED0D59E7C2C0B007F4BD1E48780 ====
Код:
foobar2000 1.5.3 / Dynamic Range Meter 1.1.1
log date: 2020-05-17 04:53:53
--------------------------------------------------------------------------------
Analyzed: Crisis Dance / Out Of This World
--------------------------------------------------------------------------------
DR         Peak         RMS     Duration Track
--------------------------------------------------------------------------------
DR5       -0.20 dB    -6.64 dB      3:30 01-Cure
DR6       -0.20 dB    -7.34 dB      4:26 02-Hallelujah
DR7       -0.20 dB    -8.35 dB      4:21 03-Fade Away
DR7       -0.20 dB    -7.71 dB      4:53 04-Blowback
DR6       -0.20 dB    -7.40 dB      4:45 05-Wasted
DR6       -0.20 dB    -7.67 dB      3:22 06-Chains
DR5       -0.20 dB    -6.99 dB      3:36 07-One Day
DR6       -0.20 dB    -7.80 dB      4:40 08-Coming Home
DR6       -0.20 dB    -7.03 dB      4:02 09-Believe
DR7       -0.20 dB    -7.70 dB      4:13 10-Waves
DR6       -0.20 dB    -6.68 dB      1:18 11-P.U.N.K.
DR6       -0.20 dB    -6.66 dB      2:39 12-Revolution
DR6       -0.20 dB    -7.93 dB      4:07 13-Return
DR6       -0.20 dB    -8.57 dB      4:44 14-Waltz
--------------------------------------------------------------------------------
Number of tracks:  14
Official DR value: DR6
Samplerate:        44100 Hz
Channels:          2
Bits per sample:   16
Bitrate:           867 kbps
Codec:             FLAC
================================================================================
Правила, инструкции, FAQ!!!
Торрент  Добавлен [19 май 2020, 16:15] Скачать торрент Магнет ссылка
Скачать торрент
[ Размер 19.8 КБ / Просмотров 3 ]

Статус
Проверен 
 
Размер  837.31 МБ
Приватный: Нет (DHT включён)
.torrent скачан  0
 


     Отправить личное сообщение
   
Страница 1 из 1
Показать сообщения за:  Поле сортировки  
Начать новую тему Ответить на тему


Сейчас этот форум просматривают: нет зарегистрированных пользователей и гости: 0


Вы не можете начинать темы
Вы не можете отвечать на сообщения
Вы не можете редактировать свои сообщения
Вы не можете удалять свои сообщения
Вы не можете добавлять вложения

Перейти:  
cron
cron