Начать новую тему Ответить на тему
Статистика раздачи
Размер: 352.81 МБ | Добавлен: 16 мар 2014, 00:03 | Скачали: 0
Сидеров: 1  [0 байт/сек]    Личеров: 0  [0 байт/сек]
Пред. тема | След. тема 

Автор
Сообщение

СообщениеДобавлено: 16 мар 2014, 00:03 

Ответить с цитатой 

Groundhogs - Scratching The Surface (1968)

Год: 1968
Жанр: Blues Rock
Label & Catalog#: BGO Records - BGOCD 15
Продолжительность: 00:56:13

Кодек: FLAC
Битрейт: Lossless

Треклист:
01. Rocking Chair [04:06]
02. Early In The Morning [04:47]
03. Waking Blues [02:23]
04. Married Man [04:34]
05. No More Doggin' [04:52]
06. Man Trouble [06:22]
07. Come Back Baby [03:49]
08. You Don't Love Me [04:07]
09. Still A Fool [06:34]
10. Oh death [03:14]
11. Gasoline [04:49]
12. Rock Me [02:46]
13. Don't Pass The Hat Around [03:43]
Код:
Код:
REM GENRE Blues
REM DISCID B80D2D0D
REM COMMENT "ExactAudioCopy v0.99pb4"
PERFORMER "Groundhogs"
TITLE "Scratching The Surface"
FILE "Groundhogs - Scratching The Surface.flac" WAVE
  TRACK 01 AUDIO
    TITLE "Rocking Chair"
    PERFORMER "Groundhogs"
    INDEX 00 00:00:00
    INDEX 01 00:00:32
  TRACK 02 AUDIO
    TITLE "Early In The Morning"
    PERFORMER "Groundhogs"
    INDEX 00 04:04:51
    INDEX 01 04:07:07
  TRACK 03 AUDIO
    TITLE "Waking Blues"
    PERFORMER "Groundhogs"
    INDEX 00 08:52:30
    INDEX 01 08:54:45
  TRACK 04 AUDIO
    TITLE "Married Man"
    PERFORMER "Groundhogs"
    INDEX 00 11:16:45
    INDEX 01 11:18:20
  TRACK 05 AUDIO
    TITLE "No More Doggin'"
    PERFORMER "Groundhogs"
    INDEX 00 15:51:35
    INDEX 01 15:52:55
  TRACK 06 AUDIO
    TITLE "Man Trouble"
    PERFORMER "Groundhogs"
    INDEX 00 20:44:32
    INDEX 01 20:45:30
  TRACK 07 AUDIO
    TITLE "Come Back Baby"
    PERFORMER "Groundhogs"
    INDEX 00 27:07:17
    INDEX 01 27:08:05
  TRACK 08 AUDIO
    TITLE "You Don't Love Me"
    PERFORMER "Groundhogs"
    INDEX 00 30:56:57
    INDEX 01 30:57:65
  TRACK 09 AUDIO
    TITLE "Still A Fool"
    PERFORMER "Groundhogs"
    INDEX 00 35:03:35
    INDEX 01 35:04:70
  TRACK 10 AUDIO
    TITLE "Oh death"
    PERFORMER "Groundhogs"
    INDEX 00 41:38:15
    INDEX 01 41:39:15
  TRACK 11 AUDIO
    TITLE "Gasoline"
    PERFORMER "Groundhogs"
    INDEX 00 44:52:07
    INDEX 01 44:53:67
  TRACK 12 AUDIO
    TITLE "Rock Me"
    PERFORMER "Groundhogs"
    INDEX 00 49:41:60
    INDEX 01 49:43:10
  TRACK 13 AUDIO
    TITLE "Don't Pass The Hat Around"
    PERFORMER "Groundhogs"
    INDEX 00 52:28:40
    INDEX 01 52:30:02
Код:
Код:
Exact Audio Copy V0.99 prebeta 4 from 23. January 2008

Отчёт EAC об извлечении, выполненном 25. августа 2008, 23:20

Groundhogs / Scratching The Surface

Дисковод: _NEC    DVD_RW ND-3520A   Adapter: 0  ID: 1

Режим чтения                 : Достоверность
Использование точного потока : Да
Отключение кэша аудио        : Да
Использование указателей C2  : Нет

Коррекция смещения при чтении                     : 48
Способность читать области Lead-in и Lead-out     : Нет
Заполнение пропущенных сэмплов тишиной            : Да
Удаление блоков с тишиной в начале и конце        : Нет
При вычислениях CRC использовались нулевые сэмплы : Нет
Интерфейс                                         : Установленный внешний ASPI-интерфейс

Выходной формат : Внутренние WAV-операции
Формат сэмплов  : 44.100 Гц; 16 бит; стерео

TOC извлечённого CD

     Трек |   Старт  | Длительность | Начальный сектор | Конечный сектор
    ---------------------------------------------------------------------
       1  |  0:00.32 |    4:06.50   |          32      |      18531
       2  |  4:07.07 |    4:47.38   |       18532      |      40094
       3  |  8:54.45 |    2:23.50   |       40095      |      50869
       4  | 11:18.20 |    4:34.35   |       50870      |      71454
       5  | 15:52.55 |    4:52.50   |       71455      |      93404
       6  | 20:45.30 |    6:22.50   |       93405      |     122104
       7  | 27:08.05 |    3:49.60   |      122105      |     139339
       8  | 30:57.65 |    4:07.05   |      139340      |     157869
       9  | 35:04.70 |    6:34.20   |      157870      |     187439
      10  | 41:39.15 |    3:14.52   |      187440      |     202041
      11  | 44:53.67 |    4:49.18   |      202042      |     223734
      12  | 49:43.10 |    2:46.67   |      223735      |     236251
      13  | 52:30.02 |    3:43.38   |      236252      |     253014

Характеристики диапазона извлечения и сообщения об ошибках

Выбранный диапазон

     Имя файла E:\_New\Scratching The Surface\Groundhogs - Scratching The Surface.wav

     Пиковый уровень 89.8 %
     Качество диапазона 99.9 %
     CRC копии A4CDED6A
     Копирование... OK

Ошибок не произошло

AccurateRip: сводка

Трек  1  точное извлечение (доверие 1)  [6911331F]
Трек  2  точное извлечение (доверие 1)  [2C062B76]
Трек  3  точное извлечение (доверие 1)  [D9C429A1]
Трек  4  точное извлечение (доверие 1)  [CEA756AC]
Трек  5  точное извлечение (доверие 1)  [DE56191E]
Трек  6  точное извлечение (доверие 1)  [6A95F843]
Трек  7  точное извлечение (доверие 1)  [3FA7171E]
Трек  8  точное извлечение (доверие 1)  [4A14A662]
Трек  9  точное извлечение (доверие 1)  [ABFBE3E7]
Трек 10  точное извлечение (доверие 1)  [C75706B2]
Трек 11  точное извлечение (доверие 1)  [D619A1BA]
Трек 12  точное извлечение (доверие 1)  [27E8D568]
Трек 13  точное извлечение (доверие 1)  [3EB307E7]

Все треки извлечены точно

Конец отчёта
Код:
Код:
DON'T MODIFY THIS FILE

-----------------------

PERFORMER: auCDtect Task Manager, ver. 1.6.0 RC1 build 1.6.0.1
Copyright (c) 2008-2010 y-soft. All rights reserved
http:/y-soft.org

ANALYZER: auCDtect: CD records authenticity detector, version 0.8.2
Copyright (c) 2004 Oleg Berngardt. All rights reserved.
Copyright (c) 2004 Alexander Djourik. All rights reserved.

FILE: Groundhogs - Scratching The Surface.flac
  Size: 330056136 Hash: 54DD7E530147CC3E7262813C74C8BBCE Accuracy: -m0
  Conclusion: MPEG 95%
  Signature: 94165B1E17034B783FF261F21F1CFD204FDF50B3
Режим чтения : Достоверность
Использование точного потока : Да
Отключение кэша аудио : Да
Использование указателей C2 : Нет

Коррекция смещения при чтении : 48
Способность читать области Lead-in и Lead-out : Нет
Заполнение пропущенных сэмплов тишиной : Да
Удаление блоков с тишиной в начале и конце : Нет
При вычислениях CRC использовались нулевые сэмплы : Нет
Найдено на просторах KAD
Правила, инструкции, FAQ!!!
Торрент  Добавлен [16 мар 2014, 00:03] Скачать торрент Магнет ссылка
Скачать торрент
[ Размер 28.92 КБ / Просмотров 122 ]

Статус  
 
Размер  352.81 МБ
Приватный: Нет (DHT включён)
.torrent скачан  0
 


     Отправить личное сообщение
   
Страница 1 из 1
Показать сообщения за:  Поле сортировки  
Начать новую тему Ответить на тему


Сейчас этот форум просматривают: нет зарегистрированных пользователей и гости: 0


Вы не можете начинать темы
Вы не можете отвечать на сообщения
Вы не можете редактировать свои сообщения
Вы не можете удалять свои сообщения
Вы не можете добавлять вложения

Перейти:  
cron