Начать новую тему Ответить на тему
Статистика раздачи
Размер: 1.27 ГБ | Добавлен: 24 авг 2016, 11:52 | Скачали: 1
Сидеров: 2  [0 байт/сек]    Личеров: 0  [0 байт/сек]
Пред. тема | След. тема 

Автор
Сообщение

СообщениеДобавлено: 24 авг 2016, 11:52 

Ответить с цитатой 

Prong - Cleansing



Жанр: Groove/Industrial Metal
Год выпуска: 1994
Лейбл: Epic · EPC 474796 1
Страна-производитель: UK
Аудио кодек: FLAC
Тип рипа: tracks+.cue
Формат записи: 24/96
Формат раздачи: 24/96
Продолжительность: 57:55
Источник оцифровки: Rothna

A1. Another Worldly Device (3:24)
A2. Whose Fist Is This Anyway? (4:41)
A3. Snap Your Fingers, Snap Your Neck (4:11)
A4. Cut-Rate (4:52)
A5. Broken Peace (6:12)
A6. One Outnumbered (4:57)
B1. Out Of This Misery (4:27)
B2. No Question (4:17)
B3. Not Of This Earth (6:24)
B4. Home Rule (3:57)
B5. Sublime (3:52)
B6. Test (6:40)


Turntable : Technics SL-1600 mk1
Cartridge : Audio Technica AT33EV
Phono Stage: Denon PRA-1200 Preamplifier
Other: Studiomaster 2000 mixer (for gain and balance adjustment only)
Audio Interface: M-Audio 192 Audiophile PCIe soundcard
Software: Sound Forge Pro 10 (for capture and splitting)
Izotope RX 2 Advanced (Declicking, Resampling, and Dithering)
Trader's Little Helper (for encoding WAV to FLAC)
Foobar2000 (for tagging)
foobar2000 1.1.16 / Dynamic Range Meter 1.1.1
log date: 2013-01-06 01:05:11

--------------------------------------------------------------------------------
Analyzed: Prong / Cleansing
--------------------------------------------------------------------------------

DR Peak RMS Duration Track
--------------------------------------------------------------------------------
DR11 -1.08 dB -14.00 dB 3:24 A1-Another Worldly Device
DR12 -0.07 dB -13.36 dB 4:41 A2-Whose Fist Is This Anyway?
DR12 -0.39 dB -13.91 dB 4:11 A3-Snap Your Fingers, Snap Your Neck
DR12 -1.17 dB -15.18 dB 4:52 A4-Cut-Rate
DR11 -1.69 dB -14.59 dB 6:12 A5-Broken Peace
DR12 -0.92 dB -14.80 dB 4:57 A6-One Outnumbered
DR11 -0.10 dB -13.38 dB 4:27 B1-Out Of This Misery
DR11 -0.77 dB -12.98 dB 4:17 B2-No Question
DR14 -0.51 dB -16.40 dB 6:24 B3-Not Of This Earth
DR12 -0.22 dB -13.22 dB 3:57 B4-Home Rule
DR12 -0.79 dB -14.09 dB 3:52 B5-Sublime
DR12 -0.20 dB -13.99 dB 6:40 B6-Test
--------------------------------------------------------------------------------

Number of tracks: 12
Official DR value: DR12

Samplerate: 96000 Hz
Channels: 2
Bits per sample: 24
Bitrate: 3081 kbps
Codec: FLAC
================================================================================

Данный материал предоставлен исключительно для ознакомления. Рекомендуется приобрести лицензионную продукцию.
Правила, инструкции, FAQ!!!
Торрент  Добавлен [24 авг 2016, 11:52] Скачать торрент Магнет ссылка
Скачать торрент
[ Размер 3.71 КБ / Просмотров 22 ]

Статус
Проверен 
 
Размер  1.27 ГБ
Приватный: Нет (DHT включён)
.torrent скачан  1
 


     Отправить личное сообщение
   
Страница 1 из 1
Показать сообщения за:  Поле сортировки  
Начать новую тему Ответить на тему


Сейчас этот форум просматривают: нет зарегистрированных пользователей и гости: 0


Вы не можете начинать темы
Вы не можете отвечать на сообщения
Вы не можете редактировать свои сообщения
Вы не можете удалять свои сообщения
Вы не можете добавлять вложения

Перейти:  
cron
cron