Начать новую тему Ответить на тему
Статистика раздачи
Размер: 2.03 ГБ | Добавлен: 16 мар 2014, 00:48 | Скачали: 0
Сидеров: 1  [0 байт/сек]    Личеров: 0  [0 байт/сек]
Пред. тема | След. тема 

Автор
Сообщение

СообщениеДобавлено: 16 мар 2014, 00:48 

Ответить с цитатой 


Greeley Estates
- Дискография





Год выпуска: 2004-2013
Жанр: Post-Hardcore | Metalcore
Продолжительность: 04:39:38
Тип издания: Дискография
Страна: США

Треклист:

01. Intro
02. Sheltered
03. If Words Could Say
04. Through Waiting
05. Atom Doesn't Lie
06. What If
07. Tear My World Apart
08. Outside Of This
09. Until Tomorrow
10. Glimpse
11. Without You
12. Not Alone (Hidden Track Left For Dead)

Продолжительность: 00:42:35

Код:
Код:
Exact Audio Copy V0.99 prebeta 3 from 28. July 2007

EAC extraction logfile from 11. February 2008, 22:51

Greeley Estates / Outside of This

Used drive  : HL-DT-STCD-RW GCE-8483B   Adapter: 0  ID: 0

Read mode               : Secure
Utilize accurate stream : Yes
Defeat audio cache      : Yes
Make use of C2 pointers : No

Read offset correction                      : 6
Overread into Lead-In and Lead-Out          : No
Fill up missing offset samples with silence : Yes
Delete leading and trailing silent blocks   : No
Null samples used in CRC calculations       : Yes
Used interface                              : Native Win32 interface for Win NT & 2000
Gap handling                                : Appended to previous track

Used output format              : User Defined Encoder
Selected bitrate                : 128 kBit/s
Quality                         : High
Add ID3 tag                     : No
Command line compressor         : C:\Program Files\FLAC\flac.exe
Additional command line options : -V -8 -T "artist=%a" -T "title=%t" -T "album=%g" -T "date=%y" -T "tracknumber=%n" -T "genre=%m" %s

TOC of the extracted CD

     Track |   Start  |  Length  | Start sector | End sector
    ---------------------------------------------------------
        1  |  0:00.00 |  0:09.01 |         0    |      675
        2  |  0:09.01 |  2:09.69 |       676    |    10419
        3  |  2:18.70 |  2:51.32 |     10420    |    23276
        4  |  5:10.27 |  3:20.00 |     23277    |    38276
        5  |  8:30.27 |  3:07.57 |     38277    |    52358
        6  | 11:38.09 |  4:16.24 |     52359    |    71582
        7  | 15:54.33 |  4:20.14 |     71583    |    91096
        8  | 20:14.47 |  3:11.36 |     91097    |   105457
        9  | 23:26.08 |  3:15.48 |    105458    |   120130
       10  | 26:41.56 |  2:45.45 |    120131    |   132550
       11  | 29:27.26 |  2:59.21 |    132551    |   145996
       12  | 32:26.47 | 10:08.41 |    145997    |   191637

Track  1

     Filename M:\Rips\Greeley Estates\Outside of This\01 - Intro.wav

     Pre-gap length  0:00:02.00

     Peak level 49.2 %
     Track quality 100.0 %
     Test CRC E16E241C
     Copy CRC E16E241C
     Track not present in AccurateRip database
     Copy OK

Track  2

     Filename M:\Rips\Greeley Estates\Outside of This\02 - Sheltered.wav

     Peak level 96.9 %
     Track quality 100.0 %
     Test CRC C1C0CA33
     Copy CRC C1C0CA33
     Track not present in AccurateRip database
     Copy OK

Track  3

     Filename M:\Rips\Greeley Estates\Outside of This\03 - If Words Could Say.wav

     Peak level 100.0 %
     Track quality 100.0 %
     Test CRC 84D89479
     Copy CRC 84D89479
     Track not present in AccurateRip database
     Copy OK

Track  4

     Filename M:\Rips\Greeley Estates\Outside of This\04 - Through Waiting.wav

     Pre-gap length  0:00:00.04

     Peak level 96.9 %
     Track quality 100.0 %
     Test CRC 9DCF375C
     Copy CRC 9DCF375C
     Track not present in AccurateRip database
     Copy OK

Track  5

     Filename M:\Rips\Greeley Estates\Outside of This\05 - Atom Doesn't Lie.wav

     Peak level 100.0 %
     Track quality 100.0 %
     Test CRC 29E546E7
     Copy CRC 29E546E7
     Track not present in AccurateRip database
     Copy OK

Track  6

     Filename M:\Rips\Greeley Estates\Outside of This\06 - What If.wav

     Pre-gap length  0:00:02.00

     Peak level 96.9 %
     Track quality 100.0 %
     Test CRC 4442A5FC
     Copy CRC 4442A5FC
     Track not present in AccurateRip database
     Copy OK

Track  7

     Filename M:\Rips\Greeley Estates\Outside of This\07 - Tear My World Apart.wav

     Peak level 100.0 %
     Track quality 100.0 %
     Test CRC E2F97854
     Copy CRC E2F97854
     Track not present in AccurateRip database
     Copy OK

Track  8

     Filename M:\Rips\Greeley Estates\Outside of This\08 - Outside Of This.wav

     Pre-gap length  0:00:44.41

     Peak level 100.0 %
     Track quality 100.0 %
     Test CRC E71B9809
     Copy CRC E71B9809
     Track not present in AccurateRip database
     Copy OK

Track  9

     Filename M:\Rips\Greeley Estates\Outside of This\09 - Until Tomorrow.wav

     Pre-gap length  0:00:00.11

     Peak level 100.0 %
     Track quality 100.0 %
     Test CRC 968129FB
     Copy CRC 968129FB
     Track not present in AccurateRip database
     Copy OK

Track 10

     Filename M:\Rips\Greeley Estates\Outside of This\10 - Glimpse.wav

     Peak level 96.9 %
     Track quality 100.0 %
     Test CRC 82E704D3
     Copy CRC 82E704D3
     Track not present in AccurateRip database
     Copy OK

Track 11

     Filename M:\Rips\Greeley Estates\Outside of This\11 - Without You.wav

     Peak level 100.0 %
     Track quality 100.0 %
     Test CRC 975FE0DC
     Copy CRC 975FE0DC
     Track not present in AccurateRip database
     Copy OK

Track 12

     Filename M:\Rips\Greeley Estates\Outside of This\12 - Not Alone.wav

     Pre-gap length  0:00:00.46

     Peak level 96.9 %
     Track quality 100.0 %
     Test CRC D44BC244
     Copy CRC D44BC244
     Track not present in AccurateRip database
     Copy OK

None of the tracks are present in the AccurateRip database

No errors occurred

End of status report

Код:
Код:
-----------------------

DON'T MODIFY THIS FILE

-----------------------

PERFORMER: auCDtect Task Manager, ver. 1.5.1RC6 build 1.5.1.7
Copyright (c) 2008-2010 y-soft. All rights reserved
http:/y-soft.org

ANALYZER: auCDtect: CD records authenticity detector, version 0.8.2
Copyright (c) 2004 Oleg Berngardt. All rights reserved.
Copyright (c) 2004 Alexander Djourik. All rights reserved.

FILE: 12. Greeley Estates - Not Alone (Hidden Track Left For Dead).flac
  Size: 53187439 Hash: 4EE1B07589B7DBDA658E246259B24574 Accuracy: -m0
  Conclusion: CDDA 100%
  Signature: 2D578966814EA284FF54A5C518DB578AF2683778
FILE: 11. Greeley Estates - Without You.flac
  Size: 22896363 Hash: C9CCC23CADB665434400C632E5403A0E Accuracy: -m0
  Conclusion: CDDA 100%
  Signature: 70D52B0D8D0180BFEBC9EF2BCC9E21EFEFC5E417
FILE: 10. Greeley Estates - Glimpse.flac
  Size: 19190258 Hash: 22686F4C63573B6988FAE258E7F2BBA7 Accuracy: -m0
  Conclusion: CDDA 100%
  Signature: 842C0A836F5977DB55AC591409375A929C038234
FILE: 09. Greeley Estates - Until Tomorrow.flac
  Size: 22756312 Hash: 94E9D96DAA124238D95E35EF47C460C1 Accuracy: -m0
  Conclusion: CDDA 100%
  Signature: 6F561F978EB6EC1C2A38CE10B0F3075BE519F7F9
FILE: 08. Greeley Estates - Outside Of This.flac
  Size: 23752065 Hash: 02803CC26C48B9E0A04C7EDEF40FA1C1 Accuracy: -m0
  Conclusion: CDDA 100%
  Signature: 5D7205629D32737844C1B5A78F70C752C1AD9289
FILE: 07. Greeley Estates - Tear My World Apart.flac
  Size: 32011488 Hash: 761EC0BCF752BBFAE0A706C2A8CFE771 Accuracy: -m0
  Conclusion: CDDA 100%
  Signature: E71956F7EE140F5808A8864742982DC1149EDAD6
FILE: 06. Greeley Estates - What If.flac
  Size: 32001048 Hash: 3593F22202517E0E8C41D14160C98ADB Accuracy: -m0
  Conclusion: CDDA 100%
  Signature: DB68E16A63F428D70714E2EA0A19893AF0534DC4
FILE: 05. Greeley Estates - Atom Doesn't Lie.flac
  Size: 23030467 Hash: EDA2ECFBB71835678D297C9729DD666D Accuracy: -m0
  Conclusion: CDDA 100%
  Signature: 949704A61E492D5B71F90F91AD2F167DBE73781F
FILE: 04. Greeley Estates - Through Waiting.flac
  Size: 25916657 Hash: E618C8F171954931CD085BEE330F0B09 Accuracy: -m0
  Conclusion: CDDA 100%
  Signature: 631594D01C0352168D844DCDBB4DDD937011ECF3
FILE: 03. Greeley Estates - If Words Could Say.flac
  Size: 22148524 Hash: E983E8530D4ACDBC6A7F73F944C28F43 Accuracy: -m0
  Conclusion: CDDA 100%
  Signature: 9F356535AEEB1A8C41C38AE4B10A1ED59A04CAEC
FILE: 02. Greeley Estates - Sheltered.flac
  Size: 17318222 Hash: BE36B464468B10C3489CCCCD7621690C Accuracy: -m0
  Conclusion: CDDA 100%
  Signature: 7728F4E424D46B782C7F12F5614559819B352DDE
FILE: 01. Greeley Estates - Intro.flac
  Size: 512730 Hash: AFB22D4DC1D6C3E2D8A7E8A532989B82 Accuracy: -m0
  Conclusion: CDDA 43%
  Signature: F74AFB18DA856C345E612A66738779B93AE4767F



#777Треклист:

01. The End Of All We Know
02. Too Much CSI
03. Life Is A Garden
04. Where Did You Go
05. Nothing Good Happens After Dark
06. Remember
07. Believe The Lies
08. Are You Listening?
09. Secret
10. Through Waiting
11. This Moment
12. See Your Scars

Продолжительность: 00:48:21


Код:
Код:
Exact Audio Copy V0.99 prebeta 5 from 4. May 2009

EAC extraction logfile from 28. November 2010, 16:08

Greeley Estates / Far From The Lies

Used drive  : HL-DT-STCD-RW GCE-8527B   Adapter: 0  ID: 0

Read mode               : Secure
Utilize accurate stream : Yes
Defeat audio cache      : Yes
Make use of C2 pointers : No

Read offset correction                      : 6
Overread into Lead-In and Lead-Out          : No
Fill up missing offset samples with silence : Yes
Delete leading and trailing silent blocks   : No
Null samples used in CRC calculations       : No
Used interface                              : Native Win32 interface for Win NT & 2000
Gap handling                                : Appended to previous track

Used output format              : User Defined Encoder
Selected bitrate                : 1024 kBit/s
Quality                         : High
Add ID3 tag                     : Yes
Command line compressor         : C:\Program Files\Exact Audio Copy\FLAC\FLAC.EXE
Additional command line options : -6 -V -T "ARTIST=%a" -T "TITLE=%t" -T "ALBUM=%g" -T "DATE=%y" -T "TRACKNUMBER=%n" -T "GENRE=%m" -T "COMMENT=%e" %s -o %d

TOC of the extracted CD

     Track |   Start  |  Length  | Start sector | End sector
    ---------------------------------------------------------
        1  |  0:00.00 |  3:21.08 |         0    |    15082
        2  |  3:21.08 |  3:58.60 |     15083    |    32992
        3  |  7:19.68 |  3:45.47 |     32993    |    49914
        4  | 11:05.40 |  4:09.13 |     49915    |    68602
        5  | 15:14.53 |  3:41.66 |     68603    |    85243
        6  | 18:56.44 |  3:43.60 |     85244    |   102028
        7  | 22:40.29 |  5:25.41 |    102029    |   126444
        8  | 28:05.70 |  4:45.61 |    126445    |   147880
        9  | 32:51.56 |  3:12.38 |    147881    |   162318
       10  | 36:04.19 |  4:17.32 |    162319    |   181625
       11  | 40:21.51 |  3:59.35 |    181626    |   199585
       12  | 44:21.11 |  4:00.62 |    199586    |   217647

Track  1

     Filename Z:\what.cd\ripz\Greeley Estates\Far From The Lies\(01) The End Of All We Know - Greeley Estates.wav

     Pre-gap length  0:00:02.00

     Peak level 99.8 %
     Track quality 100.0 %
     Test CRC D6C351E7
     Copy CRC D6C351E7
     Accurately ripped (confidence 2)  [82868426]
     Copy OK

Track  2

     Filename Z:\what.cd\ripz\Greeley Estates\Far From The Lies\(02) Too Much CSI - Greeley Estates.wav

     Peak level 99.8 %
     Track quality 100.0 %
     Test CRC 48D0D6CE
     Copy CRC 48D0D6CE
     Accurately ripped (confidence 2)  [CEE125B4]
     Copy OK

Track  3

     Filename Z:\what.cd\ripz\Greeley Estates\Far From The Lies\(03) Life Is A Garden - Greeley Estates.wav

     Peak level 99.8 %
     Track quality 100.0 %
     Test CRC 12C081DF
     Copy CRC 12C081DF
     Accurately ripped (confidence 2)  [07BD9965]
     Copy OK

Track  4

     Filename Z:\what.cd\ripz\Greeley Estates\Far From The Lies\(04) Where Did You Go - Greeley Estates.wav

     Peak level 99.8 %
     Track quality 100.0 %
     Test CRC 50EF07B3
     Copy CRC 50EF07B3
     Accurately ripped (confidence 2)  [B9B1D204]
     Copy OK

Track  5

     Filename Z:\what.cd\ripz\Greeley Estates\Far From The Lies\(05) Nothing Good Happens After Dark - Greeley Estates.wav

     Peak level 99.8 %
     Track quality 100.0 %
     Test CRC 7F10280E
     Copy CRC 7F10280E
     Accurately ripped (confidence 2)  [AF3B1588]
     Copy OK

Track  6

     Filename Z:\what.cd\ripz\Greeley Estates\Far From The Lies\(06) Remember - Greeley Estates.wav

     Peak level 99.8 %
     Track quality 99.9 %
     Test CRC 808C1863
     Copy CRC 808C1863
     Accurately ripped (confidence 2)  [49E969E5]
     Copy OK

Track  7

     Filename Z:\what.cd\ripz\Greeley Estates\Far From The Lies\(07) Believe The Lies - Greeley Estates.wav

     Peak level 99.8 %
     Track quality 100.0 %
     Test CRC 454EA5CF
     Copy CRC 454EA5CF
     Accurately ripped (confidence 2)  [FFAE89E0]
     Copy OK

Track  8

     Filename Z:\what.cd\ripz\Greeley Estates\Far From The Lies\(08) Are You Listening  - Greeley Estates.wav

     Peak level 99.8 %
     Track quality 100.0 %
     Test CRC F0665D02
     Copy CRC F0665D02
     Accurately ripped (confidence 2)  [5281D857]
     Copy OK

Track  9

     Filename Z:\what.cd\ripz\Greeley Estates\Far From The Lies\(09) Secret - Greeley Estates.wav

     Peak level 99.8 %
     Track quality 100.0 %
     Test CRC 312A67D6
     Copy CRC 312A67D6
     Accurately ripped (confidence 2)  [1E1A6BEE]
     Copy OK

Track 10

     Filename Z:\what.cd\ripz\Greeley Estates\Far From The Lies\(10) Through Waiting - Greeley Estates.wav

     Peak level 99.8 %
     Track quality 100.0 %
     Test CRC D35A8A60
     Copy CRC D35A8A60
     Accurately ripped (confidence 2)  [07EFAC0C]
     Copy OK

Track 11

     Filename Z:\what.cd\ripz\Greeley Estates\Far From The Lies\(11) This Moment - Greeley Estates.wav

     Peak level 99.8 %
     Track quality 100.0 %
     Test CRC D9EBA699
     Copy CRC D9EBA699
     Accurately ripped (confidence 2)  [EB5C3B0A]
     Copy OK

Track 12

     Filename Z:\what.cd\ripz\Greeley Estates\Far From The Lies\(12) See Your Scars - Greeley Estates.wav

     Peak level 99.8 %
     Track quality 100.0 %
     Test CRC 84BAA6A8
     Copy CRC 84BAA6A8
     Accurately ripped (confidence 2)  [D18B2DC9]
     Copy OK

All tracks accurately ripped

No errors occurred

End of status report

Код:
Код:
-----------------------

DON'T MODIFY THIS FILE

-----------------------

PERFORMER: auCDtect Task Manager, ver. 1.5.1RC6 build 1.5.1.7
Copyright (c) 2008-2010 y-soft. All rights reserved
http:/y-soft.org

ANALYZER: auCDtect: CD records authenticity detector, version 0.8.2
Copyright (c) 2004 Oleg Berngardt. All rights reserved.
Copyright (c) 2004 Alexander Djourik. All rights reserved.

FILE: 12. Greeley Estates - See Your Scars.flac
  Size: 28565056 Hash: D519F12201E4C5A644BA3A414C6D280B Accuracy: -m0
  Conclusion: CDDA 100%
  Signature: 64115E9EABE39211FAA30D41A6D47F0FB79DD621
FILE: 11. Greeley Estates - This Moment.flac
  Size: 29948005 Hash: D1149768BA63F175A44060CEE64CBA68 Accuracy: -m0
  Conclusion: CDDA 100%
  Signature: 4A03D6CE15095AFF47C8A76BC04B3E528410B748
FILE: 10. Greeley Estates - Through Waiting.flac
  Size: 31843129 Hash: 9179A9783640277B941B208E5C2F3B62 Accuracy: -m0
  Conclusion: CDDA 100%
  Signature: 413601CD9940FD660EF8EAB854683101B56D30D4
FILE: 09. Greeley Estates - Secret.flac
  Size: 22512176 Hash: C809433FB3FA9C5D4D39B8F931935051 Accuracy: -m0
  Conclusion: CDDA 100%
  Signature: AC1C87FFAC0D699E03E47CD97AAF6881F46357C1
FILE: 08. Greeley Estates - Are You Listening_.flac
  Size: 33200372 Hash: 9EEB03D5B9DA4ED3D6633BEF6FB0C89D Accuracy: -m0
  Conclusion: CDDA 100%
  Signature: 59E616FE19F8EF4AAB7C2DAB362395F8218B83FF
FILE: 07. Greeley Estates - Believe The Lies.flac
  Size: 38974950 Hash: 49AD896E854A86916FF05892E373591B Accuracy: -m0
  Conclusion: CDDA 100%
  Signature: 8FA3D9A77BF6A6E39C1C170BFF2D94B168FCCFE5
FILE: 06. Greeley Estates - Remember.flac
  Size: 27968159 Hash: 93CBFF04359124FF53D63D624F7DFBEE Accuracy: -m0
  Conclusion: CDDA 100%
  Signature: 8FD3BECFE49A1BDD4EBB2DE965B31AEFA81BE5EB
FILE: 05. Greeley Estates - Nothing Good Happens After Dark.flac
  Size: 27386689 Hash: 8C6F59A4A088E2F93317B9D33BBCB155 Accuracy: -m0
  Conclusion: CDDA 100%
  Signature: 5345CEB065D3613FB203C9D9EE2E262C1F44D500
FILE: 04. Greeley Estates - Where Did You Go.flac
  Size: 31394576 Hash: 13A9FB59853A21F3D2425572375C45C0 Accuracy: -m0
  Conclusion: CDDA 100%
  Signature: 961A74FF9A417EF5F124782E98B2BCBE3482FA4F
FILE: 03. Greeley Estates - Life Is A Garden.flac
  Size: 28459500 Hash: B6C77F881619FBA9F7F3D231E1A649F6 Accuracy: -m0
  Conclusion: CDDA 100%
  Signature: 5C73E543B44EBA80377BB5B680F3D3E825001738
FILE: 02. Greeley Estates - Too Much CSI.flac
  Size: 30459785 Hash: AECB5A0782D6A29FC612DCC4F1FFC594 Accuracy: -m0
  Conclusion: CDDA 100%
  Signature: 15C4DB39273F89B59C56C96D841345E1A032F955
FILE: 01. Greeley Estates - The End Of All We Know.flac
  Size: 26199527 Hash: 6B81E6BC28F4D0E4F0DE077D4EA719E3 Accuracy: -m0
  Conclusion: CDDA 100%
  Signature: F44CBCC7742E3A63BA8380A9D88860C98A3D59CA


#777Треклист:

01. Blue Morning
02. Go West Young Man
03. If We're Going Out, Let's Go Out In Style
04. Desperate Times Call For Desperate Housewives
05. If She Only Knew
06. If I Could Be Frank, You're Ugly
07. In The Ashes
08. Mother Nature Is A Terrorist
09. Let The Evil Go East
10. I'll Have To Warn You, This Won't Be Quick
11. There's Something Wrong With The World Today
12. Keep The Heat On The Dash
13. You're Just Somebody I Used To Know

Продолжительность: 00:49:28


Код:
Код:
EAC extraction logfile from 6. May 2008, 15:22 for CD
Greeley Estates / Go West Young Man, Let The Evil Go East

Used drive  : HP      DVD Writer 740e   Adapter: 2  ID: 0
Read mode   : Secure with NO C2, accurate stream, disable cache
Read offset correction : 102
Overread into Lead-In and Lead-Out : No

Used output format : C:\Program Files\FLAC\flac.exe   (User Defined Encoder)
                     192 kBit/s
                     Additional command line options : -V -8 -T "artist=%a" -T "title=%t" -T "album=%g" -T "date=%y" -T "tracknumber=%n" -T "genre=%m" %s

Other options      :
    Fill up missing offset samples with silence : Yes
    Delete leading and trailing silent blocks : No
    Native Win32 interface for Win NT & 2000

Track  1
     Filename D:\FlacRip\Greeley Estates - Go West Young Man, Let The Evil Go East\01 - Blue Morning.wav

     Pre-gap length  0:00:02.00

     Peak level 99.7 %
     Track quality 99.9 %
     Test CRC 10ADD9FE
     Copy CRC 10ADD9FE
     Copy OK

Track  2
     Filename D:\FlacRip\Greeley Estates - Go West Young Man, Let The Evil Go East\02 - Go West Young Man.wav

     Peak level 99.7 %
     Track quality 100.0 %
     Test CRC 14003E87
     Copy CRC 14003E87
     Copy OK

Track  3
     Filename D:\FlacRip\Greeley Estates - Go West Young Man, Let The Evil Go East\03 - If We're Going Out, Let's Go Out In Style.wav

     Peak level 99.7 %
     Track quality 100.0 %
     Test CRC D929B10B
     Copy CRC D929B10B
     Copy OK

Track  4
     Filename D:\FlacRip\Greeley Estates - Go West Young Man, Let The Evil Go East\04 - Desperate Times Call For Desperate Housewives.wav

     Peak level 99.7 %
     Track quality 100.0 %
     Test CRC 6813DCE2
     Copy CRC 6813DCE2
     Copy OK

Track  5
     Filename D:\FlacRip\Greeley Estates - Go West Young Man, Let The Evil Go East\05 - If She Only Knew.wav

     Peak level 99.7 %
     Track quality 100.0 %
     Test CRC E621CF4C
     Copy CRC E621CF4C
     Copy OK

Track  6
     Filename D:\FlacRip\Greeley Estates - Go West Young Man, Let The Evil Go East\06 - If I Could Be Frank, You're Ugly.wav

     Peak level 99.7 %
     Track quality 100.0 %
     Test CRC 726825B6
     Copy CRC 726825B6
     Copy OK

Track  7
     Filename D:\FlacRip\Greeley Estates - Go West Young Man, Let The Evil Go East\07 - In The Ashes.wav

     Peak level 99.7 %
     Track quality 100.0 %
     Test CRC 32A0D325
     Copy CRC 32A0D325
     Copy OK

Track  8
     Filename D:\FlacRip\Greeley Estates - Go West Young Man, Let The Evil Go East\08 - Mother Nature Is A Terrorist.wav

     Peak level 99.7 %
     Track quality 99.9 %
     Test CRC FD2DC7AC
     Copy CRC FD2DC7AC
     Copy OK

Track  9
     Filename D:\FlacRip\Greeley Estates - Go West Young Man, Let The Evil Go East\09 - Let The Evil Go East.wav

     Peak level 99.7 %
     Track quality 100.0 %
     Test CRC 19B96EE5
     Copy CRC 19B96EE5
     Copy OK

Track 10
     Filename D:\FlacRip\Greeley Estates - Go West Young Man, Let The Evil Go East\10 - I'll Have To Warn You, This Won't Be Quick.wav

     Peak level 99.7 %
     Track quality 100.0 %
     Test CRC 2780411A
     Copy CRC 2780411A
     Copy OK

Track 11
     Filename D:\FlacRip\Greeley Estates - Go West Young Man, Let The Evil Go East\11 - There's Something Wrong With The World Today.wav

     Peak level 99.7 %
     Track quality 99.8 %
     Test CRC 88A04568
     Copy CRC 88A04568
     Copy OK

Track 12
     Filename D:\FlacRip\Greeley Estates - Go West Young Man, Let The Evil Go East\12 - Keep The Heat On The Dash.wav

     Peak level 99.7 %
     Track quality 100.0 %
     Test CRC 80D1B0AB
     Copy CRC 80D1B0AB
     Copy OK

Track 13
     Filename D:\FlacRip\Greeley Estates - Go West Young Man, Let The Evil Go East\13 - You're Just Somebody I Used To Know.wav

     Peak level 99.7 %
     Track quality 100.0 %
     Test CRC 94EACD33
     Copy CRC 94EACD33
     Copy OK

No errors occured

End of status report

Код:
Код:
-----------------------

DON'T MODIFY THIS FILE

-----------------------

PERFORMER: auCDtect Task Manager, ver. 1.5.1RC6 build 1.5.1.7
Copyright (c) 2008-2010 y-soft. All rights reserved
http:/y-soft.org

ANALYZER: auCDtect: CD records authenticity detector, version 0.8.2
Copyright (c) 2004 Oleg Berngardt. All rights reserved.
Copyright (c) 2004 Alexander Djourik. All rights reserved.

FILE: 13. Greeley Estates - You're Just Somebody I Used To Know.flac
  Size: 39407901 Hash: C5D07FA13A279F8681649FA3DB644F5A Accuracy: -m0
  Conclusion: CDDA 100%
  Signature: 7E8720680B04EDAF41D1E2FCED5E3C37D2109AC4
FILE: 12. Greeley Estates - Keep The Heat On The Dash.flac
  Size: 32948951 Hash: 438F181542D806F472D132DE607F42E9 Accuracy: -m0
  Conclusion: CDDA 100%
  Signature: 146941A129A7BD0C43F5F781577F1C382004D3E8
FILE: 11. Greeley Estates - There's Something Wrong With The World Today.flac
  Size: 24814269 Hash: 4F7079C503AEE81C35A825F817BAB701 Accuracy: -m0
  Conclusion: CDDA 100%
  Signature: 7E32319AB5C689D65E377FC880F98A5DB4A484B1
FILE: 10. Greeley Estates - I'll Have To Warn You, This Won't Be Quick.flac
  Size: 35331673 Hash: 3C3F9AE1108704C7A753AD37300DA9A9 Accuracy: -m0
  Conclusion: CDDA 100%
  Signature: CB1BBE956653CAA47396B8189BD4DF05D54CB0EE
FILE: 09. Greeley Estates - Let The Evil Go East.flac
  Size: 27212058 Hash: 335061FAFECA959A5EBD55976443D177 Accuracy: -m0
  Conclusion: CDDA 100%
  Signature: 793C0504ECA0846CBD5B5BA0AAB5B672A6AA4428
FILE: 08. Greeley Estates - Mother Nature Is A Terrorist.flac
  Size: 27816504 Hash: 604DB286736B84DA1E2215E16CA74B92 Accuracy: -m0
  Conclusion: CDDA 100%
  Signature: 93AF957B4567FCE40ACEAEBBFE170824F7EA44C7
FILE: 07. Greeley Estates - In The Ashes.flac
  Size: 26842368 Hash: FB89DB77CAB36D9877ACACEDB81335F0 Accuracy: -m0
  Conclusion: CDDA 100%
  Signature: 55FC20A3036530CA506C6516D9220F35D4AF9ABA
FILE: 06. Greeley Estates - If I Could Be Frank, You're Ugly.flac
  Size: 22213767 Hash: 8FF2510B5E78187023A9CF5151D7A54E Accuracy: -m0
  Conclusion: CDDA 100%
  Signature: CE2494714F1532C6423D92FDE4529001D91AFE29
FILE: 05. Greeley Estates - If She Only Knew.flac
  Size: 37125834 Hash: 155B6BCA35135FD602C42C6C0680F7AC Accuracy: -m0
  Conclusion: CDDA 100%
  Signature: 74EEBA4121CAC96A1B09EA920F0B24CA7E2A9A22
FILE: 04. Greeley Estates - Desperate Times Call For Desperate Housewives.flac
  Size: 25334083 Hash: 1BB07BCBE14591836F4915D2A5D8E07B Accuracy: -m0
  Conclusion: CDDA 100%
  Signature: 481058A2E3CBF32912001FA537FE6B7C22E72E96
FILE: 03. Greeley Estates - If We're Going Out, Let's Go Out In Style.flac
  Size: 32450102 Hash: 9C363919F88D0F59BD2AA2F7CD05390E Accuracy: -m0
  Conclusion: CDDA 99%
  Signature: 66FBCB31860EE614731355599D3413901FD0F0A7
FILE: 02. Greeley Estates - Go West Young Man.flac
  Size: 31552736 Hash: C7C95BB71884E59FBA15DA5243CA0C78 Accuracy: -m0
  Conclusion: CDDA 100%
  Signature: DBFBC27238E105C4ED7846EBC423E918D3C93CDE
FILE: 01. Greeley Estates - Blue Morning.flac
  Size: 33663263 Hash: 7B72B50DA9B94026511694F1E2BE33BF Accuracy: -m0
  Conclusion: CDDA 100%
  Signature: 79F667B7A9DD38AA6FEB17ED1737974CF57EAEA7


#777Треклист:

01. Seven Hours
02. I Shot The Maid
03. Loyal.Com
04. Friends Are Friends For Never
05. The Offer
06. Jealousy Breeds Killing Sprees
07. Swim For Your Lives
08. They Won't Stay Dead
09. Lying Through Your Teeth Doesn't Count As Flossing
10. Wolves Make Great Actors
11. 4,5,6
12. You'll Never Leave Vegas Alive

Продолжительность: 00:39:12


Код:
Код:
Exact Audio Copy V0.99 prebeta 4 from 23. January 2008

EAC extraction logfile from 11. February 2010, 0:41

Greeley Estates / No Rain, No Rainbow

Used drive  : HL-DT-STDVD-RW GWA-4165B   Adapter: 3  ID: 0

Read mode               : Secure
Utilize accurate stream : Yes
Defeat audio cache      : Yes
Make use of C2 pointers : No

Read offset correction                      : 667
Overread into Lead-In and Lead-Out          : No
Fill up missing offset samples with silence : Yes
Delete leading and trailing silent blocks   : No
Null samples used in CRC calculations       : Yes
Used interface                              : Native Win32 interface for Win NT & 2000
Gap handling                                : Appended to previous track

Used output format              : User Defined Encoder
Selected bitrate                : 192 kBit/s
Quality                         : High
Add ID3 tag                     : No
Command line compressor         : C:\Program Files\FLAC\flac.exe
Additional command line options : -V -8 -T "artist=%a" -T "title=%t" -T "album=%g" -T "date=%y" -T "tracknumber=%n" -T "genre=%m" %s

TOC of the extracted CD

     Track |   Start  |  Length  | Start sector | End sector
    ---------------------------------------------------------
        1  |  0:00.00 |  3:46.68 |         0    |    17017
        2  |  3:46.68 |  3:22.62 |     17018    |    32229
        3  |  7:09.55 |  3:05.52 |     32230    |    46156
        4  | 10:15.32 |  3:33.43 |     46157    |    62174
        5  | 13:49.00 |  3:16.22 |     62175    |    76896
        6  | 17:05.22 |  3:17.48 |     76897    |    91719
        7  | 20:22.70 |  2:53.55 |     91720    |   104749
        8  | 23:16.50 |  4:13.49 |    104750    |   123773
        9  | 27:30.24 |  3:17.27 |    123774    |   138575
       10  | 30:47.51 |  3:42.57 |    138576    |   155282
       11  | 34:30.33 |  0:55.42 |    155283    |   159449
       12  | 35:26.00 |  3:46.74 |    159450    |   176473

Track  1

     Filename F:\EACrips\Flac\Greeley Estates - No Rain, No Rainbow\01 - Seven Hours.wav

     Pre-gap length  0:00:02.00

     Peak level 100.0 %
     Track quality 100.0 %
     Test CRC A11596B5
     Copy CRC A11596B5
     Track not present in AccurateRip database
     Copy OK

Track  2

     Filename F:\EACrips\Flac\Greeley Estates - No Rain, No Rainbow\02 - I Shot The Maid.wav

     Peak level 100.0 %
     Track quality 100.0 %
     Test CRC 437074FF
     Copy CRC 437074FF
     Track not present in AccurateRip database
     Copy OK

Track  3

     Filename F:\EACrips\Flac\Greeley Estates - No Rain, No Rainbow\03 - Loyal.Com.wav

     Peak level 100.0 %
     Track quality 100.0 %
     Test CRC 8EB1055F
     Copy CRC 8EB1055F
     Track not present in AccurateRip database
     Copy OK

Track  4

     Filename F:\EACrips\Flac\Greeley Estates - No Rain, No Rainbow\04 - Friends Are Friends For Never.wav

     Peak level 100.0 %
     Track quality 100.0 %
     Test CRC D9997F25
     Copy CRC D9997F25
     Track not present in AccurateRip database
     Copy OK

Track  5

     Filename F:\EACrips\Flac\Greeley Estates - No Rain, No Rainbow\05 - The Offer.wav

     Peak level 100.0 %
     Track quality 100.0 %
     Test CRC DCE87B00
     Copy CRC DCE87B00
     Track not present in AccurateRip database
     Copy OK

Track  6

     Filename F:\EACrips\Flac\Greeley Estates - No Rain, No Rainbow\06 - Jealousy Breeds Killing Sprees.wav

     Peak level 100.0 %
     Track quality 100.0 %
     Test CRC CE7F9BFF
     Copy CRC CE7F9BFF
     Track not present in AccurateRip database
     Copy OK

Track  7

     Filename F:\EACrips\Flac\Greeley Estates - No Rain, No Rainbow\07 - Swim For Your Lives.wav

     Peak level 100.0 %
     Track quality 100.0 %
     Test CRC F7174EC1
     Copy CRC F7174EC1
     Track not present in AccurateRip database
     Copy OK

Track  8

     Filename F:\EACrips\Flac\Greeley Estates - No Rain, No Rainbow\08 - They Won't Stay Dead.wav

     Peak level 100.0 %
     Track quality 100.0 %
     Test CRC 44657D92
     Copy CRC 44657D92
     Track not present in AccurateRip database
     Copy OK

Track  9

     Filename F:\EACrips\Flac\Greeley Estates - No Rain, No Rainbow\09 - Lying Through Your Teeth Doesn't Count As Flossing.wav

     Peak level 100.0 %
     Track quality 100.0 %
     Test CRC BA9BDF80
     Copy CRC BA9BDF80
     Track not present in AccurateRip database
     Copy OK

Track 10

     Filename F:\EACrips\Flac\Greeley Estates - No Rain, No Rainbow\10 - Wolves Make Great Actors.wav

     Peak level 100.0 %
     Track quality 100.0 %
     Test CRC ABA58DD4
     Copy CRC ABA58DD4
     Track not present in AccurateRip database
     Copy OK

Track 11

     Filename F:\EACrips\Flac\Greeley Estates - No Rain, No Rainbow\11 - 4,5,6.wav

     Peak level 87.4 %
     Track quality 100.0 %
     Test CRC 47D8CFB2
     Copy CRC 47D8CFB2
     Track not present in AccurateRip database
     Copy OK

Track 12

     Filename F:\EACrips\Flac\Greeley Estates - No Rain, No Rainbow\12 - You'll Never Leave Vegas Alive.wav

     Peak level 100.0 %
     Track quality 100.0 %
     Test CRC 613EB0CA
     Copy CRC 613EB0CA
     Track not present in AccurateRip database
     Copy OK

None of the tracks are present in the AccurateRip database

No errors occurred

End of status report

Код:
Код:
-----------------------

DON'T MODIFY THIS FILE

-----------------------

PERFORMER: auCDtect Task Manager, ver. 1.5.1RC6 build 1.5.1.7
Copyright (c) 2008-2010 y-soft. All rights reserved
http:/y-soft.org

ANALYZER: auCDtect: CD records authenticity detector, version 0.8.2
Copyright (c) 2004 Oleg Berngardt. All rights reserved.
Copyright (c) 2004 Alexander Djourik. All rights reserved.

FILE: 12. Greeley Estates - You'll Never Leave Vegas Alive.flac
  Size: 30926523 Hash: 9F55C1A14EF0E8DFCD35270999EAAD11 Accuracy: -m0
  Conclusion: CDDA 100%
  Signature: CE8C5169AFCDC44660E7629F5BAFEF26ADAFC41C
FILE: 11. Greeley Estates - 4,5,6.flac
  Size: 4948530 Hash: 56F5AE4868FD6EFF20B1CDC20048A0CC Accuracy: -m0
  Conclusion: CDDA 100%
  Signature: 97C0CAAE7F1BFB27A6F9D713668CA8EC059E2498
FILE: 10. Greeley Estates - Wolves Make Great Actors.flac
  Size: 30650345 Hash: 5B9781F342BB1B377E1DDA658A602D7B Accuracy: -m0
  Conclusion: CDDA 100%
  Signature: A0323F8073E75BB464F15689EA3D2AA4AE22C451
FILE: 09. Greeley Estates - Lying Through Your Teeth Doesn't Count As Flossing.flac
  Size: 27672005 Hash: 53EC1E86280B75C7D9C90E2E7C7133AF Accuracy: -m0
  Conclusion: CDDA 100%
  Signature: BAEA4968417F2C81B7A6C5813DD8A63BA687AD9C
FILE: 08. Greeley Estates - They Won't Stay Dead.flac
  Size: 31434737 Hash: FF93204497343D99526BEEB231088430 Accuracy: -m0
  Conclusion: CDDA 100%
  Signature: 248E8A600D5367BA8F30B5B9E6DCE91FE2FA8324
FILE: 07. Greeley Estates - Swim For Your Lives.flac
  Size: 24742901 Hash: BAA76DDDE35F06E2A5834824B20B9665 Accuracy: -m0
  Conclusion: CDDA 100%
  Signature: 2F181008A49224AA5E1FDA9136B7D2BD7212BABA
FILE: 06. Greeley Estates - Jealousy Breeds Killing Sprees.flac
  Size: 27583100 Hash: 0B59B73D6EAF8EF752C4B4A12A319CFB Accuracy: -m0
  Conclusion: CDDA 99%
  Signature: 03C814F4E353E6FC2F068BE39DCD4F2A8DB65028
FILE: 05. Greeley Estates - The Offer.flac
  Size: 27950548 Hash: EDBEF7E73F81F8C79F823ED2A676A1F8 Accuracy: -m0
  Conclusion: CDDA 99%
  Signature: 31F2AD48A774ECEE69A2E6D8C29F356A4D18EA92
FILE: 04. Greeley Estates - Friends Are Friends For Never.flac
  Size: 29339731 Hash: 0EE71F765EC6FC7851D07077F699EC4D Accuracy: -m0
  Conclusion: CDDA 100%
  Signature: 686CCDD92A34D7A0D667049CDBC7676F7BB5733A
FILE: 03. Greeley Estates - Loyal.Com.flac
  Size: 25359458 Hash: 7EEED483862F366851B45645ECC050CC Accuracy: -m0
  Conclusion: CDDA 100%
  Signature: EA7B1677846089A7BD8BE46E2ABC876D20EA7F63
FILE: 02. Greeley Estates - I Shot The Maid.flac
  Size: 28590927 Hash: EBD98E8FEB1FA6E6E828F7194E1E5F6A Accuracy: -m0
  Conclusion: CDDA 100%
  Signature: 59B237A4EE94BC4ED2BA20E69B00816703C7B0EA
FILE: 01. Greeley Estates - Seven Hours.flac
  Size: 31164749 Hash: 0F015BA546CEA32448AA21E159245330 Accuracy: -m0
  Conclusion: CDDA 100%
  Signature: D8AA1D3F0ED0F0975242055AAA9511BC4736E803


#777Треклист:

01. Straitjacket
02. The Last Dance
03. Friendly Neighborhood Visit
04. Bodies
05. The Medic
06. A Thousand Burning Forests
07. Broken (interlude)
08. Leave the Light On
09. Circle the Wagons
10. The Reaction
11. Tonight
12. The Postman
13. Mouth to Mouth
14. Repaired (interlude)
15. December

Продолжительность: 00:49:24


Код:
Код:
X Lossless Decoder version 20110703 (135.1)

XLD extraction logfile from 2011-08-06 03:29:42 +0000

Greeley Estates / The Death of Greeley Estates

Used drive : (null) (null) (revision (null))

Ripper mode             : XLD Secure Ripper
Disable audio cache     : OK for the drive with a cache less than 1375KiB
Make use of C2 pointers : NO
Read offset correction  : 48
Max retry count         : 100
Gap status              : Analyzed, Appended

TOC of the extracted CD
     Track |   Start  |  Length  | Start sector | End sector
    ---------------------------------------------------------
        1  | 00:00:00 | 03:34:64 |         0    |    16113
        2  | 03:34:64 | 03:14:62 |     16114    |    30725
        3  | 06:49:51 | 02:44:50 |     30726    |    43075
        4  | 09:34:26 | 03:41:05 |     43076    |    59655
        5  | 13:15:31 | 03:35:23 |     59656    |    75803
        6  | 16:50:54 | 04:29:48 |     75804    |    96026
        7  | 21:20:27 | 00:52:01 |     96027    |    99927
        8  | 22:12:28 | 03:28:38 |     99928    |   115565
        9  | 25:40:66 | 03:47:32 |    115566    |   132622
       10  | 29:28:23 | 02:53:61 |    132623    |   145658
       11  | 32:22:09 | 03:20:71 |    145659    |   160729
       12  | 35:43:05 | 04:45:60 |    160730    |   182164
       13  | 40:28:65 | 03:18:71 |    182165    |   197085
       14  | 43:47:61 | 01:05:36 |    197086    |   201996
       15  | 44:53:22 | 04:31:26 |    201997    |   222347

AccurateRip Summary
    Disc not found in AccurateRip DB.

All Tracks
    Album gain             : -11.24 dB
    Peak                   : 1.000000
    Statistics
        Read error                           : 0
        Jitter error (maybe fixed)           : 1
        Retry sector count                   : 0
        Damaged sector count                 : 0

Track 01
    Filename : /Volumes/PINEAPPLE ARMY/Music/Greeley Estates/The Death of Greeley Estates/01 Straitjacket.flac
    Pre-gap length : 00:02:00

    Track gain             : -10.31 dB
    Peak                   : 1.000000
    CRC32 hash (test run)  : 17B2649A
    CRC32 hash             : 17B2649A
    CRC32 hash (skip zero) : 32CC6AB6
    AccurateRip signature  : D80198E5
        ->Track not present in AccurateRip database.
    Statistics
        Read error                           : 0
        Jitter error (maybe fixed)           : 0
        Retry sector count                   : 0
        Damaged sector count                 : 0

Track 02
    Filename : /Volumes/PINEAPPLE ARMY/Music/Greeley Estates/The Death of Greeley Estates/02 The Last Dance.flac

    Track gain             : -11.33 dB
    Peak                   : 1.000000
    CRC32 hash (test run)  : 38C565C7
    CRC32 hash             : 38C565C7
    CRC32 hash (skip zero) : ACE01415
    AccurateRip signature  : 6B7A878F
        ->Track not present in AccurateRip database.
    Statistics
        Read error                           : 0
        Jitter error (maybe fixed)           : 0
        Retry sector count                   : 0
        Damaged sector count                 : 0

Track 03
    Filename : /Volumes/PINEAPPLE ARMY/Music/Greeley Estates/The Death of Greeley Estates/03 Friendly Neighborhood Visit.flac
    Pre-gap length : 00:01:09

    Track gain             : -9.91 dB
    Peak                   : 1.000000
    CRC32 hash (test run)  : 86E66471
    CRC32 hash             : 86E66471
    CRC32 hash (skip zero) : F8EC60D3
    AccurateRip signature  : A7867BCB
        ->Track not present in AccurateRip database.
    Statistics
        Read error                           : 0
        Jitter error (maybe fixed)           : 0
        Retry sector count                   : 0
        Damaged sector count                 : 0

Track 04
    Filename : /Volumes/PINEAPPLE ARMY/Music/Greeley Estates/The Death of Greeley Estates/04 Bodies.flac

    Track gain             : -11.46 dB
    Peak                   : 1.000000
    CRC32 hash (test run)  : 81E937A7
    CRC32 hash             : 81E937A7
    CRC32 hash (skip zero) : B0194839
    AccurateRip signature  : 5B2A7603
        ->Track not present in AccurateRip database.
    Statistics
        Read error                           : 0
        Jitter error (maybe fixed)           : 0
        Retry sector count                   : 0
        Damaged sector count                 : 0

Track 05
    Filename : /Volumes/PINEAPPLE ARMY/Music/Greeley Estates/The Death of Greeley Estates/05 The Medic.flac
    Pre-gap length : 00:03:02

    Track gain             : -11.24 dB
    Peak                   : 1.000000
    CRC32 hash (test run)  : 3DDCDD24
    CRC32 hash             : 3DDCDD24
    CRC32 hash (skip zero) : FDEE61C8
    AccurateRip signature  : EB587683
        ->Track not present in AccurateRip database.
    Statistics
        Read error                           : 0
        Jitter error (maybe fixed)           : 0
        Retry sector count                   : 0
        Damaged sector count                 : 0

Track 06
    Filename : /Volumes/PINEAPPLE ARMY/Music/Greeley Estates/The Death of Greeley Estates/06 A Thousand Burning Forests.flac

    Track gain             : -10.95 dB
    Peak                   : 1.000000
    CRC32 hash (test run)  : 2BD20C5E
    CRC32 hash             : 2BD20C5E
    CRC32 hash (skip zero) : B16D0934
    AccurateRip signature  : 3A15E981
        ->Track not present in AccurateRip database.
    Statistics
        Read error                           : 0
        Jitter error (maybe fixed)           : 0
        Retry sector count                   : 0
        Damaged sector count                 : 0

Track 07
    Filename : /Volumes/PINEAPPLE ARMY/Music/Greeley Estates/The Death of Greeley Estates/07 Broken (interlude).flac

    Track gain             : 4.21 dB
    Peak                   : 0.693909
    CRC32 hash (test run)  : 5219C082
    CRC32 hash             : 5219C082
    CRC32 hash (skip zero) : F5C6F9BC
    AccurateRip signature  : EFF35C41
        ->Track not present in AccurateRip database.
    Statistics
        Read error                           : 0
        Jitter error (maybe fixed)           : 0
        Retry sector count                   : 0
        Damaged sector count                 : 0

Track 08
    Filename : /Volumes/PINEAPPLE ARMY/Music/Greeley Estates/The Death of Greeley Estates/08 Leave the Light On.flac

    Track gain             : -11.85 dB
    Peak                   : 1.000000
    CRC32 hash (test run)  : 7F97A4F5
    CRC32 hash             : 7F97A4F5
    CRC32 hash (skip zero) : D2F1D0D5
    AccurateRip signature  : 87F3DB9B
        ->Track not present in AccurateRip database.
    Statistics
        Read error                           : 0
        Jitter error (maybe fixed)           : 0
        Retry sector count                   : 0
        Damaged sector count                 : 0

Track 09
    Filename : /Volumes/PINEAPPLE ARMY/Music/Greeley Estates/The Death of Greeley Estates/09 Circle the Wagons.flac

    Track gain             : -10.91 dB
    Peak                   : 1.000000
    CRC32 hash (test run)  : A169C894
    CRC32 hash             : A169C894
    CRC32 hash (skip zero) : 5302E3C2
    AccurateRip signature  : EF481DE9
        ->Track not present in AccurateRip database.
    Statistics
        Read error                           : 0
        Jitter error (maybe fixed)           : 0
        Retry sector count                   : 0
        Damaged sector count                 : 0

Track 10
    Filename : /Volumes/PINEAPPLE ARMY/Music/Greeley Estates/The Death of Greeley Estates/10 The Reaction.flac

    Track gain             : -11.47 dB
    Peak                   : 1.000000
    CRC32 hash (test run)  : 8561713F
    CRC32 hash             : 8561713F
    CRC32 hash (skip zero) : 38D495E9
    AccurateRip signature  : AAA98173
        ->Track not present in AccurateRip database.
    Statistics
        Read error                           : 0
        Jitter error (maybe fixed)           : 0
        Retry sector count                   : 0
        Damaged sector count                 : 0

Track 11
    Filename : /Volumes/PINEAPPLE ARMY/Music/Greeley Estates/The Death of Greeley Estates/11 Tonight.flac

    Track gain             : -11.53 dB
    Peak                   : 1.000000
    CRC32 hash (test run)  : E26C5C7B
    CRC32 hash             : E26C5C7B
    CRC32 hash (skip zero) : 748A2C4E
    AccurateRip signature  : CCD427D8
        ->Track not present in AccurateRip database.
    Statistics
        Read error                           : 0
        Jitter error (maybe fixed)           : 1
        Retry sector count                   : 0
        Damaged sector count                 : 0

Track 12
    Filename : /Volumes/PINEAPPLE ARMY/Music/Greeley Estates/The Death of Greeley Estates/12 The Postman.flac

    Track gain             : -11.16 dB
    Peak                   : 1.000000
    CRC32 hash (test run)  : B1F251DD
    CRC32 hash             : B1F251DD
    CRC32 hash (skip zero) : 23AC1F3D
    AccurateRip signature  : C3C25B88
        ->Track not present in AccurateRip database.
    Statistics
        Read error                           : 0
        Jitter error (maybe fixed)           : 0
        Retry sector count                   : 0
        Damaged sector count                 : 0

Track 13
    Filename : /Volumes/PINEAPPLE ARMY/Music/Greeley Estates/The Death of Greeley Estates/13 Mouth to Mouth.flac

    Track gain             : -11.47 dB
    Peak                   : 1.000000
    CRC32 hash (test run)  : B1B87C2B
    CRC32 hash             : B1B87C2B
    CRC32 hash (skip zero) : F71EF293
    AccurateRip signature  : 93385D6E
        ->Track not present in AccurateRip database.
    Statistics
        Read error                           : 0
        Jitter error (maybe fixed)           : 0
        Retry sector count                   : 0
        Damaged sector count                 : 0

Track 14
    Filename : /Volumes/PINEAPPLE ARMY/Music/Greeley Estates/The Death of Greeley Estates/14 Repaired (interlude).flac

    Track gain             : 9.13 dB
    Peak                   : 0.496338
    CRC32 hash (test run)  : C2D26A05
    CRC32 hash             : C2D26A05
    CRC32 hash (skip zero) : 1228D848
    AccurateRip signature  : FDFC4355
        ->Track not present in AccurateRip database.
    Statistics
        Read error                           : 0
        Jitter error (maybe fixed)           : 0
        Retry sector count                   : 0
        Damaged sector count                 : 0

Track 15
    Filename : /Volumes/PINEAPPLE ARMY/Music/Greeley Estates/The Death of Greeley Estates/15 December.flac

    Track gain             : -5.59 dB
    Peak                   : 0.981964
    CRC32 hash (test run)  : C7511E88
    CRC32 hash             : C7511E88
    CRC32 hash (skip zero) : 0918B6CC
    AccurateRip signature  : 42B9189F
        ->Track not present in AccurateRip database.
    Statistics
        Read error                           : 0
        Jitter error (maybe fixed)           : 0
        Retry sector count                   : 0
        Damaged sector count                 : 0

No errors occurred

End of status report

Код:
Код:
-----------------------

DON'T MODIFY THIS FILE

-----------------------

PERFORMER: auCDtect Task Manager, ver. 1.5.1RC6 build 1.5.1.7
Copyright (c) 2008-2010 y-soft. All rights reserved
http:/y-soft.org

ANALYZER: auCDtect: CD records authenticity detector, version 0.8.2
Copyright (c) 2004 Oleg Berngardt. All rights reserved.
Copyright (c) 2004 Alexander Djourik. All rights reserved.

FILE: 14. Greeley Estates - Repaired (interlude).flac
  Size: 5741786 Hash: 8E9C38B096379ECD37C5EADE2C792E70 Accuracy: -m0
  Conclusion: CDDA 100%
  Signature: 190FAD1BE3A7BC541C341FDFE6B4A4CC75133951
FILE: 13. Greeley Estates - Mouth to Mouth.flac
  Size: 28005696 Hash: 9F6A83FFD18240D445434917C5E9CDA3 Accuracy: -m0
  Conclusion: CDDA 100%
  Signature: D1576A69BB8FD0058282ED41BA8BF2ADEA16AC49
FILE: 12. Greeley Estates - The Postman.flac
  Size: 38226520 Hash: 6AA9859CA38A7793332E1A354C0E6217 Accuracy: -m0
  Conclusion: CDDA 99%
  Signature: 1EA6E4FFFD8A17F1A4056B5B7DD94437F980FE2D
FILE: 11. Greeley Estates - Tonight.flac
  Size: 27553023 Hash: EA0A57DD1E02204817F71E67428DD057 Accuracy: -m0
  Conclusion: CDDA 100%
  Signature: 099949C7D986FBA73AE9BF46B32DC166C1736363
FILE: 10. Greeley Estates - The Reaction.flac
  Size: 24054582 Hash: 2E51257C81C3ED2D35BA9AF8390B8C09 Accuracy: -m0
  Conclusion: CDDA 100%
  Signature: FCCB9AFF9F2830702A70CB572D9B61F6AA54CF5F
FILE: 09. Greeley Estates - Circle the Wagons.flac
  Size: 30075269 Hash: 968F2501070E4A850A780A10F68A2871 Accuracy: -m0
  Conclusion: CDDA 100%
  Signature: D83CF39CB0ED30D228EF67BFBBAB8217F78EBC8A
FILE: 08. Greeley Estates - Leave the Light On.flac
  Size: 27094362 Hash: 5546C58ED78A17B306526CFE38889622 Accuracy: -m0
  Conclusion: CDDA 100%
  Signature: 71E51C8CCED2EBB8594A51A8F26A69EC51CFA135
FILE: 07. Greeley Estates - Broken (interlude).flac
  Size: 4302216 Hash: A74D3216C69B8B84C3FE13FA2911E9A0 Accuracy: -m0
  Conclusion: CDDA 100%
  Signature: A6BFFBBBEC8B8BF90CF13153A1B7E393495AA06A
FILE: 06. Greeley Estates - A Thousand Burning Forests.flac
  Size: 33964647 Hash: 8F4EC5AFB0A689F6106493AB12E207AE Accuracy: -m0
  Conclusion: CDDA 100%
  Signature: B6028CD2D3033B8D769473172E31DA5670B3E44D
FILE: 05. Greeley Estates - The Medic.flac
  Size: 29921549 Hash: 0ACD676A42A6ABC395ED792F86AD2DF7 Accuracy: -m0
  Conclusion: CDDA 100%
  Signature: 7EE7718D0640ACA5DB0C7232EAF9440FED7B74A8
FILE: 04. Greeley Estates - Bodies.flac
  Size: 29471773 Hash: 9857B3802BD4F7ACAA5B78D849AC7AC4 Accuracy: -m0
  Conclusion: CDDA 100%
  Signature: 4580D0686B9BC2E3D0DF99B4BEBF4C9FCBF7D8F4
FILE: 03. Greeley Estates - Friendly Neighborhood Visit.flac
  Size: 22847744 Hash: 909C7430FF8C0277C6BD7EFB0B93D61F Accuracy: -m0
  Conclusion: CDDA 100%
  Signature: 045F3CE9479B99A20DE31492FE9141A407A6B746
FILE: 02. Greeley Estates - The Last Dance.flac
  Size: 26768900 Hash: 1D4C0876CC962827B18EBBB7A1CF4229 Accuracy: -m0
  Conclusion: CDDA 100%
  Signature: A0300C550C68E5217784A370174E2CF07F30F0B8
FILE: 01. Greeley Estates - Straitjacket.flac
  Size: 28050700 Hash: 424CC8334AA04406C3B6F291962AD4A0 Accuracy: -m0
  Conclusion: CDDA 100%
  Signature: 79B052BDEE78ACBBEE17D3ADDAD7174644DFF0FD


#777Треклист:

01. The Narrow Road
02. Head Underwater
03. Lot Lizards
04. Watch It Burn
05. Die
06. Lennox House
07. Doomsday
08. Devil Son
09. Marionette
10. Turn the Night Away
11. The World You Used to Know
12. The Killing Fields
13. Porcelain
14. Cut Me Out

Продолжительность: 00:50:35


Код:
Код:
X Lossless Decoder version 20130602 (143.2)

XLD extraction logfile from 2013-06-24 21:00:23 -0400

Greeley Estates / The Narrow Road / Devil Son

Used drive : HL-DT-ST DVDRAM GE24NU30 (revision NT00)
Media type : Pressed CD

Ripper mode             : XLD Secure Ripper
Disable audio cache     : OK for the drive with a cache less than 1375KiB
Make use of C2 pointers : NO
Read offset correction  : 667
Max retry count         : 100
Gap status              : Analyzed, Appended

TOC of the extracted CD
     Track |   Start  |  Length  | Start sector | End sector
    ---------------------------------------------------------
        1  | 00:00:00 | 03:54:02 |         0    |    17551
        2  | 03:54:02 | 02:58:04 |     17552    |    30905
        3  | 06:52:06 | 03:29:22 |     30906    |    46602
        4  | 10:21:28 | 03:35:31 |     46603    |    62758
        5  | 13:56:59 | 03:37:55 |     62759    |    79088
        6  | 17:34:39 | 03:18:32 |     79089    |    93970
        7  | 20:52:71 | 04:06:22 |     93971    |   112442
        8  | 24:59:18 | 01:48:68 |    112443    |   120610
        9  | 26:48:11 | 03:31:06 |    120611    |   136441
       10  | 30:19:17 | 04:19:12 |    136442    |   155878
       11  | 34:38:29 | 03:50:08 |    155879    |   173136
       12  | 38:28:37 | 03:17:58 |    173137    |   187969
       13  | 41:46:20 | 03:55:64 |    187970    |   205658
       14  | 45:42:09 | 04:53:07 |    205659    |   227640

AccurateRip Summary
    Disc not found in AccurateRip DB.

All Tracks
    Album gain               : -11.37 dB
    Peak                     : 1.000000
    Statistics
        Read error                           : 0
        Jitter error (maybe fixed)           : 0
        Retry sector count                   : 0
        Damaged sector count                 : 0

Track 01
    Filename : /Volumes/PINEAPPLE ARMY/Music/Greeley Estates/The Narrow Road : Devil Son/01 The Narrow Road.flac
    Pre-gap length : 00:02:00

    Track gain               : -11.61 dB
    Peak                     : 1.000000
    CRC32 hash (test run)    : 97728A63
    CRC32 hash               : 97728A63
    CRC32 hash (skip zero)   : CA44F15B
    AccurateRip v1 signature : 29580547
    AccurateRip v2 signature : 9ECE61F2
        ->Track not present in AccurateRip database.
    Statistics
        Read error                           : 0
        Jitter error (maybe fixed)           : 0
        Retry sector count                   : 0
        Damaged sector count                 : 0

Track 02
    Filename : /Volumes/PINEAPPLE ARMY/Music/Greeley Estates/The Narrow Road : Devil Son/02 Head Underwater.flac
    Pre-gap length : 00:01:74

    Track gain               : -11.67 dB
    Peak                     : 1.000000
    CRC32 hash (test run)    : A29D436B
    CRC32 hash               : A29D436B
    CRC32 hash (skip zero)   : 74BE03E6
    AccurateRip v1 signature : F0BEEC55
    AccurateRip v2 signature : 09CF30A1
        ->Track not present in AccurateRip database.
    Statistics
        Read error                           : 0
        Jitter error (maybe fixed)           : 0
        Retry sector count                   : 0
        Damaged sector count                 : 0

Track 03
    Filename : /Volumes/PINEAPPLE ARMY/Music/Greeley Estates/The Narrow Road : Devil Son/03 Lot Lizards.flac
    Pre-gap length : 00:01:74

    Track gain               : -11.34 dB
    Peak                     : 1.000000
    CRC32 hash (test run)    : 2CF21C39
    CRC32 hash               : 2CF21C39
    CRC32 hash (skip zero)   : 374C7D37
    AccurateRip v1 signature : A72DD22A
    AccurateRip v2 signature : F9B7175C
        ->Track not present in AccurateRip database.
    Statistics
        Read error                           : 0
        Jitter error (maybe fixed)           : 0
        Retry sector count                   : 0
        Damaged sector count                 : 0

Track 04
    Filename : /Volumes/PINEAPPLE ARMY/Music/Greeley Estates/The Narrow Road : Devil Son/04 Watch It Burn.flac
    Pre-gap length : 00:01:74

    Track gain               : -11.39 dB
    Peak                     : 1.000000
    CRC32 hash (test run)    : 7D039099
    CRC32 hash               : 7D039099
    CRC32 hash (skip zero)   : 35F5C6F1
    AccurateRip v1 signature : 038EBCC3
    AccurateRip v2 signature : CBDA48E1
        ->Track not present in AccurateRip database.
    Statistics
        Read error                           : 0
        Jitter error (maybe fixed)           : 0
        Retry sector count                   : 0
        Damaged sector count                 : 0

Track 05
    Filename : /Volumes/PINEAPPLE ARMY/Music/Greeley Estates/The Narrow Road : Devil Son/05 Die.flac
    Pre-gap length : 00:01:74

    Track gain               : -11.82 dB
    Peak                     : 1.000000
    CRC32 hash (test run)    : BEDA0DCB
    CRC32 hash               : BEDA0DCB
    CRC32 hash (skip zero)   : 13E5BB34
    AccurateRip v1 signature : ED64CEF9
    AccurateRip v2 signature : 56C2D37B
        ->Track not present in AccurateRip database.
    Statistics
        Read error                           : 0
        Jitter error (maybe fixed)           : 0
        Retry sector count                   : 0
        Damaged sector count                 : 0

Track 06
    Filename : /Volumes/PINEAPPLE ARMY/Music/Greeley Estates/The Narrow Road : Devil Son/06 Lennox House.flac
    Pre-gap length : 00:01:74

    Track gain               : -11.36 dB
    Peak                     : 1.000000
    CRC32 hash (test run)    : CC51F576
    CRC32 hash               : CC51F576
    CRC32 hash (skip zero)   : DBC1462F
    AccurateRip v1 signature : 8BE23406
    AccurateRip v2 signature : DC5BB92C
        ->Track not present in AccurateRip database.
    Statistics
        Read error                           : 0
        Jitter error (maybe fixed)           : 0
        Retry sector count                   : 0
        Damaged sector count                 : 0

Track 07
    Filename : /Volumes/PINEAPPLE ARMY/Music/Greeley Estates/The Narrow Road : Devil Son/07 Doomsday.flac
    Pre-gap length : 00:01:74

    Track gain               : -11.60 dB
    Peak                     : 1.000000
    CRC32 hash (test run)    : 698E9894
    CRC32 hash               : 698E9894
    CRC32 hash (skip zero)   : B0F2D335
    AccurateRip v1 signature : 5F10343E
    AccurateRip v2 signature : EE810714
        ->Track not present in AccurateRip database.
    Statistics
        Read error                           : 0
        Jitter error (maybe fixed)           : 0
        Retry sector count                   : 0
        Damaged sector count                 : 0

Track 08
    Filename : /Volumes/PINEAPPLE ARMY/Music/Greeley Estates/The Narrow Road : Devil Son/08 Devil Son.flac
    Pre-gap length : 00:01:74

    Track gain               : -7.08 dB
    Peak                     : 0.965820
    CRC32 hash (test run)    : D819C7EF
    CRC32 hash               : D819C7EF
    CRC32 hash (skip zero)   : 958A6442
    AccurateRip v1 signature : 990D818D
    AccurateRip v2 signature : 3AC94095
        ->Track not present in AccurateRip database.
    Statistics
        Read error                           : 0
        Jitter error (maybe fixed)           : 0
        Retry sector count                   : 0
        Damaged sector count                 : 0

Track 09
    Filename : /Volumes/PINEAPPLE ARMY/Music/Greeley Estates/The Narrow Road : Devil Son/09 Marionette.flac
    Pre-gap length : 00:01:74

    Track gain               : -10.39 dB
    Peak                     : 0.969666
    CRC32 hash (test run)    : 0E3E5CB0
    CRC32 hash               : 0E3E5CB0
    CRC32 hash (skip zero)   : A5B9F5A5
    AccurateRip v1 signature : 7F58DC8D
    AccurateRip v2 signature : 92455BE9
        ->Track not present in AccurateRip database.
    Statistics
        Read error                           : 0
        Jitter error (maybe fixed)           : 0
        Retry sector count                   : 0
        Damaged sector count                 : 0

Track 10
    Filename : /Volumes/PINEAPPLE ARMY/Music/Greeley Estates/The Narrow Road : Devil Son/10 Turn the Night Away.flac
    Pre-gap length : 00:01:74

    Track gain               : -9.79 dB
    Peak                     : 0.966156
    CRC32 hash (test run)    : B7A3AE82
    CRC32 hash               : B7A3AE82
    CRC32 hash (skip zero)   : 766E3708
    AccurateRip v1 signature : 07938F9F
    AccurateRip v2 signature : A49B0DA5
        ->Track not present in AccurateRip database.
    Statistics
        Read error                           : 0
        Jitter error (maybe fixed)           : 0
        Retry sector count                   : 0
        Damaged sector count                 : 0

Track 11
    Filename : /Volumes/PINEAPPLE ARMY/Music/Greeley Estates/The Narrow Road : Devil Son/11 The World You Used to Know.flac
    Pre-gap length : 00:01:74

    Track gain               : -9.45 dB
    Peak                     : 0.965942
    CRC32 hash (test run)    : 607B9DB0
    CRC32 hash               : 607B9DB0
    CRC32 hash (skip zero)   : 28ED87B1
    AccurateRip v1 signature : 3A020857
    AccurateRip v2 signature : 37850839
        ->Track not present in AccurateRip database.
    Statistics
        Read error                           : 0
        Jitter error (maybe fixed)           : 0
        Retry sector count                   : 0
        Damaged sector count                 : 0

Track 12
    Filename : /Volumes/PINEAPPLE ARMY/Music/Greeley Estates/The Narrow Road : Devil Son/12 The Killing Fields.flac
    Pre-gap length : 00:01:74

    Track gain               : -9.78 dB
    Peak                     : 0.966919
    CRC32 hash (test run)    : 7611D31E
    CRC32 hash               : 7611D31E
    CRC32 hash (skip zero)   : 6B775D6A
    AccurateRip v1 signature : F57188A7
    AccurateRip v2 signature : 0C7C7B18
        ->Track not present in AccurateRip database.
    Statistics
        Read error                           : 0
        Jitter error (maybe fixed)           : 0
        Retry sector count                   : 0
        Damaged sector count                 : 0

Track 13
    Filename : /Volumes/PINEAPPLE ARMY/Music/Greeley Estates/The Narrow Road : Devil Son/13 Porcelain.flac
    Pre-gap length : 00:01:74

    Track gain               : -8.73 dB
    Peak                     : 0.965637
    CRC32 hash (test run)    : 276B49BC
    CRC32 hash               : 276B49BC
    CRC32 hash (skip zero)   : B6958678
    AccurateRip v1 signature : 375C1872
    AccurateRip v2 signature : 6C078628
        ->Track not present in AccurateRip database.
    Statistics
        Read error                           : 0
        Jitter error (maybe fixed)           : 0
        Retry sector count                   : 0
        Damaged sector count                 : 0

Track 14
    Filename : /Volumes/PINEAPPLE ARMY/Music/Greeley Estates/The Narrow Road : Devil Son/14 Cut Me Out.flac
    Pre-gap length : 00:01:74

    Track gain               : -9.50 dB
    Peak                     : 0.966095
    CRC32 hash (test run)    : A54F4931
    CRC32 hash               : A54F4931
    CRC32 hash (skip zero)   : 8119DC0B
    AccurateRip v1 signature : F7F36F12
    AccurateRip v2 signature : A4F7459C
        ->Track not present in AccurateRip database.
    Statistics
        Read error                           : 0
        Jitter error (maybe fixed)           : 0
        Retry sector count                   : 0
        Damaged sector count                 : 0

No errors occurred

End of status report


Код:
Код:
-----------------------

DON'T MODIFY THIS FILE

-----------------------

PERFORMER: auCDtect Task Manager, ver. 1.5.1RC6 build 1.5.1.7
Copyright (c) 2008-2010 y-soft. All rights reserved
http:/y-soft.org

ANALYZER: auCDtect: CD records authenticity detector, version 0.8.2
Copyright (c) 2004 Oleg Berngardt. All rights reserved.
Copyright (c) 2004 Alexander Djourik. All rights reserved.

FILE: 14. Greeley Estates - Cut Me Out.flac
  Size: 34102805 Hash: 651D67929F9952182DDF0281D530E3A5 Accuracy: -m0
  Conclusion: CDDA 100%
  Signature: A95ED5255BF4D73DE9F830B18F79C6560A24575C
FILE: 13. Greeley Estates - Porcelain.flac
  Size: 30876973 Hash: 3C982DC1567CE96F87E6748BCD4203D1 Accuracy: -m0
  Conclusion: CDDA 100%
  Signature: DF1591D91B99058CAC98647A968FAA24324FF318
FILE: 12. Greeley Estates - The Killing Fields.flac
  Size: 26237750 Hash: B682EA025E83CADE5EB72C8F59AA4DCF Accuracy: -m0
  Conclusion: CDDA 100%
  Signature: EE6BCAB261BF0BABCCD501CEB69F0B4956439709
FILE: 11. Greeley Estates - The World You Used to Know.flac
  Size: 29660019 Hash: 75FD0AAD76D9AF6E2B9C05205057E40D Accuracy: -m0
  Conclusion: CDDA 100%
  Signature: 04076814083D8312904CA7FE2F94320493482380
FILE: 10. Greeley Estates - Turn the Night Away.flac
  Size: 30805074 Hash: 2DAB87A1326BF2044DACF9995D83E23A Accuracy: -m0
  Conclusion: CDDA 100%
  Signature: 04E59D10FFA748BE10AD33AC2F7E684173E6DA58
FILE: 09. Greeley Estates - Marionette.flac
  Size: 28979086 Hash: BC117154D04359533FA62371AA19CB6C Accuracy: -m0
  Conclusion: CDDA 100%
  Signature: 7ECB5EC44913E0999BFD5AE7BB9BE1C258C6E995
FILE: 08. Greeley Estates - Devil Son.flac
  Size: 11691854 Hash: 9379FC10C3630BF3906CBAADBE6EFED5 Accuracy: -m0
  Conclusion: CDDA 99%
  Signature: 9E422A45D4E0A2812838A8725154239D2B77AF77
FILE: 07. Greeley Estates - Doomsday.flac
  Size: 33294739 Hash: 7270C99BD6FF6B7A00E6B54F99EDBD46 Accuracy: -m0
  Conclusion: CDDA 100%
  Signature: 6383EC37F5E86AEF4CFE2F78794B0881B415EA6E
FILE: 06. Greeley Estates - Lennox House.flac
  Size: 27881988 Hash: D85FB8C3758C281791DD5AA55477D283 Accuracy: -m0
  Conclusion: CDDA 100%
  Signature: BA0C53E352FFC6446C41DBD7A66DF0D9D264F3FE
FILE: 05. Greeley Estates - Die.flac
  Size: 31535153 Hash: 337F514E3F55762588BF6C51603326A8 Accuracy: -m0
  Conclusion: CDDA 99%
  Signature: A7A4BCAF385469BF3353E4784ADD6DCE64BCF160
FILE: 04. Greeley Estates - Watch It Burn.flac
  Size: 29962112 Hash: 5B5FD3295FCEF84A77D9F4DE7BE278FF Accuracy: -m0
  Conclusion: CDDA 100%
  Signature: 275175A374D6EB1D1E562283DA960CA6D5AC03E5
FILE: 03. Greeley Estates - Lot Lizards.flac
  Size: 29427122 Hash: 488EA24F7CCA0629FF8BF42D0046F337 Accuracy: -m0
  Conclusion: CDDA 100%
  Signature: D8AE0DA8B973498BF90B496518A2C93B43F95CCB
FILE: 02. Greeley Estates - Head Underwater.flac
  Size: 26321351 Hash: 0E2B3A0697757D26E67FCF156AB2EB3F Accuracy: -m0
  Conclusion: CDDA 100%
  Signature: C8ED92CD5FBF9005AD7CAAE1E2A196CD0FE07BB7
FILE: 01. Greeley Estates - The Narrow Road.flac
  Size: 32710309 Hash: 3B97A376DFA253686BDEEDE68F804A94 Accuracy: -m0
  Conclusion: CDDA 100%
  Signature: 2E069B241C6CA8FA145D619F145EF241F57E7AD1




Тип рипа: Tracks+.cue
Аудиокодек: FLAC
Битрейт аудио: lossless
Правила, инструкции, FAQ!!!
Торрент  Добавлен [16 мар 2014, 00:48] Скачать торрент Магнет ссылка
Скачать торрент
[ Размер 21.69 КБ / Просмотров 42 ]

Статус  
 
Размер  2.03 ГБ
Приватный: Нет (DHT включён)
.torrent скачан  0
 


     Отправить личное сообщение
   
Страница 1 из 1
Показать сообщения за:  Поле сортировки  
Начать новую тему Ответить на тему


Сейчас этот форум просматривают: нет зарегистрированных пользователей и гости: 0


Вы не можете начинать темы
Вы не можете отвечать на сообщения
Вы не можете редактировать свои сообщения
Вы не можете удалять свои сообщения
Вы не можете добавлять вложения

Перейти:  
cron