Начать новую тему Ответить на тему
Статистика раздачи
Размер: 2.34 ГБ | Добавлен: 03 май 2020, 17:08 | Скачали: 0
Сидеров: 0  [0 байт/сек]    Личеров: 0  [0 байт/сек]
Пред. тема | След. тема 

Автор
Сообщение

СообщениеДобавлено: 03 май 2020, 17:08 

Ответить с цитатой 

Dawn of Oblivion/Discography 1994-2017 (6 CD)


Жанр: Gothic Rock
Носитель: CD
Страна-производитель дисков: Sweden, Russia
Год издания: 1994-2017
Страна исполнителя (группы): Sweden
Аудиокодек: FLAC (*.flac)
Тип рипа: image+.cue
Источник: собственные рипы
Наличие сканов в содержимом раздачи: да, 600 dpi
https://www.metal-archives.com/bands/Dawn_of_Oblivion/5083
https://www.discogs.com/ru/artist/207452-Dawn-Of-OblivionГруппа Dawn of Oblivion была образована в Хельсингборге (Швеция) в 1991 году вокалистом / гитаристом Victor Fradera и гитаристом Per Broberg. Состав группы неоднократно менялся, несколько раз была на грани распада. С 2001 года и по настоящее время костяк группы не менялся: вокал, гитара - Victor Fradera, гитары - Stefan Rosqvist, басс - Jonas Nilsson. Dawn of Oblivion жива до сих пор, музыканты не перестают нас радовать качественной готикой. Работ немного, но каждый альбом запоминающийся. Dawn of Oblivion одна из ярчайших представителей готической сцены, а харизматичный вокал Виктора Фрадеры и его манеру исполнения не спутаешь ни с кем.
CD:
#777Производитель диска: M&A Musicart (Sweden)
Номер по каталогу: MACDL974
Время звучания: 1:01:07
Треклист:
1. Lust For a Prayer 3:14
2. Faith 5:09
3. Nazgul 5:41
4. White Zombie 5:12
5. Assumptions 4:45
6. Illusions 4:35
7. Nine Miles From Home 3:29
8. Second Floor Vendetta 6:43
9. Turn Back Now 4:45
10. Hollow Smiles 3:50
11. The Oblivion 4:16
Guitar, Vocals – Victor Fradera
Guitar, Keyboards – Per Broberg
Bass – Jesper Rydberg
Drums – Andreas Bage
Код:
Exact Audio Copy V1.5 from 20. February 2020
Отчёт EAC об извлечении, выполненном 29. апреля 2020, 15:58
Dawn of Oblivion / A Fervent Prayer
Дисковод: SlimtypeDVD A  DA8AESH   Adapter: 1  ID: 0
Режим чтения                 : Достоверность
Использование точного потока : Да
Отключение кэша аудио        : Да
Использование указателей C2  : Нет
Коррекция смещения при чтении                     : 6
Способность читать области Lead-in и Lead-out     : Нет
Заполнение пропущенных сэмплов тишиной            : Да
Удаление блоков с тишиной в начале и конце        : Нет
При вычислениях CRC использовались нулевые сэмплы : Да
Интерфейс                                         : Встроенный Win32-интерфейс для Win NT/2000
Выходной формат          : Пользовательский кодировщик
Выбранный битрейт        : 128 kBit/s
Качество                 : Высокий
Добавление ID3-тега      : Нет
Утилита сжатия           : C:\Program Files (x86)\Exact Audio Copy\Flac\flac.exe
Дополнительные параметры : -V -8 -T "Date=%year%" -T "Genre=%genre%" %source%
TOC извлечённого CD
     Трек |   Старт  | Длительность | Начальный сектор | Конечный сектор
    ---------------------------------------------------------------------
       1  |  0:00.00 |    3:11.44   |           0      |      14368
       2  |  3:11.44 |    5:10.53   |       14369      |      37671
       3  |  8:22.22 |    5:40.56   |       37672      |      63227
       4  | 14:03.03 |    5:13.09   |       63228      |      86711
       5  | 19:16.12 |    4:46.61   |       86712      |     108222
       6  | 24:02.73 |    4:36.28   |      108223      |     128950
       7  | 28:39.26 |    3:28.60   |      128951      |     144610
       8  | 32:08.11 |    6:44.40   |      144611      |     174950
       9  | 38:52.51 |    4:45.28   |      174951      |     196353
      10  | 43:38.04 |    3:51.54   |      196354      |     213732
      11  | 47:29.58 |    4:17.15   |      213733      |     233022
      12  | 51:46.73 |    3:53.67   |      233023      |     250564
      13  | 55:40.65 |    5:24.20   |      250565      |     274884
Характеристики диапазона извлечения и сообщения об ошибках
Выбранный диапазон
     Имя файла C:\=Troig-71\Dawn of Oblivion\1994 - A Fervent Prayer (reissue 2013, M&A Musicart, MACDL974)\Dawn of Oblivion - A Fervent Prayer.wav
     Пиковый уровень 100.0 %
     Скорость извлечения 4.5 X
     Качество диапазона 99.9 %
     CRC теста C16C0C58
     CRC копии C16C0C58
     Копирование... OK
Ошибок не произошло
AccurateRip: сводка
Трек  1  : извлечено точно (достоверность 1)  [18CCEC87]  (AR v2)
Трек  2  : извлечено точно (достоверность 1)  [CA2C5100]  (AR v2)
Трек  3  : извлечено точно (достоверность 1)  [C4FC51D0]  (AR v2)
Трек  4  : извлечено точно (достоверность 1)  [5D0D822A]  (AR v2)
Трек  5  : извлечено точно (достоверность 1)  [4F808F2A]  (AR v2)
Трек  6  : извлечено точно (достоверность 1)  [A5D8783C]  (AR v2)
Трек  7  : извлечено точно (достоверность 1)  [8B984856]  (AR v2)
Трек  8  : извлечено точно (достоверность 1)  [8F0F9B22]  (AR v2)
Трек  9  : извлечено точно (достоверность 1)  [C6732476]  (AR v2)
Трек 10  : извлечено точно (достоверность 1)  [6B37985C]  (AR v2)
Трек 11  : извлечено точно (достоверность 1)  [1F359A80]  (AR v2)
Трек 12  : извлечено точно (достоверность 1)  [C3DE4412]  (AR v2)
Трек 13  : извлечено точно (достоверность 1)  [134604C9]  (AR v2)
Все треки извлечены точно
Конец отчёта
---- CUETools DB Plugin V2.1.6
[CTDB TOCID: DGulLw8qm_dBEOam6MMwGvZ87OQ-] disk not present in database
Submit result: DGulLw8qm_dBEOam6MMwGvZ87OQ- has been uploaded
==== Контрольная сумма отчёта B97196C390BA297DC5BC62134719C31352B3B29BF98697F98368DBA23D2D5D3D ====
Код:
REM GENRE "Gothic Rock"
REM DATE 1994
REM DISCID 9B0E510D
REM COMMENT "ExactAudioCopy v1.5"
PERFORMER "Dawn of Oblivion"
TITLE "A Fervent Prayer"
REM COMPOSER ""
FILE "Dawn of Oblivion - A Fervent Prayer.flac" WAVE
  TRACK 01 AUDIO
    TITLE "Lust For a Prayer "
    PERFORMER "Dawn of Oblivion"
    REM COMPOSER ""
    INDEX 01 00:00:00
  TRACK 02 AUDIO
    TITLE "Faith "
    PERFORMER "Dawn of Oblivion"
    REM COMPOSER ""
    INDEX 00 03:10:44
    INDEX 01 03:11:44
  TRACK 03 AUDIO
    TITLE "Nazgul "
    PERFORMER "Dawn of Oblivion"
    REM COMPOSER ""
    INDEX 00 08:21:22
    INDEX 01 08:22:22
  TRACK 04 AUDIO
    TITLE "White Zombie "
    PERFORMER "Dawn of Oblivion"
    REM COMPOSER ""
    INDEX 00 14:02:03
    INDEX 01 14:03:03
  TRACK 05 AUDIO
    TITLE "Assumptions "
    PERFORMER "Dawn of Oblivion"
    REM COMPOSER ""
    INDEX 00 19:15:12
    INDEX 01 19:16:12
  TRACK 06 AUDIO
    TITLE "Illusions "
    PERFORMER "Dawn of Oblivion"
    REM COMPOSER ""
    INDEX 00 24:01:73
    INDEX 01 24:02:73
  TRACK 07 AUDIO
    TITLE "Nine Miles Frome Home "
    PERFORMER "Dawn of Oblivion"
    REM COMPOSER ""
    INDEX 00 28:38:26
    INDEX 01 28:39:26
  TRACK 08 AUDIO
    TITLE "Second Floor Vendetta "
    PERFORMER "Dawn of Oblivion"
    REM COMPOSER ""
    INDEX 00 32:07:11
    INDEX 01 32:08:11
  TRACK 09 AUDIO
    TITLE "Turn Back Now "
    PERFORMER "Dawn of Oblivion"
    REM COMPOSER ""
    INDEX 00 38:51:51
    INDEX 01 38:52:51
  TRACK 10 AUDIO
    TITLE "Hollow Smiles "
    PERFORMER "Dawn of Oblivion"
    REM COMPOSER ""
    INDEX 00 43:37:04
    INDEX 01 43:38:04
  TRACK 11 AUDIO
    TITLE "The Oblivion "
    PERFORMER "Dawn of Oblivion"
    REM COMPOSER ""
    INDEX 00 47:28:58
    INDEX 01 47:29:58
  TRACK 12 AUDIO
    TITLE "Ikaros (1994 ver.) "
    PERFORMER "Dawn of Oblivion"
    REM COMPOSER ""
    INDEX 00 51:45:73
    INDEX 01 51:46:73
  TRACK 13 AUDIO
    TITLE "My Vision "
    PERFORMER "Dawn of Oblivion"
    REM COMPOSER ""
    INDEX 00 55:39:65
    INDEX 01 55:40:65
#777Производитель диска: M&A Musicart (Sweden)
Номер по каталогу: MACDL951
Время звучания: 0:56:31
Треклист:
1. November 4:51
2. Xenophobia 5:10
3. Into the Dungeon (version) 5:20
4. Consealed Behind the Chequered Flag 4:25
5. Question of Sacrifice 5:12
6. Ubiquitous 4:55
7. Last Rites 4:40
8. The Suffocated Ground 5:00
9. Face the New World 6:14
10. Faith (Resurrection mix) 5:03
11. Nazgul (Morgul version) 5:35
Vocals – Victor Fradera
Guitar – Jimmy Lee Lou
Bass – Jonas Nilsson
Drums – Andreas Bage
Код:
Exact Audio Copy V1.5 from 20. February 2020
Отчёт EAC об извлечении, выполненном 29. апреля 2020, 16:29
Dawn of Oblivion / Yorick
Дисковод: SlimtypeDVD A  DA8AESH   Adapter: 1  ID: 0
Режим чтения                 : Достоверность
Использование точного потока : Да
Отключение кэша аудио        : Да
Использование указателей C2  : Нет
Коррекция смещения при чтении                     : 6
Способность читать области Lead-in и Lead-out     : Нет
Заполнение пропущенных сэмплов тишиной            : Да
Удаление блоков с тишиной в начале и конце        : Нет
При вычислениях CRC использовались нулевые сэмплы : Да
Интерфейс                                         : Встроенный Win32-интерфейс для Win NT/2000
Выходной формат          : Пользовательский кодировщик
Выбранный битрейт        : 128 kBit/s
Качество                 : Высокий
Добавление ID3-тега      : Нет
Утилита сжатия           : C:\Program Files (x86)\Exact Audio Copy\Flac\flac.exe
Дополнительные параметры : -V -8 -T "Date=%year%" -T "Genre=%genre%" %source%
TOC извлечённого CD
     Трек |   Старт  | Длительность | Начальный сектор | Конечный сектор
    ---------------------------------------------------------------------
       1  |  0:00.00 |    4:51.07   |           0      |      21831
       2  |  4:51.07 |    5:10.23   |       21832      |      45104
       3  | 10:01.30 |    5:20.40   |       45105      |      69144
       4  | 15:21.70 |    4:25.07   |       69145      |      89026
       5  | 19:47.02 |    5:12.33   |       89027      |     112459
       6  | 24:59.35 |    4:55.47   |      112460      |     134631
       7  | 29:55.07 |    4:40.03   |      134632      |     155634
       8  | 34:35.10 |    5:00.60   |      155635      |     178194
       9  | 39:35.70 |    6:14.12   |      178195      |     206256
      10  | 45:50.07 |    5:03.45   |      206257      |     229026
      11  | 50:53.52 |    5:35.55   |      229027      |     254206
Характеристики диапазона извлечения и сообщения об ошибках
Выбранный диапазон
     Имя файла C:\=Troig-71\Dawn of Oblivion\1997 - Yorick (M&A Musicart, MACDL951)\Dawn of Oblivion - Yorick.wav
     Пиковый уровень 100.0 %
     Скорость извлечения 4.5 X
     Качество диапазона 100.0 %
     CRC теста 3F2BD543
     CRC копии 3F2BD543
     Копирование... OK
Ошибок не произошло
AccurateRip: сводка
Трек  1  : извлечено точно (достоверность 2)  [06D7310A]  (AR v1)
Трек  2  : извлечено точно (достоверность 2)  [5B125BA1]  (AR v1)
Трек  3  : извлечено точно (достоверность 2)  [E61C0F53]  (AR v1)
Трек  4  : извлечено точно (достоверность 2)  [914D6E48]  (AR v1)
Трек  5  : извлечено точно (достоверность 2)  [544229F5]  (AR v1)
Трек  6  : извлечено точно (достоверность 2)  [6AA24227]  (AR v1)
Трек  7  : извлечено точно (достоверность 2)  [B649CC06]  (AR v1)
Трек  8  : извлечено точно (достоверность 2)  [56089825]  (AR v1)
Трек  9  : извлечено точно (достоверность 2)  [E1034240]  (AR v1)
Трек 10  : извлечено точно (достоверность 2)  [09644BC7]  (AR v1)
Трек 11  : извлечено точно (достоверность 2)  [AD3A7F7D]  (AR v1)
Все треки извлечены точно
Конец отчёта
---- CUETools DB Plugin V2.1.6
[CTDB TOCID: xRpY6VttgSrUD.pQhfyQK.zpKXA-] found
Submit result: xRpY6VttgSrUD.pQhfyQK.zpKXA- has been confirmed
Track | CTDB Status
  1   | (3/3) Accurately ripped
  2   | (3/3) Accurately ripped
  3   | (3/3) Accurately ripped
  4   | (3/3) Accurately ripped
  5   | (3/3) Accurately ripped
  6   | (3/3) Accurately ripped
  7   | (3/3) Accurately ripped
  8   | (3/3) Accurately ripped
  9   | (3/3) Accurately ripped
 10   | (3/3) Accurately ripped
 11   | (3/3) Accurately ripped
==== Контрольная сумма отчёта 7C3CF1A98691B47567C2D3F43CB12F3759AE8A9BBE7BD9346CF2B833BEE02DA0 ====
Код:
REM GENRE "Gothic Rock"
REM DATE 1997
REM DISCID 990D3D0B
REM COMMENT "ExactAudioCopy v1.5"
PERFORMER "Dawn of Oblivion"
TITLE "Yorick"
REM COMPOSER ""
FILE "Dawn of Oblivion - Yorick.flac" WAVE
  TRACK 01 AUDIO
    TITLE "November"
    PERFORMER "Dawn of Oblivion"
    REM COMPOSER ""
    INDEX 01 00:00:00
  TRACK 02 AUDIO
    TITLE "Xenophobia"
    PERFORMER "Dawn of Oblivion"
    REM COMPOSER ""
    INDEX 00 04:51:05
    INDEX 01 04:51:07
  TRACK 03 AUDIO
    TITLE "Into the Dungeon (version)"
    PERFORMER "Dawn of Oblivion"
    REM COMPOSER ""
    INDEX 00 10:00:57
    INDEX 01 10:01:30
  TRACK 04 AUDIO
    TITLE "Consealed Behind the Chequered Flag"
    PERFORMER "Dawn of Oblivion"
    REM COMPOSER ""
    INDEX 01 15:21:70
  TRACK 05 AUDIO
    TITLE "Question of Sacrifice"
    PERFORMER "Dawn of Oblivion"
    REM COMPOSER ""
    INDEX 00 19:46:05
    INDEX 01 19:47:02
  TRACK 06 AUDIO
    TITLE "Ubiquitous"
    PERFORMER "Dawn of Oblivion"
    REM COMPOSER ""
    INDEX 01 24:59:35
  TRACK 07 AUDIO
    TITLE "Last Rites"
    PERFORMER "Dawn of Oblivion"
    REM COMPOSER ""
    INDEX 01 29:55:07
  TRACK 08 AUDIO
    TITLE "The Suffocated Ground"
    PERFORMER "Dawn of Oblivion"
    REM COMPOSER ""
    INDEX 00 34:34:25
    INDEX 01 34:35:10
  TRACK 09 AUDIO
    TITLE "Face The New World"
    PERFORMER "Dawn of Oblivion"
    REM COMPOSER ""
    INDEX 00 39:35:40
    INDEX 01 39:35:70
  TRACK 10 AUDIO
    TITLE "Faith (resurrection mix)"
    PERFORMER "Dawn of Oblivion"
    REM COMPOSER ""
    INDEX 00 45:49:67
    INDEX 01 45:50:07
  TRACK 11 AUDIO
    TITLE "Nazgul (Morgul version)"
    PERFORMER "Dawn of Oblivion"
    REM COMPOSER ""
    INDEX 01 50:53:52
#777Производитель диска: CD-Maximum (2005, Russia)
Номер по каталогу: CDM 0704-1926
Время звучания: 0:50:50
Треклист:
1. Suicide 4:48
2. The Hellfire Sermon 3:56
3. Under Siege (female vocals Elizabeth Lestapier) 5:07
4. Repulsion 3:27
5. Brain Drain 5:11
6. Time To Leave 4:30
7. G.O.D. 5:02
8. Haunted 3:48
9. Free 5:18
10. Nuclear War 6:07
11. Lullaby 3:34
Vocals – Victor Fradera, Elizabeth Lestapier (tracks 3)
Guitar – Stefan Rosqvist
Bass – Jonas Nilsson
Drums – Andreas Bage
Код:
Exact Audio Copy V1.5 from 20. February 2020
Отчёт EAC об извлечении, выполненном 2. апреля 2020, 10:12
Dawn of Oblivion / Mephisto's Appealing
Дисковод: SlimtypeDVD A  DA8AESH   Adapter: 1  ID: 0
Режим чтения                 : Достоверность
Использование точного потока : Да
Отключение кэша аудио        : Да
Использование указателей C2  : Нет
Коррекция смещения при чтении                     : 6
Способность читать области Lead-in и Lead-out     : Нет
Заполнение пропущенных сэмплов тишиной            : Да
Удаление блоков с тишиной в начале и конце        : Нет
При вычислениях CRC использовались нулевые сэмплы : Да
Интерфейс                                         : Встроенный Win32-интерфейс для Win NT/2000
Выходной формат          : Пользовательский кодировщик
Выбранный битрейт        : 128 kBit/s
Качество                 : Высокий
Добавление ID3-тега      : Нет
Утилита сжатия           : C:\Program Files (x86)\Exact Audio Copy\Flac\flac.exe
Дополнительные параметры : -V -8 -T "Date=%year%" -T "Genre=%genre%" %source%
TOC извлечённого CD
     Трек |   Старт  | Длительность | Начальный сектор | Конечный сектор
    ---------------------------------------------------------------------
       1  |  0:00.00 |    4:48.22   |           0      |      21621
       2  |  4:48.22 |    3:55.73   |       21622      |      39319
       3  |  8:44.20 |    5:06.70   |       39320      |      62339
       4  | 13:51.15 |    3:26.57   |       62340      |      77846
       5  | 17:17.72 |    5:11.18   |       77847      |     101189
       6  | 22:29.15 |    4:30.20   |      101190      |     121459
       7  | 26:59.35 |    5:01.52   |      121460      |     144086
       8  | 32:01.12 |    3:47.58   |      144087      |     161169
       9  | 35:48.70 |    5:18.05   |      161170      |     185024
      10  | 41:07.00 |    6:06.72   |      185025      |     212546
      11  | 47:13.72 |    3:34.37   |      212547      |     228633
Характеристики диапазона извлечения и сообщения об ошибках
Выбранный диапазон
     Имя файла C:\=Pip Troig-71\Dawn of Oblivion - 2001 - Mephisto's Appealing ‎(CD-Maximum, CDM 0704-1926)\Dawn of Oblivion - Mephisto's Appealing.wav
     Пиковый уровень 100.0 %
     Скорость извлечения 4.4 X
     Качество диапазона 100.0 %
     CRC теста 44378F97
     CRC копии 44378F97
     Копирование... OK
Ошибок не произошло
AccurateRip: сводка
Трек  1  : извлечено точно (достоверность 1)  [57719AC8]  (AR v2)
Трек  2  : извлечено точно (достоверность 1)  [009016B1]  (AR v2)
Трек  3  : извлечено точно (достоверность 1)  [86CBD28E]  (AR v2)
Трек  4  : извлечено точно (достоверность 1)  [F6AFF227]  (AR v2)
Трек  5  : извлечено точно (достоверность 1)  [F3C8253B]  (AR v2)
Трек  6  : извлечено точно (достоверность 1)  [24578F79]  (AR v2)
Трек  7  : извлечено точно (достоверность 1)  [CCDCEB26]  (AR v2)
Трек  8  : извлечено точно (достоверность 1)  [0E98050F]  (AR v2)
Трек  9  : извлечено точно (достоверность 1)  [FCAB96BE]  (AR v2)
Трек 10  : извлечено точно (достоверность 1)  [B0697A1B]  (AR v2)
Трек 11  : извлечено точно (достоверность 1)  [9737FBFB]  (AR v2)
Все треки извлечены точно
Конец отчёта
---- CUETools DB Plugin V2.1.6
[CTDB TOCID: 9pWMQupXtXNq.ByeXWNJkNl.UQs-] disk not present in database
Submit result: 9pWMQupXtXNq.ByeXWNJkNl.UQs- has been uploaded
==== Контрольная сумма отчёта 1149E1AE97CB39044CE5525FFB2317ECF9FD83095A101216D792FA981DEB43D7 ====
Код:
REM DATE 2000
REM DISCID 870BE80B
REM COMMENT "ExactAudioCopy v1.5"
PERFORMER "Dawn of Oblivion"
TITLE "Mephisto's Appealing"
REM COMPOSER ""
FILE "Dawn of Oblivion - Mephisto's Appealing.flac" WAVE
  TRACK 01 AUDIO
    TITLE "Suicide"
    PERFORMER "Dawn of Oblivion"
    REM COMPOSER ""
    INDEX 01 00:00:00
  TRACK 02 AUDIO
    TITLE "The Hellfire Sermon"
    PERFORMER "Dawn of Oblivion"
    REM COMPOSER ""
    INDEX 01 04:48:22
  TRACK 03 AUDIO
    TITLE "Under Siege"
    PERFORMER "Dawn of Oblivion"
    REM COMPOSER ""
    INDEX 00 08:42:42
    INDEX 01 08:44:20
  TRACK 04 AUDIO
    TITLE "Repulsion"
    PERFORMER "Dawn of Oblivion"
    REM COMPOSER ""
    INDEX 01 13:51:15
  TRACK 05 AUDIO
    TITLE "Brain Drain"
    PERFORMER "Dawn of Oblivion"
    REM COMPOSER ""
    INDEX 00 17:15:42
    INDEX 01 17:17:72
  TRACK 06 AUDIO
    TITLE "Time To Leave"
    PERFORMER "Dawn of Oblivion"
    REM COMPOSER ""
    INDEX 01 22:29:15
  TRACK 07 AUDIO
    TITLE "G.O.D."
    PERFORMER "Dawn of Oblivion"
    REM COMPOSER ""
    INDEX 01 26:59:35
  TRACK 08 AUDIO
    TITLE "Haunted"
    PERFORMER "Dawn of Oblivion"
    REM COMPOSER ""
    INDEX 00 32:01:02
    INDEX 01 32:01:12
  TRACK 09 AUDIO
    TITLE "Free"
    PERFORMER "Dawn of Oblivion"
    REM COMPOSER ""
    INDEX 00 35:47:20
    INDEX 01 35:48:70
  TRACK 10 AUDIO
    TITLE "Nuclear Winter"
    PERFORMER "Dawn of Oblivion"
    REM COMPOSER ""
    INDEX 01 41:07:00
  TRACK 11 AUDIO
    TITLE "Lullaby"
    PERFORMER "Dawn of Oblivion"
    REM COMPOSER ""
    INDEX 00 47:11:47
    INDEX 01 47:13:72
#777Производитель диска: M&A Musicart (Sweden)
Номер по каталогу: MACDL972
Время звучания: 0:52:11
Треклист:
1. Neptune Falls 4:31
2. City In the Winds 3:58
3. Father 4:05
4. By Bread Alone 4:51
5. Malice 3:34
6. Zodiac Mind 3:06
7. Behind Closed Doors 3:43
8. Nymphs of Persephone 3:46
9. Ikaros 4:01
10. Falling 3:22
11. Ghost of Cain 3:14
12. Commando X 3:58
13. The Witchking 5:55
Vocals – Victor Fradera
Guitar – Stefan Rosqvist
Bass – Jonas Nilsson
Drums, Keyboards – Miss Decibel
Код:
Exact Audio Copy V1.5 from 20. February 2020
Отчёт EAC об извлечении, выполненном 29. апреля 2020, 17:24
Dawn of Oblivion / The Final Chapter
Дисковод: SlimtypeDVD A  DA8AESH   Adapter: 1  ID: 0
Режим чтения                 : Достоверность
Использование точного потока : Да
Отключение кэша аудио        : Да
Использование указателей C2  : Нет
Коррекция смещения при чтении                     : 6
Способность читать области Lead-in и Lead-out     : Нет
Заполнение пропущенных сэмплов тишиной            : Да
Удаление блоков с тишиной в начале и конце        : Нет
При вычислениях CRC использовались нулевые сэмплы : Да
Интерфейс                                         : Встроенный Win32-интерфейс для Win NT/2000
Выходной формат          : Пользовательский кодировщик
Выбранный битрейт        : 128 kBit/s
Качество                 : Высокий
Добавление ID3-тега      : Нет
Утилита сжатия           : C:\Program Files (x86)\Exact Audio Copy\Flac\flac.exe
Дополнительные параметры : -V -8 -T "Date=%year%" -T "Genre=%genre%" %source%
TOC извлечённого CD
     Трек |   Старт  | Длительность | Начальный сектор | Конечный сектор
    ---------------------------------------------------------------------
       1  |  0:00.00 |    4:31.30   |           0      |      20354
       2  |  4:31.30 |    3:58.29   |       20355      |      38233
       3  |  8:29.59 |    4:05.45   |       38234      |      56653
       4  | 12:35.29 |    4:51.09   |       56654      |      78487
       5  | 17:26.38 |    3:34.36   |       78488      |      94573
       6  | 21:00.74 |    3:06.74   |       94574      |     108597
       7  | 24:07.73 |    3:43.10   |      108598      |     125332
       8  | 27:51.08 |    3:46.63   |      125333      |     142345
       9  | 31:37.71 |    4:01.02   |      142346      |     160422
      10  | 35:38.73 |    3:22.21   |      160423      |     175593
      11  | 39:01.19 |    3:14.73   |      175594      |     190216
      12  | 42:16.17 |    3:58.29   |      190217      |     208095
      13  | 46:14.46 |    5:55.02   |      208096      |     234722
Характеристики диапазона извлечения и сообщения об ошибках
Выбранный диапазон
     Имя файла C:\=Troig-71\Dawn of Oblivion\2009 - The Final Chapter (M&A Musicart, MACDL972)\Dawn of Oblivion - The Final Chapter.wav
     Пиковый уровень 100.0 %
     Скорость извлечения 4.4 X
     Качество диапазона 100.0 %
     CRC теста 007805DD
     CRC копии 007805DD
     Копирование... OK
Ошибок не произошло
AccurateRip: сводка
Трек  1  : извлечено точно (достоверность 1)  [F5EAA274]  (AR v2)
Трек  2  : извлечено точно (достоверность 1)  [1A32B5AF]  (AR v2)
Трек  3  : извлечено точно (достоверность 1)  [132C4A7E]  (AR v2)
Трек  4  : извлечено точно (достоверность 1)  [C40F1737]  (AR v2)
Трек  5  : извлечено точно (достоверность 1)  [19B8421E]  (AR v2)
Трек  6  : извлечено точно (достоверность 1)  [8EE63EDC]  (AR v2)
Трек  7  : извлечено точно (достоверность 1)  [9A272C3C]  (AR v2)
Трек  8  : извлечено точно (достоверность 1)  [3052A287]  (AR v2)
Трек  9  : извлечено точно (достоверность 1)  [97C490DE]  (AR v2)
Трек 10  : извлечено точно (достоверность 1)  [87F542F2]  (AR v2)
Трек 11  : извлечено точно (достоверность 1)  [66AC77AC]  (AR v2)
Трек 12  : извлечено точно (достоверность 1)  [8D6C6396]  (AR v2)
Трек 13  : извлечено точно (достоверность 1)  [D80F8736]  (AR v2)
Все треки извлечены точно
Конец отчёта
---- CUETools DB Plugin V2.1.6
[CTDB TOCID: cYzTqeIM0e7fo0U5W4sXc77.dgQ-] disk not present in database
Submit result: cYzTqeIM0e7fo0U5W4sXc77.dgQ- has been uploaded
==== Контрольная сумма отчёта 7E8A2CFABD509CF3DEDE8054B6A8283BDBA954C6EE283B5E19FDBDFFB660CA46 ====
Код:
REM GENRE "Gothic Rock"
REM DATE 2009
REM DISCID B90C390D
REM COMMENT "ExactAudioCopy v1.5"
PERFORMER "Dawn of Oblivion"
TITLE "The Final Chapter"
REM COMPOSER ""
FILE "Dawn of Oblivion - The Final Chapter.flac" WAVE
  TRACK 01 AUDIO
    TITLE "Neptune Falls"
    PERFORMER "Dawn of Oblivion"
    REM COMPOSER ""
    INDEX 01 00:00:00
  TRACK 02 AUDIO
    TITLE "City In the Winds"
    PERFORMER "Dawn of Oblivion"
    REM COMPOSER ""
    INDEX 01 04:31:30
  TRACK 03 AUDIO
    TITLE "Father"
    PERFORMER "Dawn of Oblivion"
    REM COMPOSER ""
    INDEX 01 08:29:59
  TRACK 04 AUDIO
    TITLE "By Bread Alone"
    PERFORMER "Dawn of Oblivion"
    REM COMPOSER ""
    INDEX 01 12:35:29
  TRACK 05 AUDIO
    TITLE "Malice"
    PERFORMER "Dawn of Oblivion"
    REM COMPOSER ""
    INDEX 01 17:26:38
  TRACK 06 AUDIO
    TITLE "Zodiac Mind"
    PERFORMER "Dawn of Oblivion"
    REM COMPOSER ""
    INDEX 01 21:00:74
  TRACK 07 AUDIO
    TITLE "Behind Closed Doors"
    PERFORMER "Dawn of Oblivion"
    REM COMPOSER ""
    INDEX 01 24:07:73
  TRACK 08 AUDIO
    TITLE "Nymphs of Persephone"
    PERFORMER "Dawn of Oblivion"
    REM COMPOSER ""
    INDEX 01 27:51:08
  TRACK 09 AUDIO
    TITLE "Ikaros"
    PERFORMER "Dawn of Oblivion"
    REM COMPOSER ""
    INDEX 01 31:37:71
  TRACK 10 AUDIO
    TITLE "Falling"
    PERFORMER "Dawn of Oblivion"
    REM COMPOSER ""
    INDEX 01 35:38:73
  TRACK 11 AUDIO
    TITLE "Ghost of Cain"
    PERFORMER "Dawn of Oblivion"
    REM COMPOSER ""
    INDEX 01 39:01:19
  TRACK 12 AUDIO
    TITLE "Commando X"
    PERFORMER "Dawn of Oblivion"
    REM COMPOSER ""
    INDEX 01 42:16:17
  TRACK 13 AUDIO
    TITLE "The Witchking"
    PERFORMER "Dawn of Oblivion"
    REM COMPOSER ""
    INDEX 01 46:14:46
#777Производитель диска: M&A Musicart (Sweden)
Номер по каталогу: MACDL977
Время звучания: 0:48:24
Треклист:
1. Demons of the Cross 6:59
2. Anubis 5:44
3. Catherine Wheel 3:01
4. The Black Pilgrim 6:23
5. The Pathfinder 4:54
6. Within the Realms of tThe King of Amur 6:57
7. My Nihilistic Dream 3:08
8. Path To Gehenna 4:06
9. Years 7:06
Vocals – Victor Fradera
Vocals (Female) – Sara Olrog
Guitar – Stefan Rosqvist
Bass – Jonas Nilsson
Keyboards – Tony Andersson
Drums – Miss Decibel
Drum Programming (Uncredited, Under Supervision) – Peter Wildoer
Код:
Exact Audio Copy V1.5 from 20. February 2020
Отчёт EAC об извлечении, выполненном 29. апреля 2020, 17:51
Dawn of Oblivion / Phoenix Rising
Дисковод: SlimtypeDVD A  DA8AESH   Adapter: 1  ID: 0
Режим чтения                 : Достоверность
Использование точного потока : Да
Отключение кэша аудио        : Да
Использование указателей C2  : Нет
Коррекция смещения при чтении                     : 6
Способность читать области Lead-in и Lead-out     : Нет
Заполнение пропущенных сэмплов тишиной            : Да
Удаление блоков с тишиной в начале и конце        : Нет
При вычислениях CRC использовались нулевые сэмплы : Да
Интерфейс                                         : Встроенный Win32-интерфейс для Win NT/2000
Выходной формат          : Пользовательский кодировщик
Выбранный битрейт        : 128 kBit/s
Качество                 : Высокий
Добавление ID3-тега      : Нет
Утилита сжатия           : C:\Program Files (x86)\Exact Audio Copy\Flac\flac.exe
Дополнительные параметры : -V -8 -T "Date=%year%" -T "Genre=%genre%" %source%
TOC извлечённого CD
     Трек |   Старт  | Длительность | Начальный сектор | Конечный сектор
    ---------------------------------------------------------------------
       1  |  0:00.00 |    6:59.27   |           0      |      31451
       2  |  6:59.27 |    5:44.08   |       31452      |      57259
       3  | 12:43.35 |    3:01.55   |       57260      |      70889
       4  | 15:45.15 |    6:23.00   |       70890      |      99614
       5  | 22:08.15 |    4:54.08   |       99615      |     121672
       6  | 27:02.23 |    6:57.65   |      121673      |     153012
       7  | 34:00.13 |    3:08.44   |      153013      |     167156
       8  | 37:08.57 |    4:06.27   |      167157      |     185633
       9  | 41:15.09 |    7:06.66   |      185634      |     217649
Характеристики диапазона извлечения и сообщения об ошибках
Выбранный диапазон
     Имя файла C:\=Troig-71\Dawn of Oblivion\2015 - Phoenix Rising (M&A Musicart, MACDL977)\Dawn of Oblivion - Phoenix Rising.wav
     Пиковый уровень 100.0 %
     Скорость извлечения 4.3 X
     Качество диапазона 99.9 %
     CRC теста 92AD7783
     CRC копии 92AD7783
     Копирование... OK
Ошибок не произошло
AccurateRip: сводка
Трек  1  : извлечено точно (достоверность 1)  [2EE551D5]  (AR v2)
Трек  2  : извлечено точно (достоверность 1)  [7042F14E]  (AR v2)
Трек  3  : извлечено точно (достоверность 1)  [B96C3A17]  (AR v2)
Трек  4  : извлечено точно (достоверность 1)  [0324B032]  (AR v2)
Трек  5  : извлечено точно (достоверность 1)  [12192A1B]  (AR v2)
Трек  6  : извлечено точно (достоверность 1)  [370A87FF]  (AR v2)
Трек  7  : извлечено точно (достоверность 1)  [E3C30AA8]  (AR v2)
Трек  8  : извлечено точно (достоверность 1)  [2A2ED6D0]  (AR v2)
Трек  9  : извлечено точно (достоверность 1)  [AAAC3DBD]  (AR v2)
Все треки извлечены точно
Конец отчёта
---- CUETools DB Plugin V2.1.6
[CTDB TOCID: t5Nls.73gKJDjNAQVGW_leVaOl0-] found
Submit result: t5Nls.73gKJDjNAQVGW_leVaOl0- has been confirmed
Track | CTDB Status
  1   | (1/1) Accurately ripped
  2   | (1/1) Accurately ripped
  3   | (1/1) Accurately ripped
  4   | (1/1) Accurately ripped
  5   | (1/1) Accurately ripped
  6   | (1/1) Accurately ripped
  7   | (1/1) Accurately ripped
  8   | (1/1) Accurately ripped
  9   | (1/1) Accurately ripped
==== Контрольная сумма отчёта F549E85B72F0F643F833848AE5DB52F9AEFF27431B4E25EFFCC7C0564CD65243 ====
Код:
REM GENRE "Gothic Rock"
REM DATE 2015
REM DISCID 660B5609
REM COMMENT "ExactAudioCopy v1.5"
PERFORMER "Dawn of Oblivion"
TITLE "Phoenix Rising"
REM COMPOSER "Fradera/Rosqvist/Nilsson "
FILE "Dawn of Oblivion - Phoenix Rising.flac" WAVE
  TRACK 01 AUDIO
    TITLE "Demons of the Cross"
    PERFORMER "Dawn of Oblivion"
    REM COMPOSER "Fradera/Rosqvist/Nilsson"
    INDEX 01 00:00:00
  TRACK 02 AUDIO
    TITLE "Anubis"
    PERFORMER "Dawn of Oblivion"
    REM COMPOSER "Fradera/Rosqvist/Nilsson"
    INDEX 00 06:57:27
    INDEX 01 06:59:27
  TRACK 03 AUDIO
    TITLE "Catherine Wheel"
    PERFORMER "Dawn of Oblivion"
    REM COMPOSER "Fradera/Rosqvist/Nilsson"
    INDEX 00 12:41:35
    INDEX 01 12:43:35
  TRACK 04 AUDIO
    TITLE "The Black Pilgrim"
    PERFORMER "Dawn of Oblivion "
    REM COMPOSER "Fradera/Rosqvist/Nilsson"
    INDEX 00 15:43:18
    INDEX 01 15:45:15
  TRACK 05 AUDIO
    TITLE "The Pathfinder"
    PERFORMER "Dawn of Oblivion"
    REM COMPOSER "Fradera/Rosqvist/Nilsson"
    INDEX 00 22:06:15
    INDEX 01 22:08:15
  TRACK 06 AUDIO
    TITLE "Within the Realms of the King of Amur"
    PERFORMER "Dawn of Oblivion"
    REM COMPOSER "Fradera/Rosqvist/Nilsson"
    INDEX 00 27:00:23
    INDEX 01 27:02:23
  TRACK 07 AUDIO
    TITLE "My Nihilistic Dream"
    PERFORMER "Dawn of Oblivion"
    REM COMPOSER "Fradera/Rosqvist/Nilsson"
    INDEX 00 33:58:13
    INDEX 01 34:00:13
  TRACK 08 AUDIO
    TITLE "Path To Gehenna"
    PERFORMER "Dawn of Oblivion"
    REM COMPOSER "Fradera/Rosqvist/Nilsson"
    INDEX 00 37:06:57
    INDEX 01 37:08:57
  TRACK 09 AUDIO
    TITLE "Years"
    PERFORMER "Dawn of Oblivion"
    REM COMPOSER "Fradera/Rosqvist/Nilsson"
    INDEX 00 41:13:09
    INDEX 01 41:15:09
#777Производитель диска: M&A Musicart (Sweden)
Номер по каталогу: MACDL980
Время звучания: 0:33:26
Треклист:
1. Asphyxiate II 4:28
2. Soulmate 3:43
3. Search For Equilibrium (feat. Fredrik Akerblom) 4:29
4. Acid Sea 6:01
5. Schizophrenia 3:09
6. Baphomet 4:32
7. Anubis (Radio edit) 4:14
8. Walpurgis Night (Female vocals – Sara Olrog) 2:49
Vocals – Victor Fradera
Guitar – Stefan Rosqvist
Bass – Jonas Nilsson
Drums – Fredrik Eriksson
Код:
Exact Audio Copy V1.5 from 20. February 2020
Отчёт EAC об извлечении, выполненном 29. апреля 2020, 18:22
Dawn of Oblivion / Lest We Forget
Дисковод: SlimtypeDVD A  DA8AESH   Adapter: 1  ID: 0
Режим чтения                 : Достоверность
Использование точного потока : Да
Отключение кэша аудио        : Да
Использование указателей C2  : Нет
Коррекция смещения при чтении                     : 6
Способность читать области Lead-in и Lead-out     : Нет
Заполнение пропущенных сэмплов тишиной            : Да
Удаление блоков с тишиной в начале и конце        : Нет
При вычислениях CRC использовались нулевые сэмплы : Да
Интерфейс                                         : Встроенный Win32-интерфейс для Win NT/2000
Выходной формат          : Пользовательский кодировщик
Выбранный битрейт        : 128 kBit/s
Качество                 : Высокий
Добавление ID3-тега      : Нет
Утилита сжатия           : C:\Program Files (x86)\Exact Audio Copy\Flac\flac.exe
Дополнительные параметры : -V -8 -T "Date=%year%" -T "Genre=%genre%" %source%
TOC извлечённого CD
     Трек |   Старт  | Длительность | Начальный сектор | Конечный сектор
    ---------------------------------------------------------------------
       1  |  0:00.00 |    4:28.00   |           0      |      20099
       2  |  4:28.00 |    3:42.43   |       20100      |      36792
       3  |  8:10.43 |    4:28.74   |       36793      |      56966
       4  | 12:39.42 |    6:00.56   |       56967      |      84022
       5  | 18:40.23 |    3:09.00   |       84023      |      98197
       6  | 21:49.23 |    4:32.27   |       98198      |     118624
       7  | 26:21.50 |    4:14.02   |      118625      |     137676
       8  | 30:35.52 |    2:48.38   |      137677      |     150314
Характеристики диапазона извлечения и сообщения об ошибках
Выбранный диапазон
     Имя файла C:\=Troig-71\Dawn of Oblivion\2017 - Lest We Forget ‎(M&A Musicart, MACDL980)\Dawn of Oblivion - Lest We Forget.wav
     Пиковый уровень 100.0 %
     Скорость извлечения 4.3 X
     Качество диапазона 100.0 %
     CRC теста BAC32817
     CRC копии BAC32817
     Копирование... OK
Ошибок не произошло
AccurateRip: сводка
Трек  1  отсутствует в базе данных
Трек  2  отсутствует в базе данных
Трек  3  отсутствует в базе данных
Трек  4  отсутствует в базе данных
Трек  5  отсутствует в базе данных
Трек  6  отсутствует в базе данных
Трек  7  отсутствует в базе данных
Трек  8  отсутствует в базе данных
Ни одного трека нет в базе AccurateRip
Конец отчёта
---- CUETools DB Plugin V2.1.6
[CTDB TOCID: UsXxwYZJERqdBG6DFfFndSoO9g8-] disk not present in database
Submit result: UsXxwYZJERqdBG6DFfFndSoO9g8- has been uploaded
==== Контрольная сумма отчёта 1A96B15144B9C6BCAD7E7C1A3AF0A7A334977B605EC3124919776FB04408DB6C ====
Код:
REM GENRE "Gothic Rock"
REM DATE 2017
REM DISCID 5807D408
REM COMMENT "ExactAudioCopy v1.5"
PERFORMER "Dawn of Oblivion"
TITLE "Lest We Forget"
REM COMPOSER ""
FILE "Dawn of Oblivion - Lest We Forget.flac" WAVE
  TRACK 01 AUDIO
    TITLE "Asphyxiate II"
    PERFORMER "Dawn of Oblivion"
    REM COMPOSER ""
    INDEX 01 00:00:00
  TRACK 02 AUDIO
    TITLE "Soulmate"
    PERFORMER "Dawn of Oblivion"
    REM COMPOSER ""
    INDEX 00 04:25:74
    INDEX 01 04:28:00
  TRACK 03 AUDIO
    TITLE "Search For Equilibrium"
    PERFORMER "Dawn of Oblivion"
    REM COMPOSER ""
    INDEX 00 08:08:43
    INDEX 01 08:10:43
  TRACK 04 AUDIO
    TITLE "Acid Sea"
    PERFORMER "Dawn of Oblivion"
    REM COMPOSER ""
    INDEX 00 12:37:42
    INDEX 01 12:39:42
  TRACK 05 AUDIO
    TITLE "Schizophrenia"
    PERFORMER "Dawn of Oblivion"
    REM COMPOSER ""
    INDEX 00 18:38:23
    INDEX 01 18:40:23
  TRACK 06 AUDIO
    TITLE "Baphomet"
    PERFORMER "Dawn of Oblivion"
    REM COMPOSER ""
    INDEX 00 21:47:23
    INDEX 01 21:49:23
  TRACK 07 AUDIO
    TITLE "Anubis (Radio edit)"
    PERFORMER "Dawn of Oblivion"
    REM COMPOSER ""
    INDEX 00 26:19:50
    INDEX 01 26:21:50
  TRACK 08 AUDIO
    TITLE "Walpurgis Night"
    PERFORMER "Dawn of Oblivion"
    REM COMPOSER ""
    INDEX 00 30:33:52
    INDEX 01 30:35:52
Правила, инструкции, FAQ!!!
Торрент  Добавлен [03 май 2020, 17:08] Скачать торрент Магнет ссылка
Скачать торрент
[ Размер 20.56 КБ / Просмотров 4 ]

Статус
Проверен 
 
Размер  2.34 ГБ
Приватный: Нет (DHT включён)
.torrent скачан  0
 


     Отправить личное сообщение
   
Страница 1 из 1
Показать сообщения за:  Поле сортировки  
Начать новую тему Ответить на тему


Сейчас этот форум просматривают: нет зарегистрированных пользователей и гости: 0


Вы не можете начинать темы
Вы не можете отвечать на сообщения
Вы не можете редактировать свои сообщения
Вы не можете удалять свои сообщения
Вы не можете добавлять вложения

Перейти:  
cron
cron