Начать новую тему Ответить на тему
Статистика раздачи
Размер: 300.09 МБ | Добавлен: 16 мар 2014, 00:20 | Скачали: 0
Сидеров: 1  [0 байт/сек]    Личеров: 30  [0 байт/сек]
Пред. тема | След. тема 

Автор
Сообщение

СообщениеДобавлено: 16 мар 2014, 00:20 

Ответить с цитатой 

Gordon Giltrap - Visionary (1976) Reissue 2013

Жанр: Progressive Rock
Страна: UK
Страна-производитель диска: UK
Год издания диска: 1976/2013
Label: Esoteric Recordings
Catalog#: ECLEC 2400
Аудио кодек: FLAC (tracks+.cue)
Битрейт аудио: lossless
Продолжительность: 01:02:43
Источник (релизер): Lies/markav10
Треклист:
01. Awakening (3:02)
02. Robes and Crowns (1:24)
03. From the Four Winds (3:30)
04. Lucifer's Cage (4:07)
05. Revelation (3:43)
06. The Price of Experience (2:22)
07. The Dance of Albion (1:57)
08. The Tyger (2:00)
09. The Echoing Green (2:01)
10. London (3:02)
11. Night (3:56)
Bonus tracks
12. Concerto - Movement One (4:31)
13. Concerto - Movement Two (4:41)
14. Concerto - Movement Three (3:58)
15. On Wings of Hope (3:10)
16. Visionary (Original version) (15:18)

"Visionary" - поворотный пункт в музыкальной карьере безмерно одаренного гитариста. Будучи закоренелым сторонником акустического звучания, Гордон всегда придерживался этой условно-консервативной манеры игры (если не считать короткого отрезка времени, проведенного в составе фолк-фьюжн группы Accolade). И так продолжалось до середины семидесятых, точнее, до осени 1975 г., ставшей для мистера Гилтрэпа моментом истины. Маэстро вдруг ясно осознал, что прежних средств в задуманной им работе вряд ли достанет. Тема требовала новых подходов - как композиционных, так и инструментальных. Возникла необходимость в помощниках; и они нашлись. В единомышленники Гордон позвал довольно опытных артистов - органиста/аранжировщика Рода Эдвардса, басиста Джона Джи Перри (Caravan, Quantum Jump, Aviator, соло) и ударника Саймона Филлипса. Симфоническое наполнение доверили камерному ансамблю под управлением Джорджа Хэймера. В столь замечательном окружении можно было приниматься за воплощение мечты, чем Гилтрэп не преминул воспользоваться.
Сквозная концепция "Visionary" - авторский взгляд на творчество Уильяма Блейка (1757—1827) - известного английского поэта и художника, натуры поистине ренессансной, чье духовно-эстетическое наследие, полное мистических озарений, продолжает притягивать к себе взоры пытливых исследователей. Логично было бы предположить, что основу альбома составят стихи самого Блейка. Но Гордон намеренно отказался от текстовой составляющей. Это его внутреннее, не обремененное словами видение тех процессов, о которых некогда писал гениальный уроженец английской столицы. В структуре треков мастермайнд проекта соединил сразу несколько стилевых приемов - средневековые барочные мотивы, фольклорную мелодику и полифонический арт-роковый драйв. В большинстве случаев Гилтрэп остается верен акустике. Его изысканные светло-минорные арпеджио удачно оттеняются оркестровыми мазками и воздушными клавишными. Местами этот виртуоз-традиционалист, все ж таки, прибегает к использованию электрической разновидности инструмента (как, например, в "Lucifer's Cage"), и тогда в мир нисходит Его Величество Рок...

Sergei Uvaroff
Состав:
Gordon Giltrap - guitars (Fylde 12 string acoustic, John Bailey 6 string acoustic, double neck 6 and 12 string electric)
Rod Edwards - keyboards
John G Perry - bass
Simon Phillips - drums
R.W.Hudson, Henry Lowther - trumpet
Chris Pyne - trombone
Chris Mercer - alto and tenor sax
Jeff Daly - baritone sax
Tony Carr, Roger Hand - percussion
Shirlie Roden - vocals

Код:
Код:
Exact Audio Copy V1.0 beta 2 from 29. April 2011

EAC extraction logfile from 7. November 2013, 21:21

Gordon Giltrap / Visionary

Used drive  : HL-DT-STDVD-RAM GH22LP20   Adapter: 0  ID: 0

Read mode               : Secure
Utilize accurate stream : Yes
Defeat audio cache      : Yes
Make use of C2 pointers : No

Read offset correction                      : 102
Overread into Lead-In and Lead-Out          : No
Fill up missing offset samples with silence : Yes
Delete leading and trailing silent blocks   : No
Null samples used in CRC calculations       : Yes
Used interface                              : Installed external ASPI interface
Gap handling                                : Appended to previous track

Used output format              : User Defined Encoder
Selected bitrate                : 256 kBit/s
Quality                         : High
Add ID3 tag                     : No
Command line compressor         : C:\Program Files\Exact Audio Copy\Flac\FLAC.EXE
Additional command line options : -8 -V -T "ARTIST=%artist%" -T "TITLE=%title%" -T "ALBUM=%albumtitle%" -T "DATE=%year%" -T "TRACKNUMBER=%tracknr%" -T "TOTALTRACKS=%numtracks%" -T "GENRE=%genre%" -T "ALBUMARTIST=%albumartist%" -T "ALBUM ARTIST=%albumartist%

TOC of the extracted CD

     Track |   Start  |  Length  | Start sector | End sector
    ---------------------------------------------------------
        1  |  0:00.00 |  3:01.56 |         0    |    13630
        2  |  3:01.56 |  1:23.62 |     13631    |    19917
        3  |  4:25.43 |  3:30.35 |     19918    |    35702
        4  |  7:56.03 |  4:06.46 |     35703    |    54198
        5  | 12:02.49 |  3:43.32 |     54199    |    70955
        6  | 15:46.06 |  2:22.37 |     70956    |    81642
        7  | 18:08.43 |  1:57.10 |     81643    |    90427
        8  | 20:05.53 |  2:00.32 |     90428    |    99459
        9  | 22:06.10 |  2:01.13 |     99460    |   108547
       10  | 24:07.23 |  3:01.40 |    108548    |   122162
       11  | 27:08.63 |  3:56.03 |    122163    |   139865
       12  | 31:04.66 |  4:31.12 |    139866    |   160202
       13  | 35:36.03 |  4:41.37 |    160203    |   181314
       14  | 40:17.40 |  3:57.74 |    181315    |   199163
       15  | 44:15.39 |  3:09.56 |    199164    |   213394
       16  | 47:25.20 | 15:18.16 |    213395    |   282260

Track  1

     Filename I:\Torrents 2\Gordon Giltrap - Visionary (1976) [FLAC] {Esoteric 2013}\01 - Awakening.wav

     Pre-gap length  0:00:02.00

     Peak level 96.3 %
     Extraction speed 1.5 X
     Track quality 100.0 %
     Test CRC 2D641C5E
     Copy CRC 2D641C5E
     Accurately ripped (confidence 1)  [04182091]  (AR v2)
     Copy OK

Track  2

     Filename I:\Torrents 2\Gordon Giltrap - Visionary (1976) [FLAC] {Esoteric 2013}\02 - Robes and Crowns.wav

     Pre-gap length  0:00:00.01

     Peak level 98.8 %
     Extraction speed 1.3 X
     Track quality 100.0 %
     Test CRC 36D03400
     Copy CRC 36D03400
     Accurately ripped (confidence 1)  [B2301672]  (AR v2)
     Copy OK

Track  3

     Filename I:\Torrents 2\Gordon Giltrap - Visionary (1976) [FLAC] {Esoteric 2013}\03 - From the Four Winds.wav

     Pre-gap length  0:00:01.68

     Peak level 98.6 %
     Extraction speed 1.6 X
     Track quality 99.9 %
     Test CRC E464A032
     Copy CRC E464A032
     Accurately ripped (confidence 1)  [3E301B02]  (AR v2)
     Copy OK

Track  4

     Filename I:\Torrents 2\Gordon Giltrap - Visionary (1976) [FLAC] {Esoteric 2013}\04 - Lucifer's Cage.wav

     Pre-gap length  0:00:01.60

     Peak level 98.8 %
     Extraction speed 2.0 X
     Track quality 100.0 %
     Test CRC 3747E143
     Copy CRC 3747E143
     Accurately ripped (confidence 1)  [21D95BED]  (AR v2)
     Copy OK

Track  5

     Filename I:\Torrents 2\Gordon Giltrap - Visionary (1976) [FLAC] {Esoteric 2013}\05 - Revelation.wav

     Peak level 98.8 %
     Extraction speed 1.8 X
     Track quality 99.9 %
     Test CRC 6584FC45
     Copy CRC 6584FC45
     Accurately ripped (confidence 1)  [F06A3A91]  (AR v2)
     Copy OK

Track  6

     Filename I:\Torrents 2\Gordon Giltrap - Visionary (1976) [FLAC] {Esoteric 2013}\06 - The Price of Experience.wav

     Pre-gap length  0:00:01.61

     Peak level 98.8 %
     Extraction speed 2.0 X
     Track quality 100.0 %
     Test CRC C7238CB4
     Copy CRC C7238CB4
     Accurately ripped (confidence 1)  [DE928706]  (AR v2)
     Copy OK

Track  7

     Filename I:\Torrents 2\Gordon Giltrap - Visionary (1976) [FLAC] {Esoteric 2013}\07 - The Dance of Albion.wav

     Pre-gap length  0:00:01.62

     Peak level 52.8 %
     Extraction speed 2.0 X
     Track quality 100.0 %
     Test CRC 599EE296
     Copy CRC 599EE296
     Accurately ripped (confidence 1)  [FE43E39B]  (AR v2)
     Copy OK

Track  8

     Filename I:\Torrents 2\Gordon Giltrap - Visionary (1976) [FLAC] {Esoteric 2013}\08 - The Tyger.wav

     Pre-gap length  0:00:01.37

     Peak level 98.8 %
     Extraction speed 2.1 X
     Track quality 100.0 %
     Test CRC F8680CFC
     Copy CRC F8680CFC
     Accurately ripped (confidence 1)  [3C505D41]  (AR v2)
     Copy OK

Track  9

     Filename I:\Torrents 2\Gordon Giltrap - Visionary (1976) [FLAC] {Esoteric 2013}\09 - The Echoing Green.wav

     Pre-gap length  0:00:01.61

     Peak level 48.7 %
     Extraction speed 1.7 X
     Track quality 99.9 %
     Test CRC C21698F6
     Copy CRC C21698F6
     Accurately ripped (confidence 1)  [C6634D96]  (AR v2)
     Copy OK

Track 10

     Filename I:\Torrents 2\Gordon Giltrap - Visionary (1976) [FLAC] {Esoteric 2013}\10 - London.wav

     Pre-gap length  0:00:01.60

     Peak level 70.5 %
     Extraction speed 2.4 X
     Track quality 100.0 %
     Test CRC F76A947B
     Copy CRC F76A947B
     Accurately ripped (confidence 1)  [CD6A30E0]  (AR v2)
     Copy OK

Track 11

     Filename I:\Torrents 2\Gordon Giltrap - Visionary (1976) [FLAC] {Esoteric 2013}\11 - Night.wav

     Pre-gap length  0:00:01.54

     Peak level 96.0 %
     Extraction speed 2.3 X
     Track quality 99.9 %
     Test CRC 56021B4E
     Copy CRC 56021B4E
     Accurately ripped (confidence 1)  [1EB49069]  (AR v2)
     Copy OK

Track 12

     Filename I:\Torrents 2\Gordon Giltrap - Visionary (1976) [FLAC] {Esoteric 2013}\12 - Concerto - Movement One.wav

     Pre-gap length  0:00:04.31

     Peak level 51.0 %
     Extraction speed 2.7 X
     Track quality 100.0 %
     Test CRC CCFFC6CC
     Copy CRC CCFFC6CC
     Accurately ripped (confidence 1)  [D8EAFBB8]  (AR v2)
     Copy OK

Track 13

     Filename I:\Torrents 2\Gordon Giltrap - Visionary (1976) [FLAC] {Esoteric 2013}\13 - Concerto - Movement Two.wav

     Pre-gap length  0:00:01.60

     Peak level 98.8 %
     Extraction speed 2.5 X
     Track quality 99.9 %
     Test CRC DA2307D3
     Copy CRC DA2307D3
     Accurately ripped (confidence 1)  [56A50669]  (AR v2)
     Copy OK

Track 14

     Filename I:\Torrents 2\Gordon Giltrap - Visionary (1976) [FLAC] {Esoteric 2013}\14 - Concerto - Movement Three.wav

     Pre-gap length  0:00:01.52

     Peak level 56.9 %
     Extraction speed 2.9 X
     Track quality 100.0 %
     Test CRC A9832A87
     Copy CRC A9832A87
     Accurately ripped (confidence 1)  [9C404283]  (AR v2)
     Copy OK

Track 15

     Filename I:\Torrents 2\Gordon Giltrap - Visionary (1976) [FLAC] {Esoteric 2013}\15 - On Wings of Hope.wav

     Pre-gap length  0:00:02.03

     Peak level 94.0 %
     Extraction speed 2.9 X
     Track quality 100.0 %
     Test CRC E74E4C59
     Copy CRC E74E4C59
     Accurately ripped (confidence 1)  [344B2C82]  (AR v2)
     Copy OK

Track 16

     Filename I:\Torrents 2\Gordon Giltrap - Visionary (1976) [FLAC] {Esoteric 2013}\16 - Visionary (Original version).wav

     Peak level 60.3 %
     Extraction speed 3.6 X
     Track quality 100.0 %
     Test CRC F5109F06
     Copy CRC F5109F06
     Accurately ripped (confidence 1)  [1B888E39]  (AR v2)
     Copy OK

All tracks accurately ripped

No errors occurred

End of status report

==== Log checksum 76FD2039F07EB6BD142857D649F2DBA1D967E4B1687AF29207B330F72D5E4CD0 ====
Код:
Код:
-----------------------

DON'T MODIFY THIS FILE

-----------------------

PERFORMER: auCDtect Task Manager, ver. 1.5.1RC4 build 1.5.1.5
Copyright (c) 2008-2010 y-soft. All rights reserved
http:/y-soft.org

ANALYZER: auCDtect: CD records authenticity detector, version 0.8.2
Copyright (c) 2004 Oleg Berngardt. All rights reserved.
Copyright (c) 2004 Alexander Djourik. All rights reserved.

FILE: 16 - Visionary (Original version).flac
  Size: 85593691 Hash: C81267712B3ED8A4066C68A457D8D133 Accuracy: -m0
  Conclusion: CDDA 100%
  Signature: 392076D565E61D3E8A505146B7DB924BE9C1FDE7
FILE: 15 - On Wings of Hope.flac
  Size: 21644458 Hash: 57613703210FEB8F1AEF664940420CB9 Accuracy: -m0
  Conclusion: CDDA 100%
  Signature: B1F899CB200EA57079F65EBFFA362B04FD0B65B9
FILE: 14 - Concerto - Movement Three.flac
  Size: 17161659 Hash: 0AB947297A711EA26890DAA7C8579E4A Accuracy: -m0
  Conclusion: CDDA 100%
  Signature: FC83E83FB98CA55F148382073A7CBC67AB12153B
FILE: 13 - Concerto - Movement Two.flac
  Size: 16680431 Hash: 867CC997C050BD29ABF31C4516BCB7B9 Accuracy: -m0
  Conclusion: CDDA 99%
  Signature: 68A37021C90689612B0FBC43A87DB6CF0B34031C
FILE: 12 - Concerto - Movement One.flac
  Size: 17790358 Hash: C324CAD19161D88B5FB4B20E56EAAD62 Accuracy: -m0
  Conclusion: CDDA 100%
  Signature: F8FF954FEA76F7677C62B219E1315555594706A8
FILE: 11 - Night.flac
  Size: 21061853 Hash: 15E14D983E734A4B34864517B6C53B46 Accuracy: -m0
  Conclusion: CDDA 99%
  Signature: DB3F9CE8C236FC12091FF0924B182EA9D81FCEBB
FILE: 10 - London.flac
  Size: 12437706 Hash: 05F2EC7679CC7D25F66C78A68C50FE78 Accuracy: -m0
  Conclusion: CDDA 100%
  Signature: E3E910AF97546CD2C84D072476B0601661CC68B2
FILE: 09 - The Echoing Green.flac
  Size: 7842047 Hash: 87AE647432F9EA32AC26511E22BE9B72 Accuracy: -m0
  Conclusion: CDDA 100%
  Signature: 3D3DDC78C7D226FDBB99799BE29DF0D1FBF4F718
FILE: 08 - The Tyger.flac
  Size: 11011487 Hash: FC7D02F87F600491C9CCEEDAC7BCB606 Accuracy: -m0
  Conclusion: CDDA 100%
  Signature: B0E0146D919F1D8B66EC76ED0E3686AD7CD0AEDA
FILE: 07 - The Dance of Albion.flac
  Size: 9608459 Hash: EFAACD3999397DB939EED6A80D867765 Accuracy: -m0
  Conclusion: CDDA 100%
  Signature: 6BBA7C2BBB6D13A0CD97674D82E37E5AFF1B76B0
FILE: 06 - The Price of Experience.flac
  Size: 13275720 Hash: 080A32C6034CBFA2DF1B5332C8F0DFF4 Accuracy: -m0
  Conclusion: CDDA 100%
  Signature: FCF09B36B00A0EBB2FF9193AE8CEECEAA81C4CF7
FILE: 05 - Revelation.flac
  Size: 16854717 Hash: B63A6342F5C414370480B68600715EC1 Accuracy: -m0
  Conclusion: CDDA 100%
  Signature: 5715DDCA21CF1884130F3F5BFFFDAB0A5CD3F6FC
FILE: 04 - Lucifer's Cage.flac
  Size: 25052119 Hash: C17796F44C7B44C97D9EBE81204AF1E4 Accuracy: -m0
  Conclusion: CDDA 100%
  Signature: 94AA350C8F5274BD745574714D605BBBEA4514E6
FILE: 03 - From the Four Winds.flac
  Size: 15884725 Hash: 6726CE35678339CFCC7991AD92772A57 Accuracy: -m0
  Conclusion: CDDA 100%
  Signature: C3B2304473A10C12F9F485230441757766247821
FILE: 02 - Robes and Crowns.flac
  Size: 7329635 Hash: 41FDE43BAFAA06D38038AAB3C5782BBB Accuracy: -m0
  Conclusion: CDDA 100%
  Signature: 3C8441D1233966FC87D298D200E12D016F6B33CF
FILE: 01 - Awakening.flac
  Size: 15060965 Hash: 061462E4977354C4E874537EB61AD603 Accuracy: -m0
  Conclusion: CDDA 100%
  Signature: CA138375925428812FB6150116832CE07D3FC59E
Правила, инструкции, FAQ!!!
Торрент  Добавлен [16 мар 2014, 00:20] Скачать торрент Магнет ссылка
Скачать торрент
[ Размер 13.66 КБ / Просмотров 40 ]

Статус  
 
Размер  300.09 МБ
Приватный: Нет (DHT включён)
.torrent скачан  0
 


     Отправить личное сообщение
   
Страница 1 из 1
Показать сообщения за:  Поле сортировки  
Начать новую тему Ответить на тему


Сейчас этот форум просматривают: нет зарегистрированных пользователей и гости: 0


Вы не можете начинать темы
Вы не можете отвечать на сообщения
Вы не можете редактировать свои сообщения
Вы не можете удалять свои сообщения
Вы не можете добавлять вложения

Перейти:  
cron
cron