Начать новую тему Ответить на тему
Статистика раздачи
Размер: 251.66 МБ | Добавлен: 16 мар 2014, 00:02 | Скачали: 0
Сидеров: 1  [0 байт/сек]    Личеров: 0  [0 байт/сек]
Пред. тема | След. тема 

Автор
Сообщение

СообщениеДобавлено: 16 мар 2014, 00:02 

Ответить с цитатой 

Gong - Camembert Electrique (1971) Limited Edition

Год:
1971
Жанр: Progressive Rock, Jazz-Fuzion
Продолжительность: 00:39:42
Год издания диска: 1999
Номер по каталогу: GGCD 002
Источник (релизер): shinin'on
Наличие сканов в содержимом раздачи: Да

Кодек: FLAC
Тип рипа: image+.cue
Битрейт: Lossless
Треклист:
01. Radio Gnome 00:00:27
02. You Can't Kill Me 00:06:18
03. I've Bin Stone Before 00:02:36
04. Mister Long Shanks: O Mother I Am Your Fantasy 00:05:57
05. Dynamite: I Am Your Animal 00:04:32
06. Wet Cheese Delirium 00:00:31
07. Squeezing Sponges Over Policemen's Heads 00:00:12
08. Fohat Digs Holes In Space 00:06:22
09. Tried So Hard 00:04:38
10. Tropical Fish: Selene 00:07:36
11. Gnome The Second 00:00:27
Код:
Код:
Exact Audio Copy V0.99 prebeta 5 from 4. May 2009

Отчёт EAC об извлечении, выполненном 12. июля 2013, 17:54

Gong / Camembert Electrique

Дисковод: MATSHITADVD-RAM UJ890AS Adapter: 1 ID: 0

Режим чтения : Достоверность
Использование точного потока : Да
Отключение кэша аудио : Нет
Использование указателей C2 : Нет

Коррекция смещения при чтении : 102
Способность читать области Lead-in и Lead-out : Нет
Заполнение пропущенных сэмплов тишиной : Да
Удаление блоков с тишиной в начале и конце : Нет
При вычислениях CRC использовались нулевые сэмплы : Да
Интерфейс : Встроенный Win32-интерфейс для Win NT/2000

Выходной формат : Пользовательский кодировщик
Выбранный битрейт : 1024 kBit/s
Качество : Высокий
Добавление ID3-тэга : Нет
Утилита сжатия : C:Program Files (x86)Exact Audio CopyFLACFLAC.EXE
Дополнительные параметры : -T "DATE=%y" -T "GENRE=%m" -8 -V %s
Смещение при сжатии : 0

TOC извлечённого CD

 Трек | Старт | Длительность | Начальный сектор | Конечный сектор
 ---------------------------------------------------------------------
 1 | 0:00.00 | 0:27.52 | 0 | 2076
 2 | 0:27.52 | 6:18.38 | 2077 | 30464
 3 | 6:46.15 | 2:36.35 | 30465 | 42199
 4 | 9:22.50 | 5:57.55 | 42200 | 69029
 5 | 15:20.30 | 4:32.67 | 69030 | 89496
 6 | 19:53.22 | 0:31.53 | 89497 | 91874
 7 | 20:25.00 | 0:12.60 | 91875 | 92834
 8 | 20:37.60 | 6:22.42 | 92835 | 121526
 9 | 27:00.27 | 4:38.60 | 121527 | 142436
 10 | 31:39.12 | 7:36.33 | 142437 | 176669
 11 | 39:15.45 | 0:27.10 | 176670 | 178704

Характеристики диапазона извлечения и сообщения об ошибках

Выбранный диапазон

 Имя файла D:My DiscGong - Camembert Electrique.wav

 Пиковый уровень 89.0 %
 Качество диапазона 100.0 %
 CRC копии 16E5A062
 Копирование... OK

Ошибок не произошло

AccurateRip: сводка

Трек 1 точное извлечение (доверие 3) [6365D8C2]
Трек 2 точное извлечение (доверие 3) [C22AA955]
Трек 3 точное извлечение (доверие 3) [5CC4C49D]
Трек 4 точное извлечение (доверие 3) [5FFA902C]
Трек 5 точное извлечение (доверие 3) [BCDDBB3E]
Трек 6 точное извлечение (доверие 3) [5D79294A]
Трек 7 точное извлечение (доверие 3) [33B64D4D]
Трек 8 точное извлечение (доверие 3) [A4213F73]
Трек 9 точное извлечение (доверие 3) [62737D51]
Трек 10 точное извлечение (доверие 3) [8B4124DA]
Трек 11 точное извлечение (доверие 3) [9F47D2B7]

Все треки извлечены точно

Конец отчёта
Код:
Код:
DON'T MODIFY THIS FILE

-----------------------

PERFORMER: auCDtect Task Manager, ver. 1.6.0 RC1 build 1.6.0.1
Copyright (c) 2008-2010 y-soft. All rights reserved
http:/y-soft.org

ANALYZER: auCDtect: CD records authenticity detector, version 0.8.2
Copyright (c) 2004 Oleg Berngardt. All rights reserved.
Copyright (c) 2004 Alexander Djourik. All rights reserved.

FILE: Gong - Camembert Electrique.flac
  Size: 250305293 Hash: 3F682022FD9BC4A79AEB5DC5DF6661F2 Accuracy: -m0
  Conclusion: CDDA 100%
  Signature: 1AE0FA6F58E4FB3FCCE29EF9B5E9BF4883291ADE

Отключение кэша аудио : Нет
Правила, инструкции, FAQ!!!
Торрент  Добавлен [16 мар 2014, 00:02] Скачать торрент Магнет ссылка
Скачать торрент
[ Размер 20.83 КБ / Просмотров 48 ]

Статус  
 
Размер  251.66 МБ
Приватный: Нет (DHT включён)
.torrent скачан  0
 


     Отправить личное сообщение
   
Страница 1 из 1
Показать сообщения за:  Поле сортировки  
Начать новую тему Ответить на тему


Сейчас этот форум просматривают: нет зарегистрированных пользователей и гости: 0


Вы не можете начинать темы
Вы не можете отвечать на сообщения
Вы не можете редактировать свои сообщения
Вы не можете удалять свои сообщения
Вы не можете добавлять вложения

Перейти:  
cron