Начать новую тему Ответить на тему
Статистика раздачи
Размер: 209.95 МБ | Добавлен: 16 мар 2014, 00:07 | Скачали: 0
Сидеров: 1  [0 байт/сек]    Личеров: 0  [0 байт/сек]
Пред. тема | След. тема 

Автор
Сообщение

СообщениеДобавлено: 16 мар 2014, 00:07 

Ответить с цитатой 

Gilgamesh - Gilgamesh (1975) Remastered /2011, Esoteric Recordings/

Жанр: Canterbury scene/Jazz-Rock/Prog rock
Год: 1975
Страна: UK
Remastered: 2011/UK
Label: Esoteric Recordings
Catalog#: ECLEC 2242
Аудио кодек: FLAC
Тип рипа: image+.cue
Битрейт аудио: lossless
Продолжительность: 00:36:54
Источник-релизер: Rajt
Scans: в раздаче
Треклист:
01. (00:10:12)
a) One End More
Written-By – Gowen
b) Phil's Little Dance - For Phil Millers Trousers
Written-By – Gowen
c) Worlds Of Zin
Written-By – Lee
02. Lady And Friend (00:03:40)
Written-By – Gowen, Clyne
03. Notwithstanding (00:04:43)
Written-By – Gowen, Lee, Cook
04 Arriving Twice (01:35:15)
Written-By – Gowen

05. (00:06:37)
a) Island Of Rhodes
Written-By – Gowen
b) Paper Boat - For Doris
Written-By – Gowen
c) As If Your Eyes Were Open
Written-By – Gowen
06. For Absent Friends (00:01:09)
Written-By – Lee
07. (00:07:44)
a) We Are All
Written-By – Gowen
b) Someone Else's Food
Written-By – Gowen
c) Jamo And Other Boating Disasters - From The Holiday Of The Same Name
Arranged By (Vocal Arrangements) – Dave Stewart
Arranged By (Vocal Arrangements), Written-by – Alan Gowen
08. Just C (00:00:44)
Written-By – Gowen

Musicians:
- Alan Gowen - piano, electric piano, synthesizer, clavinet, mellotron
- Phil Lee - electric, acoustic, 12-strings & classical guitars
- Jeff Clyne - bass, double bass
- Michael Travis - drums, percussion


Английская группа прогрессивного рока, игравшая в поджанре «кентербери». Лидером группы являлся Алан Гоуэн. Костяк группы составили Гоуэн и барабанщик Майк Трэвис, а помимо них в оригинальный состав вошли Рик Моркомбе (гитара), Джефф Кляйн (бас-гитара) и Алан Уэйкман (саксофон). До окончательной стабилизации «экипажа» в группе побывал и Ричард Синклер, отметившийся на дебютном диске Кляйна в январе 1973 года. Впоследствии состав принял форму квартета: Гоуэн, Трэвис, Фил Ли (гитарист, рекомендованный Трэвисом) и Нил Мюррэй на позиции басиста. В течение 1973 года группа регулярно участвовала в концертах, из которых особо стоит выделить два выступления, где хэдлайнерами были наши герои и Hatfield And The North: образовался эдакий «двойной квартет». Здесь Гоуэн исполнил 40-минутную композицию. В конце 1973 года Мюррэй был заменён Стивом Куком. Концерты стали уже достаточно редки, несмотря даже на серию радиосессий для джазовых программ BBC. Благодаря одной из них квартет перестал быть квартетом: Gilgamesh доукомплектовалась вторым клавишником - Питером Лемером. В 1975 году группа наконец подписала контракт с дочерним лейблом Virgin - Caroline Records - и записала дебютный альбом на Virgin’овских Manor Studios с Дэйвом Стюартом (из Egg и Hatfield And The North) в качестве сопродюсера...
Код:
Код:
Exact Audio Copy V0.99 prebeta 4 from 23. January 2008

Отчёт EAC об извлечении, выполненном 8. февраля 2011, 22:51

GILGAMESH / Gilgamesh

Дисковод: TSSTcorpCD/DVDW SH-S183A   Adapter: 4  ID: 1

Режим чтения                 : Достоверность
Использование точного потока : Да
Отключение кэша аудио        : Да
Использование указателей C2  : Нет

Коррекция смещения при чтении                     : 6
Способность читать области Lead-in и Lead-out     : Нет
Заполнение пропущенных сэмплов тишиной            : Да
Удаление блоков с тишиной в начале и конце        : Нет
При вычислениях CRC использовались нулевые сэмплы : Да
Интерфейс                                         : Установленный внешний ASPI-интерфейс

Выходной формат : Внутренние WAV-операции
Формат сэмплов  : 44.100 Гц; 16 бит; стерео

TOC извлечённого CD

     Трек |   Старт  | Длительность | Начальный сектор | Конечный сектор
    ---------------------------------------------------------------------
       1  |  0:00.00 |   10:21.69   |           0      |      46643
       2  | 10:21.69 |    3:43.33   |       46644      |      63401
       3  | 14:05.27 |    4:46.10   |       63402      |      84861
       4  | 18:51.37 |    1:38.02   |       84862      |      92213
       5  | 20:29.39 |    6:40.03   |       92214      |     122216
       6  | 27:09.42 |    1:12.65   |      122217      |     127681
       7  | 28:22.32 |    7:47.11   |      127682      |     162717
       8  | 36:09.43 |    0:44.62   |      162718      |     166079

Характеристики диапазона извлечения и сообщения об ошибках

Выбранный диапазон

     Имя файла D:\TEMP\GILGAMESH - 1975 - Gilgamesh.wav

     Пиковый уровень 98.8 %
     Качество диапазона 100.0 %
     CRC теста 8D87E700
     CRC копии 8D87E700
     Копирование... OK

Ошибок не произошло

AccurateRip: сводка

Трек  1  нет в базе данных
Трек  2  нет в базе данных
Трек  3  нет в базе данных
Трек  4  нет в базе данных
Трек  5  нет в базе данных
Трек  6  нет в базе данных
Трек  7  нет в базе данных
Трек  8  нет в базе данных

Ни одного трека нет в базе AccurateRip

Конец отчёта
Код:
Код:
-----------------------

DON'T MODIFY THIS FILE

-----------------------

PERFORMER: auCDtect Task Manager, ver. 1.6.0 RC1 build 1.6.0.1
Copyright (c) 2008-2010 y-soft. All rights reserved
http:/y-soft.org

ANALYZER: auCDtect: CD records authenticity detector, version 0.8.2
Copyright (c) 2004 Oleg Berngardt. All rights reserved.
Copyright (c) 2004 Alexander Djourik. All rights reserved.

FILE: GILGAMESH - 1975 - Gilgamesh.flac
  Size: 198416370 Hash: 3CB2EADC557E50A354903259D6C6BD43 Accuracy: -m0
  Conclusion: CDDA 100%
  Signature: 97B5AA200DB41759A51A435BBEC63817E1592987
Код:
Код:
REM GENRE "Progressive Rock/Canterbury Scene"
REM DATE 1975
REM DISCID 5108A608
REM COMMENT "ExactAudioCopy v0.99pb4"
PERFORMER "GILGAMESH"
TITLE "Gilgamesh"
FILE "GILGAMESH - 1975 - Gilgamesh.wav" WAVE
  TRACK 01 AUDIO
    TITLE "a) One End More; b) Phil's Little Dance - For Phil Miller's Trousers; c) Worlds Of Zin"
    PERFORMER "GILGAMESH"
    INDEX 01 00:00:00
  TRACK 02 AUDIO
    TITLE "Lady And Friend"
    PERFORMER "GILGAMESH"
    INDEX 00 10:19:09
    INDEX 01 10:21:69
  TRACK 03 AUDIO
    TITLE "Notwithstanding"
    PERFORMER "GILGAMESH"
    INDEX 00 14:02:40
    INDEX 01 14:05:27
  TRACK 04 AUDIO
    TITLE "Arriving Twice"
    PERFORMER "GILGAMESH"
    INDEX 00 18:48:56
    INDEX 01 18:51:37
  TRACK 05 AUDIO
    TITLE "a) Island Of Rhodes; b) Paper Boat For Doris; c) As If Your Eyes Were Open"
    PERFORMER "GILGAMESH"
    INDEX 00 20:26:48
    INDEX 01 20:29:39
  TRACK 06 AUDIO
    TITLE "For Absent Friends"
    PERFORMER "GILGAMESH"
    INDEX 00 27:06:47
    INDEX 01 27:09:42
  TRACK 07 AUDIO
    TITLE "a) We Are All; b) Someone Else's Food; c) Jamo And Other Boating Disasters (From The Holiday Of The Same Name)"
    PERFORMER "GILGAMESH"
    INDEX 00 28:19:37
    INDEX 01 28:22:32
  TRACK 08 AUDIO
    TITLE "Just C"
    PERFORMER "GILGAMESH"
    INDEX 00 36:06:56
    INDEX 01 36:09:43
Правила, инструкции, FAQ!!!
Торрент  Добавлен [16 мар 2014, 00:07] Скачать торрент Магнет ссылка
Скачать торрент
[ Размер 17.99 КБ / Просмотров 34 ]

Статус  
 
Размер  209.95 МБ
Приватный: Нет (DHT включён)
.torrent скачан  0
 


     Отправить личное сообщение
   
Страница 1 из 1
Показать сообщения за:  Поле сортировки  
Начать новую тему Ответить на тему


Сейчас этот форум просматривают: нет зарегистрированных пользователей и гости: 0


Вы не можете начинать темы
Вы не можете отвечать на сообщения
Вы не можете редактировать свои сообщения
Вы не можете удалять свои сообщения
Вы не можете добавлять вложения

Перейти:  
cron