Начать новую тему Ответить на тему
Статистика раздачи
Размер: 289.17 МБ | Добавлен: 24 ноя 2019, 15:43 | Скачали: 14
Сидеров: 90  [0 байт/сек]    Личеров: 29  [0 байт/сек]
Пред. тема | След. тема 

Автор
Сообщение

СообщениеДобавлено: 24 ноя 2019, 15:43 

Ответить с цитатой 

George Michael / This Is How (We Want You To Get High)
Формат записи/Источник записи: [TR24][OF]
Наличие водяных знаков: Нет
Издание: Single
Год издания/переиздания диска: 2019
Жанр: Pop
Продолжительность: 00:13:40
Наличие сканов в содержимом раздачи: Только обложка альбома
Треклист:
01. This Is How (We Want You To Get High)
02. This Is How (We Want You To Get High) EXPLICIT
03. This Is How (We Want You To Get High) (Extended) EXPLICIT
Контейнер: FLAC (*.flac)
Тип рипа: tracks
Разрядность: 24/96
Формат: PCM
Количество каналов: 2.0
Код:
foobar2000 1.4.8 / Замер динамического диапазона (DR) 1.1.1
Дата отчёта:  2019-11-11 16:03:47
--------------------------------------------------------------------------------
Анализ:   George Michael / This Is How (We Want You To Get High)
--------------------------------------------------------------------------------
DR         Пики         RMS           Продолжительность трека
--------------------------------------------------------------------------------
DR7       -0.70 дБ    -9.63 дБ      4:01 01-This Is How (We Want You To Get High)
DR8       -0.70 дБ   -10.96 дБ      4:00 02-This Is How (We Want You To Get High)
DR8       -0.70 дБ   -10.83 дБ      5:41 03-This Is How (We Want You To Get High) (Extended)
--------------------------------------------------------------------------------
Количество треков: 3
Реальные значения DR: DR7
Частота:   96000 Гц
Каналов:   2
Разрядность:   24
Битрейт:   2925 кбит/с
Кодек:   FLAC
================================================================================


Источник (релизер): qobuz (своя покупка)
Правила, инструкции, FAQ!!!
Торрент  Добавлен [24 ноя 2019, 15:43] Скачать торрент Магнет ссылка
Скачать торрент
[ Размер 12.06 КБ / Просмотров 78 ]

Статус
Проверен 
 
Размер  289.17 МБ
Приватный: Нет (DHT включён)
.torrent скачан  14
 


     Отправить личное сообщение
   
Страница 1 из 1
Показать сообщения за:  Поле сортировки  
Начать новую тему Ответить на тему


Сейчас этот форум просматривают: нет зарегистрированных пользователей и гости: 0


Вы не можете начинать темы
Вы не можете отвечать на сообщения
Вы не можете редактировать свои сообщения
Вы не можете удалять свои сообщения
Вы не можете добавлять вложения

Перейти:  
cron
cron