Начать новую тему Ответить на тему
Статистика раздачи
Размер: 2.13 ГБ | Добавлен: 01 апр 2019, 19:21 | Скачали: 20
Сидеров: 17  [0 байт/сек]    Личеров: 5  [0 байт/сек]
Пред. тема | След. тема 

Автор
Сообщение

СообщениеДобавлено: 01 апр 2019, 19:21 

Ответить с цитатой 

George Michael - Listen Without Prejudice / MTV Unplugged
Формат записи/Источник записи: [TR24][OF]
Наличие водяных знаков: Нет
Издание: Deluxe edition
Год издания/переиздания диска: 1990/2017
Жанр: Pop
Издатель (лейбл): Sony Music Canada
Продолжительность: 03:07:35
Наличие сканов в содержимом раздачи: Только обложка альбома
 
 
01. Praying For Time (Remastered) (4:41)
02. Freedom! '90 (Remastered) (6:31)
03. They Won't Go When I Go (Remastered) (5:07)
04. Something To Save (Remastered) (3:18)
05. Cowboys And Angels (Remastered) (7:15)
06. Waiting For That Day (Remastered) (4:50)
07. Mothers Pride (Remastered) (3:59)
08. Heal The Pain (Remastered) (4:40)
09. Soul Free (Remastered) (5:31)
10. Waiting (Reprise) (Remastered) (2:27)
11. Freedom! '90 (Live) (6:02)
12. Fastlove (Live) (5:12)
13. I Can't Make You Love Me (Live) (5:56)
14. Father Figure (Live) (6:19)
15. You Have Been Loved (Live) (5:55)
16. Everything She Wants (Live) (5:14)
17. The Strangest Thing (Live) (6:00)
18. Older (Live) (5:48)
19. Star People (Live) (6:16)
20. Praying For Time (Live) (5:30)
21. Fantasy (feat. Nile Rodgers) (4:02)
22. Soul Free (Special Radio Edit) (4:26)
23. Freedom! '90 (Back to Reality Mix) (6:17)
24. Freedom! '90 (Back to Reality Mix Edit) (4:08)
25. Fantasy (5:03)
26. Freedom! '90 (Edit) (5:22)
27. Cowboys And Angels (Edit) (4:36)
28. If You Were My Woman (4:07)
29. Too Funky (Single Edit) (3:51)
30. Crazy Man Dance (6:01)
31. Do You Really Want To Know (4:50)
32. Happy (4:09)
33. Too Funky (Extended) (5:40)
34. Too Jazzy (Happy Mix) (5:55)
35. Fantasy '98 (4:32)
36. Heal The Pain (with Paul McCartney) (4:45)
37. Desafinado (with Astrud Gilberto) (3:21)
[/spoiler]
 
By 1990, pop phenomenon-turned-solo megastar George Michael was ready to reveal more of his introspection and social conscience. Listen Without Prejudice is an intimate and beautiful album that employs aching balladry to despair for a conflict-torn world (“Praying for Time”, “Mothers Pride”) and fuses hushed folk with James Brown to mourn lost love (“Waiting for That Day”). Even the gloriously uplifting gospel-dance sound of “Freedom! ’90” houses a cautionary tale about fame’s soul-sapping effects. Leaning largely on his 1996 album Older, the stripped-back MTV Unplugged section of this remastering emphasises what an arrestingly soulful singer

Контейнер: FLAC (*.flac)
Тип рипа: tracks
Разрядность: 24/44,1
Формат: PCM
Количество каналов: 2.0
Код:
foobar2000 1.3.9 / Dynamic Range Meter 1.1.1
log date: 2017-10-20 22:46:51
--------------------------------------------------------------------------------
Analyzed: George Michael / Listen Without Prejudice / MTV Unplugged
--------------------------------------------------------------------------------
DR         Peak         RMS     Duration Track
--------------------------------------------------------------------------------
DR15      -1.17 dB   -19.10 dB      4:41 01-Praying For Time (Remastered)
DR12      -1.58 dB   -16.09 dB      6:31 02-Freedom! '90 (Remastered)
DR12      -4.24 dB   -21.12 dB      5:07 03-They Won't Go When I Go (Remastered)
DR14      -1.41 dB   -19.73 dB      3:18 04-Something To Save (Remastered)
DR14      -2.35 dB   -18.85 dB      7:15 05-Cowboys And Angels (Remastered)
DR12      -0.50 dB   -14.59 dB      4:50 06-Waiting For That Day (Remastered)
DR13      -4.25 dB   -20.53 dB      3:59 07-Mothers Pride (Remastered)
DR14      -0.50 dB   -16.01 dB      4:40 08-Heal The Pain (Remastered)
DR13      -1.20 dB   -15.92 dB      5:31 09-Soul Free (Remastered)
DR13      -2.41 dB   -19.51 dB      2:27 10-Waiting (Reprise) (Remastered)
DR12      -0.57 dB   -14.00 dB      6:02 11-Freedom! '90 (Live)
DR12      -1.03 dB   -14.67 dB      5:12 12-Fastlove (Live)
DR12      -1.63 dB   -17.61 dB      5:56 13-I Can't Make You Love Me (Live)
DR12      -0.75 dB   -15.89 dB      6:19 14-Father Figure (Live)
DR12      -1.63 dB   -16.11 dB      5:55 15-You Have Been Loved (Live)
DR11      -0.65 dB   -14.21 dB      5:14 16-Everything She Wants (Live)
DR13      -0.60 dB   -15.02 dB      6:00 17-The Strangest Thing (Live)
DR12      -0.74 dB   -14.73 dB      5:48 18-Older (Live)
DR12      -0.61 dB   -14.24 dB      6:16 19-Star People (Live)
DR13      -1.52 dB   -17.46 dB      5:30 20-Praying For Time (Live)
DR7       -3.10 dB   -11.69 dB      4:02 21-Fantasy (feat. Nile Rodgers)
DR11      -1.00 dB   -13.57 dB      4:26 22-Soul Free (Special Radio Edit)
DR11      -1.00 dB   -13.38 dB      6:17 23-Freedom! '90 (Back to Reality Mix)
DR11      -1.00 dB   -13.68 dB      4:08 24-Freedom! '90 (Back to Reality Mix Edit)
DR13      -1.00 dB   -14.41 dB      5:03 25-Fantasy
DR9       -1.00 dB   -12.31 dB      5:22 26-Freedom! '90 (Edit)
DR13      -1.00 dB   -16.13 dB      4:36 27-Cowboys And Angels (Edit)
DR9       -1.00 dB   -12.61 dB      4:07 28-If You Were My Woman
DR10      -1.00 dB   -12.29 dB      3:51 29-Too Funky (Single Edit)
DR10      -1.00 dB   -12.93 dB      6:01 30-Crazy Man Dance
DR11      -1.00 dB   -13.00 dB      4:50 31-Do You Really Want To Know
DR11      -1.00 dB   -13.02 dB      4:09 32-Happy
DR10      -1.00 dB   -12.01 dB      5:40 33-Too Funky (Extended)
DR13      -1.00 dB   -15.16 dB      5:55 34-Too Jazzy (Happy Mix)
DR11      -1.00 dB   -12.43 dB      4:32 35-Fantasy '98
DR9       -1.00 dB   -11.77 dB      4:45 36-Heal The Pain (with Paul McCartney)
DR11      -1.00 dB   -13.34 dB      3:21 37-Desafinado (with Astrud Gilberto)
--------------------------------------------------------------------------------
Number of tracks:  37
Official DR value: DR12
Samplerate:        44100 Hz
Channels:          2
Bits per sample:   24
Bitrate:           1661 kbps
Codec:             FLAC
================================================================================
Источник: hdtracks.com[/spoiler]
Правила, инструкции, FAQ!!!
Торрент  Добавлен [01 апр 2019, 19:21] Скачать торрент Магнет ссылка
Скачать торрент
[ Размер 13.58 КБ / Просмотров 65 ]

Статус
Проверен 
 
Размер  2.13 ГБ
Приватный: Нет (DHT включён)
.torrent скачан  20
 


     Отправить личное сообщение
   
Страница 1 из 1
Показать сообщения за:  Поле сортировки  
Начать новую тему Ответить на тему


Сейчас этот форум просматривают: нет зарегистрированных пользователей и гости: 0


Вы не можете начинать темы
Вы не можете отвечать на сообщения
Вы не можете редактировать свои сообщения
Вы не можете удалять свои сообщения
Вы не можете добавлять вложения

Перейти:  
cron
cron