Начать новую тему Ответить на тему
Статистика раздачи
Размер: 1.52 ГБ | Добавлен: 16 мар 2014, 00:15 | Скачали: 3
Сидеров: 4  [0 байт/сек]    Личеров: 0  [0 байт/сек]
Пред. тема | След. тема 

Автор
Сообщение

СообщениеДобавлено: 16 мар 2014, 00:15 

Ответить с цитатой 

Gary Moore - The Platinum Collection (2006)

Год: 2006
Жанр: Rock, Blues-Rock
Продолжительность: 03:47:45
Лейбл: Virgin Records Ltd.
Каталог: 00946 370740 22

Кодек: FLAC (image+.cue + log)
Битрейт: Lossless
#777Трек лист:
01. Parisienne Walkways (3:25)
02. Out In The Fields (feat. Phil Lynott) (4:18)
03. Over The Hills And Far Away (5:23)
04. Empty Rooms (Remix' 1984) (4:19)
05. Friday On My Mind (4:13)
06. After The War (4:21)
07. Wild Frontier (4:16)
08. The Loner (5:55)
09. Shapes Of Things To Come (4:14)
10. Wishing Well (4:07)
11. Don't Take Me For A Loser (4:17)
12. Hold On To Love (4:27)
13. Blood Of Emeralds (8:20)
14. Take A Little Time (4:06)
15. Like Angels (7:31)
16. One Good Reason (3:04)
17. Johnny Boy (3:14)
Продолжительность – 01:19:30
Код:
Код:
Exact Audio Copy V0.99 prebeta 4 from 23. January 2008

EAC extraction logfile from 24. October 2011, 13:23

Gary Moore / The Platinum Collection - CD1

Used drive  : SAMSUNG CDRW/DVD SM-352B   Adapter: 0  ID: 0

Read mode               : Secure
Utilize accurate stream : Yes
Defeat audio cache      : Yes
Make use of C2 pointers : No

Read offset correction                      : 6
Overread into Lead-In and Lead-Out          : No
Fill up missing offset samples with silence : Yes
Delete leading and trailing silent blocks   : No
Null samples used in CRC calculations       : Yes
Used interface                              : Native Win32 interface for Win NT & 2000

Used output format : Internal WAV Routines
Sample format      : 44.100 Hz; 16 Bit; Stereo

TOC of the extracted CD

     Track |   Start  |  Length  | Start sector | End sector
    ---------------------------------------------------------
        1  |  0:00.00 |  3:25.09 |         0    |    15383
        2  |  3:25.09 |  4:18.21 |     15384    |    34754
        3  |  7:43.30 |  5:22.39 |     34755    |    58943
        4  | 13:05.69 |  4:18.57 |     58944    |    78350
        5  | 17:24.51 |  4:12.55 |     78351    |    97305
        6  | 21:37.31 |  4:21.18 |     97306    |   116898
        7  | 25:58.49 |  4:15.54 |    116899    |   136077
        8  | 30:14.28 |  5:54.55 |    136078    |   162682
        9  | 36:09.08 |  4:13.70 |    162683    |   181727
       10  | 40:23.03 |  4:06.47 |    181728    |   200224
       11  | 44:29.50 |  4:16.57 |    200225    |   219481
       12  | 48:46.32 |  4:27.15 |    219482    |   239521
       13  | 53:13.47 |  8:20.18 |    239522    |   277039
       14  | 61:33.65 |  4:06.29 |    277040    |   295518
       15  | 65:40.19 |  7:31.28 |    295519    |   329371
       16  | 73:11.47 |  3:04.19 |    329372    |   343190
       17  | 76:15.66 |  3:14.16 |    343191    |   357756

Range status and errors

Selected range

     Filename E:\Lossless\Gary Moore\Gary Moore - The Platinum Collection - CD1.wav

     Peak level 99.1 %
     Range quality 99.9 %
     Copy CRC C35A56DC
     Copy OK

No errors occurred

End of status report
 
Код:
Код:
-----------------------

DON'T MODIFY THIS FILE

-----------------------

PERFORMER: auCDtect Task Manager, ver. 1.5.1RC6 build 1.5.1.7
Copyright (c) 2008-2010 y-soft. All rights reserved
http:/y-soft.org

ANALYZER: auCDtect: CD records authenticity detector, version 0.8.2
Copyright (c) 2004 Oleg Berngardt. All rights reserved.
Copyright (c) 2004 Alexander Djourik. All rights reserved.

FILE: Gary Moore - The Platinum Collection - CD1.flac
  Size: 572904094 Hash: 980814D9DD36030119E8B2936B10C642 Accuracy: -m8
  Conclusion: CDDA 100%
  Signature: 9E8DC807B65C4947A03FAC245004C6907007345C
#777Трек лист:
01. Still Got The Blues (6:12)
02. Cold Day In Hell (4:26)
03. Oh Pretty Woman (feat. Albert King) (4:26)
04. Story Of The Blues (6:43)
05. Separate Ways (4:54)
06. Since I Met You Baby (feat. BB King) (2:52)
07. I Loved Another Woman (3:06)
08. Woke Up This Morning (3:51)
09. Further On Up The Road (4:07)
10. The Sky Is Crying (4:54)
11. Left Me With The Blues (3:04)
12. Mean Cruel Woman (2:47)
13. The Blues Is Alright (5:45)
14. If You Be My Baby (6:40)
15. Need Your Love So Bad (7:53)
Продолжительность – 01:11:41
Код:
Код:
Exact Audio Copy V0.99 prebeta 4 from 23. January 2008

EAC extraction logfile from 24. October 2011, 14:31

Gary Moore / The Platinum Collection - CD2

Used drive  : SAMSUNG CDRW/DVD SM-352B   Adapter: 0  ID: 0

Read mode               : Secure
Utilize accurate stream : Yes
Defeat audio cache      : Yes
Make use of C2 pointers : No

Read offset correction                      : 6
Overread into Lead-In and Lead-Out          : No
Fill up missing offset samples with silence : Yes
Delete leading and trailing silent blocks   : No
Null samples used in CRC calculations       : Yes
Used interface                              : Native Win32 interface for Win NT & 2000

Used output format : Internal WAV Routines
Sample format      : 44.100 Hz; 16 Bit; Stereo

TOC of the extracted CD

     Track |   Start  |  Length  | Start sector | End sector
    ---------------------------------------------------------
        1  |  0:00.00 |  6:12.35 |         0    |    27934
        2  |  6:12.35 |  4:26.24 |     27935    |    47908
        3  | 10:38.59 |  4:25.68 |     47909    |    67851
        4  | 15:04.52 |  6:42.53 |     67852    |    98054
        5  | 21:47.30 |  4:53.70 |     98055    |   120099
        6  | 26:41.25 |  2:52.19 |    120100    |   133018
        7  | 29:33.44 |  3:06.21 |    133019    |   146989
        8  | 32:39.65 |  3:50.47 |    146990    |   164286
        9  | 36:30.37 |  4:07.21 |    164287    |   182832
       10  | 40:37.58 |  4:54.21 |    182833    |   204903
       11  | 45:32.04 |  3:04.12 |    204904    |   218715
       12  | 48:36.16 |  2:46.56 |    218716    |   231221
       13  | 51:22.72 |  5:45.10 |    231222    |   257106
       14  | 57:08.07 |  6:40.03 |    257107    |   287109
       15  | 63:48.10 |  7:53.06 |    287110    |   322590

Range status and errors

Selected range

     Filename E:\Lossless\Gary Moore\Gary Moore - The Platinum Collection - CD2.wav

     Peak level 99.4 %
     Range quality 99.9 %
     Copy CRC 399D029B
     Copy OK

No errors occurred

End of status report
 
Код:
Код:
-----------------------

DON'T MODIFY THIS FILE

-----------------------

PERFORMER: auCDtect Task Manager, ver. 1.5.1RC6 build 1.5.1.7
Copyright (c) 2008-2010 y-soft. All rights reserved
http:/y-soft.org

ANALYZER: auCDtect: CD records authenticity detector, version 0.8.2
Copyright (c) 2004 Oleg Berngardt. All rights reserved.
Copyright (c) 2004 Alexander Djourik. All rights reserved.

FILE: Gary Moore - The Platinum Collection - CD2.flac
  Size: 500472993 Hash: 7BC39395107552C4D8ECCE7D1A0332E9 Accuracy: -m8
  Conclusion: CDDA 99%
  Signature: 3BA07D7B6F55D7E7C05485AB5F2DF0B46A06B48B
 
#777Трек лист:
01. Murder In The Sky (5:34)
02. Military Man (6:25)
03. White Knuckles (3:51)
04. Empty Rooms (8:27)
05. Out In The Fields (feat. Phil Lynott) (5:28)
06. Back On The Streets (5:16)
07. Stop Messin' Around (feat. Phil Lynott) (4:07)
08. Cold Day In Hell (5:31)
09. Midnight Blues (6:56)
10. King Of The Blues (6:15)
11. Caldonia (feat. Albert Collins & Albert King) (5:35)
12. Cold, Cold Feeling (feat. Albert Collins) (7:19)
13. Parisienne Walkways (5:50)
Продолжительность – 01:10:04
Код:
Код:
Exact Audio Copy V0.99 prebeta 4 from 23. January 2008

EAC extraction logfile from 24. October 2011, 9:52

Gary Moore / The Platinum Collection - CD3

Used drive  : SAMSUNG CDRW/DVD SM-352B   Adapter: 0  ID: 0

Read mode               : Secure
Utilize accurate stream : Yes
Defeat audio cache      : Yes
Make use of C2 pointers : No

Read offset correction                      : 6
Overread into Lead-In and Lead-Out          : No
Fill up missing offset samples with silence : Yes
Delete leading and trailing silent blocks   : No
Null samples used in CRC calculations       : Yes
Used interface                              : Native Win32 interface for Win NT & 2000

Used output format : Internal WAV Routines
Sample format      : 44.100 Hz; 16 Bit; Stereo

TOC of the extracted CD

     Track |   Start  |  Length  | Start sector | End sector
    ---------------------------------------------------------
        1  |  0:00.00 |  5:34.18 |         0    |    25067
        2  |  5:34.18 |  6:25.17 |     25068    |    53959
        3  | 11:59.35 |  3:50.71 |     53960    |    71280
        4  | 15:50.31 |  8:26.53 |     71281    |   109283
        5  | 24:17.09 |  5:28.31 |    109284    |   133914
        6  | 29:45.40 |  5:15.41 |    133915    |   157580
        7  | 35:01.06 |  4:06.39 |    157581    |   176069
        8  | 39:07.45 |  5:31.26 |    176070    |   200920
        9  | 44:38.71 |  6:56.11 |    200921    |   232131
       10  | 51:35.07 |  6:15.28 |    232132    |   260284
       11  | 57:50.35 |  5:34.70 |    260285    |   285404
       12  | 63:25.30 |  7:18.59 |    285405    |   318313
       13  | 70:44.14 |  5:49.44 |    318314    |   344532

Range status and errors

Selected range

     Filename E:\Lossless\Gary Moore\Gary Moore - The Platinum Collection - CD3.wav

     Peak level 99.3 %
     Range quality 100.0 %
     Copy CRC 6651233D
     Copy OK

No errors occurred

End of status report
 
Код:
Код:
-----------------------

DON'T MODIFY THIS FILE

-----------------------

PERFORMER: auCDtect Task Manager, ver. 1.5.1RC6 build 1.5.1.7
Copyright (c) 2008-2010 y-soft. All rights reserved
http:/y-soft.org

ANALYZER: auCDtect: CD records authenticity detector, version 0.8.2
Copyright (c) 2004 Oleg Berngardt. All rights reserved.
Copyright (c) 2004 Alexander Djourik. All rights reserved.

FILE: Gary Moore - The Platinum Collection - CD3.flac
  Size: 541704374 Hash: EBB4F2624824283FC377EA85C94F9FEC Accuracy: -m8
  Conclusion: CDDA 100%
  Signature: 7FA844F2B5F1E72DDCEB0798D4726C2FB1215556
Правила, инструкции, FAQ!!!
Торрент  Добавлен [16 мар 2014, 00:15] Скачать торрент Магнет ссылка
Скачать торрент
[ Размер 17.62 КБ / Просмотров 50 ]

Статус  
 
Размер  1.52 ГБ
Приватный: Нет (DHT включён)
.torrent скачан  3
 


     Отправить личное сообщение
   
Страница 1 из 1
Показать сообщения за:  Поле сортировки  
Начать новую тему Ответить на тему


Сейчас этот форум просматривают: нет зарегистрированных пользователей и гости: 0


Вы не можете начинать темы
Вы не можете отвечать на сообщения
Вы не можете редактировать свои сообщения
Вы не можете удалять свои сообщения
Вы не можете добавлять вложения

Перейти:  
cron
cron