Начать новую тему Ответить на тему
Статистика раздачи
Размер: 1.55 ГБ | Добавлен: 24 авг 2016, 14:16 | Скачали: 0
Сидеров: 2  [0 байт/сек]    Личеров: 1  [0 байт/сек]
Пред. тема | След. тема 

Автор
Сообщение

СообщениеДобавлено: 24 авг 2016, 14:16 

Ответить с цитатой 

Lionel Richie - Dancing On The Ceiling

Жанр: Funk / Soul, Pop, Rock
Год выпуска: 1985-1986
Лейбл: Motown ‎– 6158ML
Страна-производитель: USA
Аудио кодек: FLAC
Тип рипа: image+.cue
Формат записи: 32/192
Формат раздачи: 24/192
Продолжительность: 00.41.16
Треклист:

Side 1.
1 Dancing On The Ceiling
2 Se La
3 Ballerina Girl
4 Don't Stop
Side 2.
1 Deep River Woman
2 Love Will Conquer All
3 Tonight Will Be Alright
4 Say You, Say Me

Источник оцифровки: автором раздачи
Код класса состояния винила: VG+
Устройство воспроизведения: Fisher MT-6355
Головка звукоснимателя: Audio-Technica AT95E
Предварительный усилитель: Creek - OBH 8SE
АЦП: ASUS Xonar Essence ST PCI
Программа-оцифровщик: Sound Forge Pro 10
Обработка: Убрал пару щелчков в ручную Sound Forge Pro 10
Доп. информация:
TITLE "Lionel Richie"
PERFORMER "Dancing On The Ceiling"
FILE "Lionel Richie - Side 1.flac" WAVE
TRACK 01 AUDIO
TITLE "Dancing On The Ceiling"
PERFORMER "Lionel Richie"
INDEX 01 00:00:00
TRACK 02 AUDIO
TITLE "Se La"
PERFORMER "Lionel Richie"
INDEX 01 04:34:32
TRACK 03 AUDIO
TITLE "Ballerina Girl"
PERFORMER "Lionel Richie"
INDEX 01 09:57:27
TRACK 04 AUDIO
TITLE "Don't Stop"
PERFORMER "Lionel Richie"
INDEX 01 13:42:42
FILE "Lionel Richie - Side 2.flac" WAVE
TRACK 05 AUDIO
TITLE "Deep River Woman"
PERFORMER "Lionel Richie"
INDEX 01 00:00:00
TRACK 06 AUDIO
TITLE "Love Will Conquer All"
PERFORMER "Lionel Richie"
INDEX 01 04:37:34
TRACK 07 AUDIO
TITLE "Tonight Will Be Alright"
PERFORMER "Lionel Richie"
INDEX 01 10:20:55
TRACK 08 AUDIO
TITLE "Say You, Say Me"
PERFORMER "Lionel Richie"
INDEX 01 15:30:42
Правила, инструкции, FAQ!!!
Торрент  Добавлен [24 авг 2016, 14:16] Скачать торрент Магнет ссылка
Скачать торрент
[ Размер 16.4 КБ / Просмотров 8 ]

Статус
Проверен 
 
Размер  1.55 ГБ
Приватный: Нет (DHT включён)
.torrent скачан  0
 


     Отправить личное сообщение
   
Страница 1 из 1
Показать сообщения за:  Поле сортировки  
Начать новую тему Ответить на тему


Сейчас этот форум просматривают: нет зарегистрированных пользователей и гости: 0


Вы не можете начинать темы
Вы не можете отвечать на сообщения
Вы не можете редактировать свои сообщения
Вы не можете удалять свои сообщения
Вы не можете добавлять вложения

Перейти:  
cron
cron