Начать новую тему Ответить на тему
Статистика раздачи
Размер: 165.98 МБ | Добавлен: 26 апр 2020, 22:04 | Скачали: 2
Сидеров: 6  [0 байт/сек]    Личеров: 2  [0 байт/сек]
Пред. тема | След. тема 

Автор
Сообщение

СообщениеДобавлено: 26 апр 2020, 22:04 

Ответить с цитатой 

Rosa / Acqua di sale
Жанр: Funk, Boogie, Canzone Napoletana, Disco, Electro, Italo Disco
Носитель: WEB https://periodicarecords.bandcamp.com/album/rosa-acqua-di-sale
Страна-производитель диска (релиза): Italy
Год издания: 2020
Издатель (лейбл): Periodica Records
Номер по каталогу: SP PRD1016
Аудиокодек: FLAC (*.flac)
Тип рипа: tracks
Продолжительность: 00:25:40
Источник: Обмен
Наличие сканов в содержимом раздачи: нет
Треклист:
01. Sera a Posillipo (04:43)
02. Acqua di sale (04:23)
03. Bar Riviera (04:00)
04. Il Sassofono Blu (04:46)
05. Tentazione (03:48)
06. Bar Riviera (Strumentale) (04:00)
Код:
-----------------------
DON'T MODIFY THIS FILE
-----------------------
PERFORMER: auCDtect Task Manager, ver. 1.6.0 RC1 build 1.6.0.1
Copyright (c) 2008-2010 y-soft. All rights reserved
[url=http://y-soft.org]http://y-soft.org[/url]
ANALYZER: auCDtect: CD records authenticity detector, version 0.8.2
Copyright (c) 2004 Oleg Berngardt. All rights reserved.
Copyright (c) 2004 Alexander Djourik. All rights reserved.
FILE: 06 - Bar Riviera (Strumentale).flac
  Size: 25884648 Hash: 4F8DD5FBA60B43E0383F1929E6B12D8E Accuracy: -m0
  Conclusion: CDDA 100%
  Signature: FBFA80B511AFA5930B4DEA4662B06D37747FF6A3
FILE: 05 - Tentazione.flac
  Size: 27151963 Hash: F42535CD54C39CFEA2C9926B15D655B9 Accuracy: -m0
  Conclusion: MPEG 95%
  Signature: A7F58841F27D53E99B471E2A89C035B594509931
FILE: 04 - Il Sassofono Blu.flac
  Size: 32297612 Hash: B5E7BCC83432AC0F069161690660B66A Accuracy: -m0
  Conclusion: MPEG 95%
  Signature: 8AA1DFB944F7D1E0040BA07C8901C6E3B5F1F650
FILE: 03 - Bar Riviera.flac
  Size: 25934917 Hash: FD0C178FA0238576361608CF120CC3B0 Accuracy: -m0
  Conclusion: MPEG 95%
  Signature: AC80DF402A46946FF1B44AB6F4BD6B99822D4D03
FILE: 02 - Acqua di sale.flac
  Size: 30934517 Hash: 3529012844BC8A57BA8744108A376435 Accuracy: -m0
  Conclusion: MPEG 100%
  Signature: 7A221B12EDB29EA3E10AB00C30B5B0B58C1E8BC1
FILE: 01 - Sera a Posillipo.flac
  Size: 31655208 Hash: 5200DB5F7CB6E81765FC7944F1DB8316 Accuracy: -m0
  Conclusion: MPEG 95%
  Signature: D407339908C4D79227B7138659566F601A83637D
foobar2000 1.4.5 / Замер динамического диапазона (DR) 1.1.1
Дата отчёта:  2020-04-26 23:54:58
--------------------------------------------------------------------------------
Анализ:   Rosa / Acqua di sale
--------------------------------------------------------------------------------
DR         Пики         RMS           Продолжительность трека
--------------------------------------------------------------------------------
DR11       0.00 дБ   -12.95 дБ      4:44 01-Sera a Posillipo
DR10       0.00 дБ   -11.76 дБ      4:23 02-Acqua di sale
DR11       0.00 дБ   -12.51 дБ      4:01 03-Bar Riviera
DR13       0.00 дБ   -13.90 дБ      4:47 04-Il Sassofono Blu
DR10       0.00 дБ   -11.26 дБ      3:49 05-Tentazione
DR11       0.00 дБ   -12.35 дБ      4:01 06-Bar Riviera (Strumentale)
--------------------------------------------------------------------------------
Количество треков: 6
Реальные значения DR: DR11
Частота:   44100 Гц
Каналов:   2
Разрядность:   16
Битрейт:   861 кбит/с
Кодек:   FLAC
================================================================================
Правила, инструкции, FAQ!!!
Торрент  Добавлен [26 апр 2020, 22:04] Скачать торрент Магнет ссылка
Скачать торрент
[ Размер 13.82 КБ / Просмотров 11 ]

Статус
Проверен 
 
Размер  165.98 МБ
Приватный: Нет (DHT включён)
.torrent скачан  2
 


     Отправить личное сообщение
   
Страница 1 из 1
Показать сообщения за:  Поле сортировки  
Начать новую тему Ответить на тему


Сейчас этот форум просматривают: нет зарегистрированных пользователей и гости: 0


Вы не можете начинать темы
Вы не можете отвечать на сообщения
Вы не можете редактировать свои сообщения
Вы не можете удалять свои сообщения
Вы не можете добавлять вложения

Перейти:  
cron