Начать новую тему Ответить на тему
Статистика раздачи
Размер: 537.11 МБ | Добавлен: 16 мар 2014, 00:07 | Скачали: 0
Сидеров: 0  [0 байт/сек]    Личеров: 0  [0 байт/сек]
Пред. тема | След. тема 

Автор
Сообщение

СообщениеДобавлено: 16 мар 2014, 00:07 

Ответить с цитатой 

Freedom and Whiskey - Southern Rock (2012)

Год: 2012
Издание: Freedom and Whiskey
Каталог№: n/a
Жанр: Southern Rock
Источник : Гордый (NL)
Сканы: Есть
Продолжительность: 01:19:22

Кодек: WavPack
Тип рипа: Image+.cue
Битрейт: Lossless
Трек лист:
01. Whiskey State Of Mind (4:26)
02. Kettlebottom Blues (3:45)
03. Comin Down Heavy (3:38)
04. Madman (2:42)
05. Rev It Up (3:49)
06. No More (4:39)
07. Is This Thing On (4:04)
08. The Road (4:07)
09. Fool's Gold (3:25)
10. Ghost Of Mary Green (3:43)
11. Little Did We Know (3:12)
12. The Slide (3:03)
13. A Long While (6:11)
14. Austin (3:24)
15. Freedom (3:28)
16. Lost My Way (3:49)
17. Dog House (4:23)
18. Right In Front Of Me (4:24)
19. Hit The Bricks (4:30)
20. The Stranger (4:39)

Код:
Код:
REM GENRE "Southern Rock"
REM DATE 2012
REM DISCID 1B129914
REM COMMENT "ExactAudioCopy v1.0b3"
PERFORMER "Freedom and Whiskey"
TITLE "Southern Rock"
FILE "Freedom and Whiskey - Southern Rock.wv" WAVE
  TRACK 01 AUDIO
    TITLE "Whiskey State Of Mind"
    PERFORMER "Freedom and Whiskey"
    INDEX 01 00:00:00
  TRACK 02 AUDIO
    TITLE "Kettlebottom Blues"
    PERFORMER "Freedom and Whiskey"
    INDEX 01 04:25:66
  TRACK 03 AUDIO
    TITLE "Comin Down Heavy"
    PERFORMER "Freedom and Whiskey"
    INDEX 01 08:10:54
  TRACK 04 AUDIO
    TITLE "Madman"
    PERFORMER "Freedom and Whiskey"
    INDEX 01 11:48:20
  TRACK 05 AUDIO
    TITLE "Rev It Up"
    PERFORMER "Freedom and Whiskey"
    INDEX 01 14:30:46
  TRACK 06 AUDIO
    TITLE "No More"
    PERFORMER "Freedom and Whiskey"
    INDEX 01 18:19:53
  TRACK 07 AUDIO
    TITLE "Is This Thing On"
    PERFORMER "Freedom and Whiskey"
    INDEX 01 22:59:15
  TRACK 08 AUDIO
    TITLE "The Road"
    PERFORMER "Freedom and Whiskey"
    INDEX 01 27:03:50
  TRACK 09 AUDIO
    TITLE "Fool's Gold"
    PERFORMER "Freedom and Whiskey"
    INDEX 01 31:10:72
  TRACK 10 AUDIO
    TITLE "Ghost Of Mary Green"
    PERFORMER "Freedom and Whiskey"
    INDEX 01 34:35:69
  TRACK 11 AUDIO
    TITLE "Little Did We Know"
    PERFORMER "Freedom and Whiskey"
    INDEX 01 38:18:65
  TRACK 12 AUDIO
    TITLE "The Slide"
    PERFORMER "Freedom and Whiskey"
    INDEX 01 41:30:71
  TRACK 13 AUDIO
    TITLE "A Long While"
    PERFORMER "Freedom and Whiskey"
    INDEX 01 44:33:58
  TRACK 14 AUDIO
    TITLE "Austin"
    PERFORMER "Freedom and Whiskey"
    INDEX 01 50:45:19
  TRACK 15 AUDIO
    TITLE "Freedom"
    PERFORMER "Freedom and Whiskey"
    INDEX 01 54:08:74
  TRACK 16 AUDIO
    TITLE "Lost My Way"
    PERFORMER "Freedom and Whiskey"
    INDEX 01 57:36:61
  TRACK 17 AUDIO
    TITLE "Dog House"
    PERFORMER "Freedom and Whiskey"
    INDEX 01 61:26:13
  TRACK 18 AUDIO
    TITLE "Right In Front Of Me"
    PERFORMER "Freedom and Whiskey"
    INDEX 01 65:49:40
  TRACK 19 AUDIO
    TITLE "Hit The Bricks"
    PERFORMER "Freedom and Whiskey"
    INDEX 01 70:13:13
  TRACK 20 AUDIO
    TITLE "The Stranger"
    PERFORMER "Freedom and Whiskey"
    INDEX 01 74:42:60
Код:
Код:
Exact Audio Copy V1.0 beta 3 from 29. August 2011

EAC extraction logfile from 4. May 2013, 11:26

Freedom and Whiskey / Southern Rock

Used drive  : HL-DT-STDVD-RAM GH22LP20   Adapter: 4  ID: 1

Read mode               : Secure
Utilize accurate stream : Yes
Defeat audio cache      : Yes
Make use of C2 pointers : No

Read offset correction                      : 102
Overread into Lead-In and Lead-Out          : No
Fill up missing offset samples with silence : Yes
Delete leading and trailing silent blocks   : No
Null samples used in CRC calculations       : Yes
Used interface                              : Installed external ASPI interface

Used output format              : User Defined Encoder
Selected bitrate                : 896 kBit/s
Quality                         : High
Add ID3 tag                     : No
Command line compressor         : C:\Program Files (x86)\Exact Audio Copy\WAV Pack\wavpack.exe
Additional command line options : -hlmx2 %source% %dest%

TOC of the extracted CD

     Track |   Start  |  Length  | Start sector | End sector
    ---------------------------------------------------------
        1  |  0:00.00 |  4:25.66 |         0    |    19940
        2  |  4:25.66 |  3:44.63 |     19941    |    36803
        3  |  8:10.54 |  3:37.41 |     36804    |    53119
        4  | 11:48.20 |  2:42.26 |     53120    |    65295
        5  | 14:30.46 |  3:49.07 |     65296    |    82477
        6  | 18:19.53 |  4:39.37 |     82478    |   103439
        7  | 22:59.15 |  4:04.35 |    103440    |   121774
        8  | 27:03.50 |  4:07.22 |    121775    |   140321
        9  | 31:10.72 |  3:24.72 |    140322    |   155693
       10  | 34:35.69 |  3:42.71 |    155694    |   172414
       11  | 38:18.65 |  3:12.06 |    172415    |   186820
       12  | 41:30.71 |  3:02.62 |    186821    |   200532
       13  | 44:33.58 |  6:11.36 |    200533    |   228393
       14  | 50:45.19 |  3:23.55 |    228394    |   243673
       15  | 54:08.74 |  3:27.62 |    243674    |   259260
       16  | 57:36.61 |  3:49.27 |    259261    |   276462
       17  | 61:26.13 |  4:23.27 |    276463    |   296214
       18  | 65:49.40 |  4:23.48 |    296215    |   315987
       19  | 70:13.13 |  4:29.47 |    315988    |   336209
       20  | 74:42.60 |  4:39.03 |    336210    |   357137

Range status and errors

Selected range

     Filename X:\Releases_RAW\Freedom and Whiskey - Southern Rock\Freedom and Whiskey - Southern Rock.wav

     Peak level 100.0 %
     Extraction speed 2.2 X
     Range quality 99.9 %
     Test CRC 221535C1
     Copy CRC 221535C1
     Copy OK

No errors occurred

AccurateRip summary

Track  1  not present in database
Track  2  not present in database
Track  3  not present in database
Track  4  not present in database
Track  5  not present in database
Track  6  not present in database
Track  7  not present in database
Track  8  not present in database
Track  9  not present in database
Track 10  not present in database
Track 11  not present in database
Track 12  not present in database
Track 13  not present in database
Track 14  not present in database
Track 15  not present in database
Track 16  not present in database
Track 17  not present in database
Track 18  not present in database
Track 19  not present in database
Track 20  not present in database

None of the tracks are present in the AccurateRip database

End of status report

---- CUETools DB Plugin V2.1.3

[CTDB TOCID: 7UWs_q9KPc1faJHgpogRKLpZj_Y-] disk not present in database, Submit result: 7UWs_q9KPc1faJHgpogRKLpZj_Y- has been uploaded

==== Log checksum FCE89BACB12561E71CC1CDDA1010C180E80BC70A2074EF7402F690F9A156D858 ====

Код:
Код:
-----------------------

DON'T MODIFY THIS FILE

-----------------------

PERFORMER: auCDtect Task Manager, ver. 1.5.1RC6 build 1.5.1.7
Copyright (c) 2008-2010 y-soft. All rights reserved
http:/y-soft.org

ANALYZER: auCDtect: CD records authenticity detector, version 0.8.2
Copyright (c) 2004 Oleg Berngardt. All rights reserved.
Copyright (c) 2004 Alexander Djourik. All rights reserved.

FILE: Freedom and Whiskey - Southern Rock.wv
  Size: 561197440 Hash: C7CD18BE2B2FE3CACCC88EDD7ADA9FA7 Accuracy: -m0
  Conclusion: CDDA 100%
  Signature: A654835AE9DD24F9D5AE0315231D3FB1F40FB490

Правила, инструкции, FAQ!!!
Торрент  Добавлен [16 мар 2014, 00:07] Скачать торрент Магнет ссылка
Скачать торрент
[ Размер 11.74 КБ / Просмотров 34 ]

Статус  
 
Размер  537.11 МБ
Приватный: Нет (DHT включён)
.torrent скачан  0
 


     Отправить личное сообщение
   
Страница 1 из 1
Показать сообщения за:  Поле сортировки  
Начать новую тему Ответить на тему


Сейчас этот форум просматривают: нет зарегистрированных пользователей и гости: 0


Вы не можете начинать темы
Вы не можете отвечать на сообщения
Вы не можете редактировать свои сообщения
Вы не можете удалять свои сообщения
Вы не можете добавлять вложения

Перейти:  
cron
cron