Начать новую тему Ответить на тему
Статистика раздачи
Размер: 442.14 МБ | Добавлен: 01 июл 2017, 08:35 | Скачали: 6
Сидеров: 6  [0 байт/сек]    Личеров: 1  [0 байт/сек]
Пред. тема | След. тема 

Автор
Сообщение

СообщениеДобавлено: 01 июл 2017, 08:35 

Ответить с цитатой 

Fredda / Land
Формат записи/Источник записи: [TR24][OF]
Наличие водяных знаков: Нет
Год издания/переиздания диска: 2017
Жанр: French Pop, Chanson
Издатель (лейбл): 03H50
Продолжительность: 39:00
Наличие сканов в содержимом раздачи: Только обложка альбома
Треклист:
01. Ma rivière
02. Maintenant
03. Neige rose
04. Le gardien des fleurs
05. Matins maquillés
06. Sur la lande
07. Pauvres bouches
08. Siestes anciennes
09. Elle part
10. Au grand tomple
11. Les amantes
Контейнер: FLAC (*.flac)
Тип рипа: tracks
Разрядность: 24/44,1
Формат: PCM
Количество каналов: 2.0
Код:
foobar2000 1.3.14 / Dynamic Range Meter 1.1.1
log date: 2017-05-30 00:35:28
--------------------------------------------------------------------------------
Analyzed: Fredda / Land
--------------------------------------------------------------------------------
DR         Peak         RMS     Duration Track
--------------------------------------------------------------------------------
DR6       -0.10 dB    -7.14 dB      3:30 01-Ma rivière
DR6       -0.67 dB    -7.81 dB      3:41 02-Maintenant
DR5       -0.10 dB    -6.73 dB      4:02 03-Neige rose
DR5       -0.64 dB    -6.99 dB      3:26 04-Le gardien des fleurs
DR6       -0.11 dB    -8.19 dB      2:29 05-Matins maquillés
DR6       -0.16 dB    -7.71 dB      4:03 06-Sur la lande
DR5       -0.19 dB    -6.81 dB      3:29 07-Pauvres bouches
DR5       -0.12 dB    -6.71 dB      3:21 08-Siestes anciennes
DR6       -0.12 dB    -6.85 dB      3:36 09-Elle part
DR6       -0.18 dB    -8.83 dB      3:22 10-Au grand tomple
DR6       -0.15 dB    -8.42 dB      4:01 11-Les amantes
--------------------------------------------------------------------------------
Number of tracks:  11
Official DR value: DR6
Samplerate:        44100 Hz
Channels:          2
Bits per sample:   24
Bitrate:           1555 kbps
Codec:             FLAC
================================================================================
Источник (релизер): http://www.qobuz.com/fr-fr/album/land-fredda/3770002674161
Правила, инструкции, FAQ!!!
Торрент  Добавлен [01 июл 2017, 08:35] Скачать торрент Магнет ссылка
Скачать торрент
[ Размер 18.45 КБ / Просмотров 78 ]

Статус
Проверен 
 
Размер  442.14 МБ
Приватный: Нет (DHT включён)
.torrent скачан  6
 


     Отправить личное сообщение
   
Страница 1 из 1
Показать сообщения за:  Поле сортировки  
Начать новую тему Ответить на тему


Сейчас этот форум просматривают: нет зарегистрированных пользователей и гости: 0


Вы не можете начинать темы
Вы не можете отвечать на сообщения
Вы не можете редактировать свои сообщения
Вы не можете удалять свои сообщения
Вы не можете добавлять вложения

Перейти:  
cron
cron