Начать новую тему Ответить на тему
Статистика раздачи
Размер: 1.17 ГБ | Добавлен: 16 мар 2014, 00:15 | Скачали: 1
Сидеров: 1  [0 байт/сек]    Личеров: 83  [0 байт/сек]
Пред. тема | След. тема 

Автор
Сообщение

СообщениеДобавлено: 16 мар 2014, 00:15 

Ответить с цитатой 

Frank Zappa & The Mothers Of Invention - 4 альбома (3CD)[1967, 1968]

Год: 1967, 1968
Жанр: Rock, Art Rock, Avantgarde, Experimental, Prog Rock
Продолжительность: 03:02:13

Кодек: FLAC
Битрейт: Lossless
Тип рипа: tracks

Описание: В раздаче представлено четыре альбома (два из низ на одном CD) Frank Vincent Zappa, которые он записал со своей группой The Mothers of Invention. Все они относятся к раннему периоду Франка Заппы. Подарок русскоязычным поклонникам американского композитора Фрэнка Винсента Заппы младшего.
Треклист:
Список альбомов:
1. Absolutely Free (1967)
2.1 We're Only In It For The Money (1968)
2.2 Lampy Gravy (1968)
3. Ahead Of Their Time (1968)
Гений, а то что именно к этому завидному подотряду прямоходящих относится потомок портового парикмахера из Балтимора, ясно стало, едва лишь по мере взросления, безумная, но заурядная вполне страсть к смешиванию и поджиганию продуктов бытовой химии сменилась поразительной тягой к созданию гармонии посредством ритма.
Звуки! Природа одарила парнишку из глухого пустынного захолустья, росшего в совершенно немузыкальном доме, поразительным слуховым аппаратом, нет, это неточно, фантастическим восприятием механических волн в упругих средах. Он не просто слышал то, что другие бездарно пропускали мимо ушей, он еще и видел все это!

" Мне нравилось, как музыка выглядит на бумаге. Меня восхищало то, что звуки можно увидеть, и то, что человек, знающий скрытый смысл нот, может взглянуть на лист, и музыка зазвучит. Мне это казалось волшебством. А еще я любил рисовать, большую и лучшую часть времени учеником средней школы я проводил за рисованием. Я брал ручку Спидбол, флакончик индийских чернил Хиггинса, немного нотной бумаги и, черт, у меня получалось."

Представляете, сопливый шкет, любитель комиксов и фильмов ужасов, уединившись под настольной лампой, малюет скрипичные квартеты, а оловянные, как ковбойские буркалы, звезды пустыни Мохавк лупятся на него сверху и не могут надивиться.

Владимир Советов
"Паппа Заппа" Кемерово, 1997, 344 с.

Прoдолжительность: 00:43:42

Трeклист:
01. Plastic People (3:42)
02. The Duke Of Prunes (2:13)
03. Amnesia Vivace (1:01)
04. The Duke Regains His Chops (1:48)
05. Call Any Vegetable (2:20)
06. Invocation And Ritual Dance Of The Young Pumpkin (7:00)
07. Soft-Sell Conclusion (1:41)
08. Big Leg Emma (2:31)
09. Why Don'tcha Do Me Right? (2:37)
10. America Drinks (1:53)
11. Status Back Baby (2:54)
12. Uncle Bernie's Farm (2:11)
13. Son Of Suzy Creamcheese (1:34)
14. Brown Shoes Don't Make It (7:30)
15. America Drinks And Goes Home (2:46)
Альбом без дураков. Фрэнк Винсент, сорт первый. Изначально в виниловом варианте делился на две части (мюзикла) - сторона 1 - Absolutely Free ( от Plastic People до Soft-Sell Conclusion) и сторона 2 - The Mothers of Invention American Pageant (от America Drinks до America Drinks & Goes Home). Bridge - две песни между ними (стороны B и А сорокопятки номер 3) добавлены были уже в CD издании, хотя особой нужды в этом, вроде бы, и не было.
В музыкальном отношении очень хорош, но суров, как хоккейный тренер, расслабиться не удастся, сесть, встать, лечь, бежать, безжалостное испытание для слуховых рецепторов среднестатистического автомеломана. Пользуясь образом самого творца, о марширующих оркестрах, AF - это пяток радиопередач, включая По Вашим Письмам и Джазовый Будильник, печатающих шаг колонна за колонной плечом к плечу под наводки от ЛЭП-500. С первого раза бывает сложно заглотить, но постараться стоит, поскольку чувствуешь себя потом отлично.
Любопытно при этом, что многие соотечественники мистера Заппы особо и не напрягались. Это один из занятных и принципиально важных парадоксов восприятия ФВЗ. Изрядную долю его поклонников составляли люди, даже и не понимавшие, что Фрэнк - великий композитор. Комик, мастер разговорного жанра, Марк Твен эпохи телевизора и телескопа. Забавно и то, что самого FZ нелепое, но кормившее его, в общем-то, обстоятельство, если не обижало, то коробило. Впрочем, эмоции не мешали этому очень земному, практичному человеку пользоваться людской глупостью вовсю. То есть зарабатывать.
И еще, раз уж мы не удержались, и на кухне творческой с известной беспардонностью банки с вареньем инспектируем, то обратим свое внимание на невзрачную с надписью Son Of Suzie Creemcheese. Это не обрезки давешней истории о заблудшем Слив-Сыре, и даже не печальное продолжение. Это оно! СС - conceptual continuity, сознательное повторение образов, тем и идей, как способ материю самовоспроизводящейся, вразнос идущей вселенной Большой Ноты, объединять родством, тождественностью генетической, веснушками, морщинками и родинками творца, отца, короче, Паппы!
Кстати, о размножении в контексте терминологии. Общегражданский смысл в названии Сын Сузи Слив-Сыр отсутствует. В чем убедится всяк, попробовавший вслушаться в слова. Указание родственной связи у ФВЗ ничто иное, как только ему одному свойственный, курьезный способ отмечать этап в последовательности развития музыкальной идеи. Была некая тема для кларнета и габоя в сопровождении трех бубнов, называлась Сузи Слив-Сыр, потом пришла фантазия переложить ее для шести скрипок и хора девочек-огнепоклонниц - Сын Сузи Слив-Сыр, ну, а если спустя три года стало ясно, что это все-таки было и есть соло для ударных - тогда вот вам Возвращение Сына Сузи Слив-Сыр.
Бывает, что на суд общественности выносится только сын. Son Of Suzie Creamcheese. Бывает внук. Return Of The Son Of Monster Magnet. А случается, и все семейство промарширует. Сначала папа - Shut Up N' Play Yer Guitar. Потом дядя - Shut Up N' Play Yer Guitar Some More и, наконец, малютка-карапуз Return Of The Son Of Shut Up N' Play Yer Guitar.
Привязывая же все сказанное (и гитару, и детей) к Абсолютно Свободному, вполне уместно упомянуть одну примечательную деталь. Это первый альбом, в котором маэстро не стесняется играть на инструменте. Дебютный же Freak Out! оставляет стойкое впечатление, что по струнам ударял главным образом Эллиот Ингебер, а Фрэнк лишь только руководил процессом, иначе говоря - просто махал руками. И раз, и раз. Да гыкал время от времени довольно выразительно.
Ыыыыыыы.

FZ
Ray Collins -- vocals
Jimmy Carl Black, Billy Mundi -- drums
Roy Estrada -- bass
Don Preston -- keyboards
Bunk Gardner -- woodwinds
Jim Sherwood -- soprano & baritone sax, 2 violins, 1 viola, 1 cello, 1 trumpet and 1 contra-bass clarinet added on 'Brown Shoes Don't Make
Код:
Код:

Exact Audio Copy V0.99 prebeta 1 from 25. May 2007

Отчёт EAC об извлечении, выполненном 13. октября 2008, 19:27

Frank Zappa / Absolutely Free

Дисковод: _NEC    DVD_RW ND-3551A   Adapter: 0  ID: 0

Режим чтения                 : Достоверность
Использование точного потока : Да
Отключение кэша аудио        : Да
Использование указателей C2  : Да

Коррекция смещения при чтении                 : 48
Способность читать области Lead-in и Lead-out : Да
Заполнение пропущенных сэмплов тишиной        : Да
Удаление блоков с тишиной в начале и конце    : Нет
Интерфейс                                     : Встроенный Win32-интерфейс для Win NT/2000
Обработка зазоров                             : Добавлено к предыдущему треку

Выходной формат          : Пользовательский кодировщик
Выбранный битрейт        : 768 kBit/s
Качество                 : Высокий
Добавление ID3-тэга      : Нет
Утилита сжатия           : C:\Program Files\Exact Audio Copy\Flac\flac.exe
Дополнительные параметры : -6 -V -T "ARTIST=%a" -T "TITLE=%t" -T "ALBUM=%g" -T "DATE=%y" -T "TRACKNUMBER=%n" -T "GENRE=%m" -T "COMMENT=%e" %s -o %d
Смещение при сжатии      : 0

TOC извлечённого CD

     Трек |   Старт  | Длительность | Начальный сектор | Конечный сектор
    ---------------------------------------------------------------------
       1  |  0:00.00 |    3:42.17   |           0      |      16666
       2  |  3:42.17 |    2:13.23   |       16667      |      26664
       3  |  5:55.40 |    1:01.25   |       26665      |      31264
       4  |  6:56.65 |    1:48.15   |       31265      |      39379
       5  |  8:45.05 |    2:19.72   |       39380      |      49876
       6  | 11:05.02 |    7:00.23   |       49877      |      81399
       7  | 18:05.25 |    1:40.42   |       81400      |      88941
       8  | 19:45.67 |    2:31.25   |       88942      |     100291
       9  | 22:17.17 |    2:37.08   |      100292      |     112074
      10  | 24:54.25 |    1:53.05   |      112075      |     120554
      11  | 26:47.30 |    2:53.72   |      120555      |     133601
      12  | 29:41.27 |    2:10.73   |      133602      |     143424
      13  | 31:52.25 |    1:34.12   |      143425      |     150486
      14  | 33:26.37 |    7:30.05   |      150487      |     184241
      15  | 40:56.42 |    2:46.23   |      184242      |     196714

Трек  1

     Имя файла D:\video\Absolutely Free\Frank Zappa - Absolutely Free - 01. Plastic People.wav

     Длина предзазора  0:00:02.00

     Пиковый уровень 100.0 %
     Качество трека 100.0 %
     CRC копии F6136B89
     Неточное извлечение (доверие 3)  [82D42A7B], но должно быть [B2521E00]
     Копирование... OK

Трек  2

     Имя файла D:\video\Absolutely Free\Frank Zappa - Absolutely Free - 02. The Duke Of Prunes.wav

     Пиковый уровень 82.7 %
     Качество трека 100.0 %
     CRC копии A74ED233
     Неточное извлечение (доверие 3)  [287D8615], но должно быть [770FE02B]
     Копирование... OK

Трек  3

     Имя файла D:\video\Absolutely Free\Frank Zappa - Absolutely Free - 03. Amnesia Vivace.wav

     Пиковый уровень 90.6 %
     Качество трека 100.0 %
     CRC копии C357B901
     Неточное извлечение (доверие 3)  [E84166FA], но должно быть [A1CE2357]
     Копирование... OK

Трек  4

     Имя файла D:\video\Absolutely Free\Frank Zappa - Absolutely Free - 04. The Duke Regains His Chops.wav

     Пиковый уровень 82.5 %
     Качество трека 100.0 %
     CRC копии E6B40B40
     Неточное извлечение (доверие 3)  [863C0939], но должно быть [3A7CE0AC]
     Копирование... OK

Трек  5

     Имя файла D:\video\Absolutely Free\Frank Zappa - Absolutely Free - 05. Call Any Vegetable.wav

     Пиковый уровень 100.0 %
     Качество трека 100.0 %
     CRC копии F5E9A028
     Неточное извлечение (доверие 3)  [EC1AB1DF], но должно быть [6CEE156C]
     Копирование... OK

Трек  6

     Имя файла D:\video\Absolutely Free\Frank Zappa - Absolutely Free - 06. Invocation And Ritual Dance Of The Young Pumpkin.wav

     Пиковый уровень 99.2 %
     Качество трека 100.0 %
     CRC копии 8B52ACDC
     Неточное извлечение (доверие 3)  [86F16B5C], но должно быть [5BD4CEDE]
     Копирование... OK

Трек  7

     Имя файла D:\video\Absolutely Free\Frank Zappa - Absolutely Free - 07. Soft-Sell Conclusion.wav

     Пиковый уровень 70.1 %
     Качество трека 100.0 %
     CRC копии 55EE9641
     Неточное извлечение (доверие 3)  [BE9DE0BA], но должно быть [759D64AE]
     Копирование... OK

Трек  8

     Имя файла D:\video\Absolutely Free\Frank Zappa - Absolutely Free - 08. Big Leg Emma.wav

     Пиковый уровень 100.0 %
     Качество трека 100.0 %
     CRC копии AF1A9C09
     Неточное извлечение (доверие 3)  [69A9454D], но должно быть [D71F0230]
     Копирование... OK

Трек  9

     Имя файла D:\video\Absolutely Free\Frank Zappa - Absolutely Free - 09. Why Don'tcha Do Me Right .wav

     Пиковый уровень 100.0 %
     Качество трека 100.0 %
     CRC копии 7CD22C5B
     Неточное извлечение (доверие 3)  [0038562A], но должно быть [0705A7C4]
     Копирование... OK

Трек 10

     Имя файла D:\video\Absolutely Free\Frank Zappa - Absolutely Free - 10. America Drinks.wav

     Пиковый уровень 85.1 %
     Качество трека 100.0 %
     CRC копии 33E09F40
     Неточное извлечение (доверие 3)  [DC624524], но должно быть [715A3085]
     Копирование... OK

Трек 11

     Имя файла D:\video\Absolutely Free\Frank Zappa - Absolutely Free - 11. Status Back Baby.wav

     Пиковый уровень 89.3 %
     Качество трека 100.0 %
     CRC копии F095464B
     Неточное извлечение (доверие 3)  [2BE2B6E7], но должно быть [83AE9C9D]
     Копирование... OK

Трек 12

     Имя файла D:\video\Absolutely Free\Frank Zappa - Absolutely Free - 12. Uncle Bernie's Farm.wav

     Пиковый уровень 83.9 %
     Качество трека 100.0 %
     CRC копии AEC94238
     Неточное извлечение (доверие 3)  [CE41F84C], но должно быть [D1E03B54]
     Копирование... OK

Трек 13

     Имя файла D:\video\Absolutely Free\Frank Zappa - Absolutely Free - 13. Son Of Suzy Creamcheese.wav

     Пиковый уровень 78.6 %
     Качество трека 100.0 %
     CRC копии 633B7F34
     Неточное извлечение (доверие 3)  [85ED4EEC], но должно быть [574E3F0B]
     Копирование... OK

Трек 14

     Имя файла D:\video\Absolutely Free\Frank Zappa - Absolutely Free - 14. Brown Shoes Don't Make It.wav

     Пиковый уровень 96.8 %
     Качество трека 100.0 %
     CRC копии E77ED07E
     Неточное извлечение (доверие 2)  [3D7C3941], но должно быть [7BA3D4AC]
     Копирование... OK

Трек 15

     Имя файла D:\video\Absolutely Free\Frank Zappa - Absolutely Free - 15. America Drinks And Goes Home.wav

     Пиковый уровень 82.1 %
     Качество трека 100.0 %
     CRC копии 3B23E4C0
     Неточное извлечение (доверие 3)  [CBEE7FBB], но должно быть [E91F00FC]
     Копирование... OK

Не все треки извлечены точно

Конец отчёта
Код:
Код:
-----------------------

DON'T MODIFY THIS FILE

-----------------------

PERFORMER: auCDtect Task Manager, ver. 1.6.0 RC1 build 1.6.0.1
Copyright (c) 2008-2010 y-soft. All rights reserved
http:/y-soft.org

ANALYZER: auCDtect: CD records authenticity detector, version 0.8.2
Copyright (c) 2004 Oleg Berngardt. All rights reserved.
Copyright (c) 2004 Alexander Djourik. All rights reserved.

FILE: Frank Zappa - Absolutely Free - 15. America Drinks And Goes Home.flac
  Size: 17672861 Hash: DB736C31FBA7E388DB036267E8973198 Accuracy: -m0
  Conclusion: CDDA 100%
  Signature: FF63EFFA4937F14C189FCD66FF5C0349E8C42577
FILE: Frank Zappa - Absolutely Free - 14. Brown Shoes Don't Make It.flac
  Size: 45860736 Hash: D5496F25F04154558C834869E5CE8F13 Accuracy: -m0
  Conclusion: CDDA 100%
  Signature: 7F9D431C4282ADC2BD683CAF67040717E622881A
FILE: Frank Zappa - Absolutely Free - 13. Son Of Suzy Creamcheese.flac
  Size: 10057475 Hash: E8340DD2DB733086FF1E34D82629E814 Accuracy: -m0
  Conclusion: CDDA 100%
  Signature: 499938705297E568BCC4032B3E5BD7CA8DFD1D5B
FILE: Frank Zappa - Absolutely Free - 12. Uncle Bernie's Farm.flac
  Size: 14417973 Hash: 12346F29F9889434EA0E19D457223261 Accuracy: -m0
  Conclusion: CDDA 100%
  Signature: 6E1FE84569F16C96BB1ABBAFC42617A4E8E4DB8E
FILE: Frank Zappa - Absolutely Free - 11. Status Back Baby.flac
  Size: 18975822 Hash: C0103764DA20582CB683EF88CE6643C0 Accuracy: -m0
  Conclusion: CDDA 100%
  Signature: 613C79E71CB0F89D5A1E28F293F29670055DECD4
FILE: Frank Zappa - Absolutely Free - 10. America Drinks.flac
  Size: 11570244 Hash: 19905F63597D52C1920EB2FABEB7A1C9 Accuracy: -m0
  Conclusion: CDDA 100%
  Signature: 5B4EE39E767083D0FE7445344217205F05CC0590
FILE: Frank Zappa - Absolutely Free - 09. Why Don'tcha Do Me Right .flac
  Size: 15817701 Hash: 5B68AF4183A9D76A2794B86C927FF7B2 Accuracy: -m0
  Conclusion: CDDA 100%
  Signature: 04D04CD15000D5F4773CF16DCBF1B0FB0DF178BB
FILE: Frank Zappa - Absolutely Free - 08. Big Leg Emma.flac
  Size: 15196828 Hash: 3767C53741A928107AB33F10973224E8 Accuracy: -m0
  Conclusion: CDDA 100%
  Signature: E1DC162F53EF0E142350EA337193EDE1CE60D742
FILE: Frank Zappa - Absolutely Free - 07. Soft-Sell Conclusion.flac
  Size: 10350398 Hash: EFDE751D1767835F4400F3C16088FD4C Accuracy: -m0
  Conclusion: CDDA 100%
  Signature: C9912E8BA50C9050734988A94E8038FB357C0500
FILE: Frank Zappa - Absolutely Free - 06. Invocation And Ritual Dance Of The Young Pumpkin.flac
  Size: 47783536 Hash: 2DC9B1C6D49BF65860C8024708D0ADD0 Accuracy: -m0
  Conclusion: CDDA 100%
  Signature: C23B0B7D1CB44042463CE0C59E8FA74B6D9EC5F5
FILE: Frank Zappa - Absolutely Free - 05. Call Any Vegetable.flac
  Size: 13626165 Hash: F9D759AF814C39D62895A8E611A2AC61 Accuracy: -m0
  Conclusion: CDDA 100%
  Signature: 33BF5BDD42A724088112C3B0AF7703604052A6DC
FILE: Frank Zappa - Absolutely Free - 04. The Duke Regains His Chops.flac
  Size: 11013977 Hash: 9317466F2BA24B1D05A2146CBD62D74E Accuracy: -m0
  Conclusion: CDDA 99%
  Signature: 998D7B90FAE7AFB1BC670D30A45B88A7873488D5
FILE: Frank Zappa - Absolutely Free - 03. Amnesia Vivace.flac
  Size: 6407917 Hash: C5F20FDE4C0A1B01E02619FE3AB645CF Accuracy: -m0
  Conclusion: CDDA 100%
  Signature: FC97D244CC55C38E2D4B4CCAD83471A214D4942E
FILE: Frank Zappa - Absolutely Free - 02. The Duke Of Prunes.flac
  Size: 12341388 Hash: B37C3B234ACC458ED2E791AC24D279CE Accuracy: -m0
  Conclusion: CDDA 100%
  Signature: F8C78B10FC08DE2AB606278FAA4C99F38765C7A4
FILE: Frank Zappa - Absolutely Free - 01. Plastic People.flac
  Size: 22424238 Hash: D49B54378310AC20F1B7F225A0476AB4 Accuracy: -m0
  Conclusion: CDDA 99%
  Signature: D836216AA2E1B43BBE84AB730895971FE0DC63D0


Прoдолжительность: 01:10:54

Трeклист:
01. Are You Hung Up? (1:30)
02. Who Needs The Peace Corps? (2:36)
03. Concentration Moon (2:17)
04. Mom & Dad (2:20)
05. Telephone Conversation (0:45)
06. Bow Tie Daddy (0:33)
07. Harry, You're A Beast (1:22)
08. What's The Ugliest Part Of Your Body (1:03)
09. Absolutely Free (3:28)
10. Flower Punk (3:04)
11. Hot Poop (0:30)
12. Nasal Retentive Calliope Music (2:03)
13. Let's Make The Water Turn Black (1:45)
14. The Idiot Bastard Son (2:44)
15. Lonely Little Girl (1:45)
16. Take Your Clothes Off When You Dance (1:36)
17. What's The Ugliest Part Of Your Body (Reprise) (0:57)
18. Mother People (2:32)
19. The Chrome Plated Megaphone Of Destiny (6:26)
20. Lumpy Gravy I (15:49)
21. Lumpy Gravy II (15:50)
We're Only In It For The Money
Существует несколько вариантов этого несравненного упоения счастьем раннего Материнства. Самый редкий - несколько тысяч виниловых дисков первой пробной печати, с выкушенными цензурным агитпропом MGM, целыми кусками словесно-музыкальной ткани.
"Flower Power - фуфло"(Flower Punk), "Я не собираюсь больше пи.доболить на ваших презентациях" - голос Слив-Сыр (Absolutely Free), целый такт в Let's Make The Water Turn Black, где невинные строчки о маме-официантке, показались кому-то намеком на защечный приработок родительницы дуремаров по имени Ронни и Кенни. И так далее, и так далее. Чистка была произведена поистине грандиозная. Соответственно, коллекционная цена отпечатанного с матрицы MGS-1250-REV диска может доходить до 500 долларов США.
Пластмасса, последовавшего за пробным массового тиража, на которой после настоятельных требований Заппы, взбешенного своеволием тугоухих ревнителей нравов, было восстановлено не полностью, но все ж в некоторых местах первоначальное концептуальное единство, в частности, кусок со словами
I will love the police as
they kick the shit out of me
из Who Needs the Peace Corps, даже в идеальном состоянии не тянет на 60 баксов.
И уж совсем копейки просят за CDюки Rykodisk первой серии 84 года. И не потому даже, что идиотам-фанатам дороже и роднее оригинальный, кастрированный вариант, а потому, что незнающий покоя Фрэнк Винсент, восстановив для оцифрованного потомства утраченный в боях за свободу употребления слова [censored] материал, однако, не удержался и шедевр перемикшировал к чертовой матери. Переписал партии ударных и бас-гитары, а бессмертную песню о двух калифорнийских попердунчиках взял и ускорил раза в два. Такого надругательства над памятью юности безумной Фрэнку не мог простить никто. Не спасало даже восстановление обложки, пародирующей слюни битловского Сержанта.
ФВЗ, по своему обыкновению, казалось, был глух и безразличен к стенаньям, раздававшимся со всех сторон, бурчал чего-то о безмозглых любителях винила и игнорировал общественность. Все, сомнений уже не было - умерла, и слезы высохли, и целое поколение успело вырасти, ведать не ведавшее, как это звучало на самом-то деле, и вдруг, внезапно, в 1994 выясняется, что кремень, презирающий всех и вся (он тот же камень и капля за каплей его точит) для нового CD рерилиза завещал использовать оригинальный микс!
Самое смешное, что со всеми цензурными изъятиями и обложкой, на которой места не хватило метису из Сиэтла, по фамилии Хэндрикс. Кстати, соседство двух волшебников на картинке и главка из автобиографии FZ, повествующая о том, как Джими однажды в Гаррик Фитер завернув по случаю, провел там вечерок отменный на сцене вместе с Матерями, бередит души всех заппаманов от Аляски до Бермуд. О, мечта несбыточная, отрыть в каких-то таинственных, немыслимых анналах нечто вроде джема двух Джимов - трезвого Хендрикса и пьяного Морисона - ленту еще одного Нью-Йоркского вечера конца шестидесятых, Woke Up This Morning And Found Myself Great.

FZ
Billy Mundi -- drums, vocal, yak & black lace underwear
Bunk Gardner -- all woodwinds, mumbled weirdness
Roy Estrada -- electric bass, vocals, asthma
Don Preston -- retired
Jimmy Carl Black -- Indian of the group, drums, trumpet, vocals
Ian Underwood -- piano, woodwinds, wholesome
Euclid James Motorhead Sherwood -- road manager, soprano & baritone saxophone all purpose weirdness & teen appeal (we need it desperately)
Suzy Creamcheese -- telephone
Dick Barber -- snorks

Lumpy Gravy
Творение легендарное. Первая попытка человека ничто на этом свете неспособного (кроме, впрочем, себя) воспринимать всерьез, если не на все пуговицы застегнуться, то уж по крайней мере, ширинку привести в порядок.
Получив от Капитол Рекордз столь желанный заказ на нечто симфоническое, ФВЗ, усталости неведающий, партитуру накатал махом, за каких-то одиннадцать дней. Несколько недель записи и месяцы собирания шедевра буквально такт за тактом. Сутки за сутками безжалостной эксплуатации лучших звукоинженеров MGM. В итоге, неповторимый коллаж, которым восхищались все, но мало кто покупал, увы.
В любом случае музыка отменная, а диалоги, что поначалу смешат, потом утомляют, затем раздражают, становятся, оп, в один прекрасный день, или нет, начинают восприниматься, наконец, как то и было задумано создателем, необходимой и естественной составляющей в этой впечатляющей демонстрации неразрывного единства общей системы мировых колебаний.
Кстати, непредсказуемое скаканье от подкрутки карбюраторов к космогоническим теориям, чистейшие импровизации малознакомых людей.
"В 1967 мы в течение четырех месяцев записывали материал к разным проектам (Uncle Meat, We're Only In It For The Money, Ruben And The Jets, Lumpy Gravy) в APOSTOLIC STUDIOS, что в доме 53Е на 10 стрит в Нью-Йорке. Однажды мне пришла в голову идея укрепить два U87 внутри рояля, накрыть его плотной тканью, положить мешок с песком на сустинную педаль и пригласить всех, кто вертелся вокруг, засунуть голову внутрь и порассуждать произвольным образом на тему, которую я предлагал, через студийную громкоговорящую систему".
Из этих монологов досужей публики, с помощью бритвы, да бритвы!, и едких веществ затем были склеяны панхроматические диалоги в пространстве и во времени рассеянных сомнамбул. Виртуальная реальность своими руками, партейка в городки с Создателем всего сущего. Слабо?
А еще 25 лет хранить, тщательно оберегать идею и пленочки исходные, чтобы в 1993 уже на диджитальном аппарате все вновь перекрутив, пересобачив, превратить поток случайных ассоциаций случайных людей в некую всеобъемлющую музыкальную аллегорию жизни - Civilization Phaze III?
Вот вам и неопрятный субчик в футболочке какой-то заштатной бейсбольной шпаны Pipco. Фрэнсис Винсент Заппа, впрочем, пышное флибустьерское имя, оттиснутое на обложке, не попытка пролезть хоть бочком в Людвиги Ван, нет, смешное недоразумение.
"Мне было уже за двадцать, когда это вдруг выяснилось. Покуда мне не понадобился паспорт для нашей первой гастрольной поездки в Европу, я полагал с отвращением натуральным, что мое имя Фрэнсис. Но чтобы получить паспорт, я должен был предъявить свидетельство о рождении - таинственный документ, который я до этого в жизни не видел. Мать выслала мне его из Калифорнии, и из этой бумажки я к своей огромной радости вдруг узнаю, что имею кое-что получше Фрэнсиса, - Фрэнк, конечно, не Бог весть что - но я-то думал все эти годы..."

The Abnuceals Emuukha Electric Symphony Orchestra & Chorus:
Piano, celeste, electric harpsichord -- Paul Smith, Mike Lang, Lincoln Mayorga, Pete Jolly
Drums -- Johnny Guerin, Frankie Capp, Shelly Manne
Percussion (gongs, bells, vibes, marimba, timpani, timbales & assorted insanity) -- Emil Richards, Gene Estes, Alan Estes, Victor Feldman
Woodwinds (flute, bass flute, piccolo, oboe, English horn, Eb clarinet, Bb clarinet, bass clarinet, contra-bass clarinet, alto sax, bass sax, bassoon & contrabassoon) -- Ted Nash, Jules Jacob, John Rotella, Bunk Gardner, Don Christlieb, Gene Cipriano
French horns -- Arthur Maebe, Vincent De Rosa, Richard Parisi
Trumpet -- Jimmy Zito
Trombone -- Kenneth Shroyer
Guitars -- Jim Haynes, Tommy Tedesco, Tony Rizzi, Al Viola, Dennis Budimer
Bass -- Bob West, John Balkin, Jimmy Bond, Lyle Ritts, Chuck Berghofer
Strings -- Alexander Koltun, Tibor Zelig, Ralph Schaeffer, Bernard Kundell, William Kurasch, James Getzoff, Philip Goldberg, Leonard Selic, Arnold Belnick, Leonard Malarsky, Harold Ayres, Jerome J. Reisler, Harry Hyams, Joseph DiFiore, Jerome A. Kessler, Raymond J. Kelly, Joseph Saxon, Jessa Ehrlich, Harold G. Bemko
Chorus -- Louie The Turkey (Kuneo), Ronnie, Foon The Younger, Roy Estrada, Spider, Jim Motorhead Sherwood, J.K. Adams and Tony, Gilly, Maxine, Becky, Monica, All Night John (Kilgore), The Other John, Cal Schenkel, Pumpkin, Larry Fanoga, Eric & Charlotte, Jimmy Carl Black, Sammy, Harold, Charlie, Bruce etc.
Код:
Код:

Exact Audio Copy V0.99 prebeta 1 from 25. May 2007

Отчёт EAC об извлечении, выполненном 13. октября 2008, 21:10

Frank Zappa & The Mothers Of Invention / We're Only In It For The Money-Lumpy Gravy

Дисковод: _NEC    DVD_RW ND-3551A   Adapter: 0  ID: 0

Режим чтения                 : Достоверность
Использование точного потока : Да
Отключение кэша аудио        : Да
Использование указателей C2  : Да

Коррекция смещения при чтении                 : 48
Способность читать области Lead-in и Lead-out : Да
Заполнение пропущенных сэмплов тишиной        : Да
Удаление блоков с тишиной в начале и конце    : Нет
Интерфейс                                     : Встроенный Win32-интерфейс для Win NT/2000
Обработка зазоров                             : Добавлено к предыдущему треку

Выходной формат          : Пользовательский кодировщик
Выбранный битрейт        : 768 kBit/s
Качество                 : Высокий
Добавление ID3-тэга      : Нет
Утилита сжатия           : C:\Program Files\Exact Audio Copy\Flac\flac.exe
Дополнительные параметры : -6 -V -T "ARTIST=%a" -T "TITLE=%t" -T "ALBUM=%g" -T "DATE=%y" -T "TRACKNUMBER=%n" -T "GENRE=%m" -T "COMMENT=%e" %s -o %d
Смещение при сжатии      : 0

TOC извлечённого CD

     Трек |   Старт  | Длительность | Начальный сектор | Конечный сектор
    ---------------------------------------------------------------------
       1  |  0:00.00 |    1:29.43   |           0      |       6717
       2  |  1:29.43 |    2:35.32   |        6718      |      18374
       3  |  4:05.00 |    2:17.05   |       18375      |      28654
       4  |  6:22.05 |    2:19.60   |       28655      |      39139
       5  |  8:41.65 |    0:45.08   |       39140      |      42522
       6  |  9:26.73 |    0:33.27   |       42523      |      45024
       7  | 10:00.25 |    1:21.55   |       45025      |      51154
       8  | 11:22.05 |    1:03.25   |       51155      |      55904
       9  | 12:25.30 |    3:28.00   |       55905      |      71504
      10  | 15:53.30 |    3:04.10   |       71505      |      85314
      11  | 18:57.40 |    0:29.70   |       85315      |      87559
      12  | 19:27.35 |    2:02.50   |       87560      |      96759
      13  | 21:30.10 |    1:45.13   |       96760      |     104647
      14  | 23:15.23 |    2:43.42   |      104648      |     116914
      15  | 25:58.65 |    1:44.45   |      116915      |     124759
      16  | 27:43.35 |    1:35.30   |      124760      |     131914
      17  | 29:18.65 |    0:57.23   |      131915      |     136212
      18  | 30:16.13 |    2:31.55   |      136213      |     147592
      19  | 32:47.68 |    6:25.67   |      147593      |     176534
      20  | 39:13.60 |   15:48.45   |      176535      |     247679
      21  | 55:02.30 |   15:49.52   |      247680      |     318906

Трек  1

     Имя файла D:\video\We're only...Lumpy Gravy\Frank Zappa & The Mothers Of Invention - We're Only In It For The Money-Lumpy Gravy - 01. Are You Hung Up .wav

     Длина предзазора  0:00:02.00

     Пиковый уровень 48.3 %
     Качество трека 99.7 %
     CRC копии 1D36A5C2
     Трек не обнаружен в базе AccurateRip
     Копирование... OK

Трек  2

     Имя файла D:\video\We're only...Lumpy Gravy\Frank Zappa & The Mothers Of Invention - We're Only In It For The Money-Lumpy Gravy - 02. Who Needs The Peace Corps .wav

     Пиковый уровень 41.8 %
     Качество трека 100.0 %
     CRC копии 56EBA6D3
     Трек не обнаружен в базе AccurateRip
     Копирование... OK

Трек  3

     Имя файла D:\video\We're only...Lumpy Gravy\Frank Zappa & The Mothers Of Invention - We're Only In It For The Money-Lumpy Gravy - 03. Concentration Moon.wav

     Пиковый уровень 47.8 %
     Качество трека 99.8 %
     CRC копии E067B8B5
     Трек не обнаружен в базе AccurateRip
     Копирование... OK

Трек  4

     Имя файла D:\video\We're only...Lumpy Gravy\Frank Zappa & The Mothers Of Invention - We're Only In It For The Money-Lumpy Gravy - 04. Mom & Dad.wav

     Пиковый уровень 41.9 %
     Качество трека 100.0 %
     CRC копии 9A808F74
     Трек не обнаружен в базе AccurateRip
     Копирование... OK

Трек  5

     Имя файла D:\video\We're only...Lumpy Gravy\Frank Zappa & The Mothers Of Invention - We're Only In It For The Money-Lumpy Gravy - 05. Telephone Conversation.wav

     Пиковый уровень 24.4 %
     Качество трека 100.0 %
     CRC копии BDCD58C1
     Трек не обнаружен в базе AccurateRip
     Копирование... OK

Трек  6

     Имя файла D:\video\We're only...Lumpy Gravy\Frank Zappa & The Mothers Of Invention - We're Only In It For The Money-Lumpy Gravy - 06. Bow Tie Daddy.wav

     Пиковый уровень 36.2 %
     Качество трека 100.0 %
     CRC копии C461CDDB
     Трек не обнаружен в базе AccurateRip
     Копирование... OK

Трек  7

     Имя файла D:\video\We're only...Lumpy Gravy\Frank Zappa & The Mothers Of Invention - We're Only In It For The Money-Lumpy Gravy - 07. Harry, You're A Beast.wav

     Пиковый уровень 44.2 %
     Качество трека 100.ARTIST=%a0 %
     CRC копии E1676A7B
     Трек не обнаружен в базе AccurateRip
     Копирование... OK

Трек  8

     Имя файла D:\video\We're only...Lumpy Gravy\Frank Zappa & The Mothers Of Invention - We're Only In It For The Money-Lumpy Gravy - 08. What's The Ugliest Part Of Your Body.wav

     Пиковый уровень 29.9 %
     Качество трека 100.0 %
     CRC копии ECFFF3FC
     Трек не обнаружен в базе AccurateRip
     Копирование... OK

Трек  9

     Имя файла D:\video\We're only...Lumpy Gravy\Frank Zappa & The Mothers Of Invention - We're Only In It For The Money-Lumpy Gravy - 09. Absolutely Free.wav

     Пиковый уровень 38.1 %
     Качество трека 100.0 %
     CRC копии 25675890
     Трек не обнаружен в базе AccurateRip
     Копирование... OK

Трек 10

     Имя файла D:\video\We're only...Lumpy Gravy\Frank Zappa & The Mothers Of Invention - We're Only In It For The Money-Lumpy Gravy - 10. Flower Punk.wav

     Пиковый уровень 37.7 %
     Качество трека 100.0 %
     CRC копии F407F91B
     Трек не обнаружен в базе AccurateRip
     Копирование... OK

Трек 11

     Имя файла D:\video\We're only...Lumpy Gravy\Frank Zappa & The Mothers Of Invention - We're Only In It For The Money-Lumpy Gravy - 11. Hot Poop.wav

     Пиковый уровень 33.5 %
     Качество трека 100.0 %
     CRC копии B7409AD0
     Трек не обнаружен в базе AccurateRip
     Копирование... OK

Трек 12

     Имя файла D:\video\We're only...Lumpy Gravy\Frank Zappa & The Mothers Of Invention - We're Only In It For The Money-Lumpy Gravy - 12. Nasal Retentive Calliope Music.wav

     Пиковый уровень 39.4 %
     Качество трека 100.0 %
     CRC копии 22A9BD77
     Трек не обнаружен в базе AccurateRip
     Копирование... OK

Трек 13

     Имя файла D:\video\We're only...Lumpy Gravy\Frank Zappa & The Mothers Of Invention - We're Only In It For The Money-Lumpy Gravy - 13. Let's Make The Water Turn Black.wav

     Пиковый уровень 42.4 %
     Качество трека 99.7 %
     CRC копии F811902C
     Трек не обнаружен в базе AccurateRip
     Копирование... OK

Трек 14

     Имя файла D:\video\We're only...Lumpy Gravy\Frank Zappa & The Mothers Of Invention - We're Only In It For The Money-Lumpy Gravy - 14. The Idiot Bastard Son.wav

     Пиковый уровень 49.6 %
     Качество трека 100.0 %
     CRC копии 64B5CA55
     Трек не обнаружен в базе AccurateRip
     Копирование... OK

Трек 15

     Имя файла D:\video\We're only...Lumpy Gravy\Frank Zappa & The Mothers Of Invention - We're Only In It For The Money-Lumpy Gravy - 15. Lonely Little Girl.wav

     Пиковый уровень 46.6 %
     Качество трека 100.0 %
     CRC копии 0157795A
     Трек не обнаружен в базе AccurateRip
     Копирование... OK

Трек 16

     Имя файла D:\video\We're only...Lumpy Gravy\Frank Zappa & The Mothers Of Invention - We're Only In It For The Money-Lumpy Gravy - 16. Take Your Clothes Off When You Dance.wav

     Пиковый уровень 36.1 %
     Качество трека 100.0 %
     CRC копии 5460E5A6
     Трек не обнаружен в базе AccurateRip
     Копирование... OK

Трек 17

     Имя файла D:\video\We're only...Lumpy Gravy\Frank Zappa & The Mothers Of Invention - We're Only In It For The Money-Lumpy Gravy - 17. What's The Ugliest Part Of Your Body (Reprise).wav

     Пиковый уровень 36.9 %
     Качество трека 100.0 %
     CRC копии 3BEE4D3A
     Трек не обнаружен в базе AccurateRip
     Копирование... OK

Трек 18

     Имя файла D:\video\We're only...Lumpy Gravy\Frank Zappa & The Mothers Of Invention - We're Only In It For The Money-Lumpy Gravy - 18. Mother People.wav

     Пиковый уровень 46.7 %
     Качество трека 99.8 %
     CRC копии 73151344
     Трек не обнаружен в базе AccurateRip
     Копирование... OK

Трек 19

     Имя файла D:\video\We're only...Lumpy Gravy\Frank Zappa & The Mothers Of Invention - We're Only In It For The Money-Lumpy Gravy - 19. The Chrome Plated Megaphone Of Destiny.wav

     Пиковый уровень 33.2 %
     Качество трека 100.0 %
     CRC копии 02064690
     Трек не обнаружен в базе AccurateRip
     Копирование... OK

Трек 20

     Имя файла D:\video\We're only...Lumpy Gravy\Frank Zappa & The Mothers Of Invention - We're Only In It For The Money-Lumpy Gravy - 20. Lumpy Gravy I.wav

     Пиковый уровень 41.1 %
     Качество трека 100.0 %
     CRC копии 03119FAD
     Трек не обнаружен в базе AccurateRip
     Копирование... OK

Трек 21

     Имя файла D:\video\We're only...Lumpy Gravy\Frank Zappa & The Mothers Of Invention - We're Only In It For The Money-Lumpy Gravy - 21. Lumpy Gravy II.wav

     Подозрительная позиция 0:15:49

     Пиковый уровень 42.9 %
     Качество трека 99.8 %
     CRC копии 5E17808C
     Трек не обнаружен в базе AccurateRip
     Копирование завершено

Были ошибки

Конец отчёта
Код:
Код:
-----------------------

DON'T MODIFY THIS FILE

-----------------------

PERFORMER: auCDtect Task Manager, ver. 1.6.0 RC1 build 1.6.0.1
Copyright (c) 2008-2010 y-soft. All rights reserved
http:/y-soft.org

ANALYZER: auCDtect: CD records authenticity detector, version 0.8.2
Copyright (c) 2004 Oleg Berngardt. All rights reserved.
Copyright (c) 2004 Alexander Djourik. All rights reserved.

FILE: Frank Zappa & The Mothers Of Invention - We're Only In It For The Money-Lumpy Gravy - 21. Lumpy Gravy II.flac
  Size: 64298360 Hash: 302754F5490C7A9F3D7CA12E06FF0870 Accuracy: -m0
  Conclusion: CDDA 100%
  Signature: 099F7877F85D5D4DAD013E5FECECDA59AC75124F
FILE: Frank Zappa & The Mothers Of Invention - We're Only In It For The Money-Lumpy Gravy - 20. Lumpy Gravy I.flac
  Size: 68174060 Hash: 7376BEBC98C85CF0A4DAC11C6F47BB07 Accuracy: -m0
  Conclusion: CDDA 100%
  Signature: B625166B2E9AAAD3669FB82E8E97AEAB6E20E95C
FILE: Frank Zappa & The Mothers Of Invention - We're Only In It For The Money-Lumpy Gravy - 19. The Chrome Plated Megaphone Of Destiny.flac
  Size: 26593933 Hash: FD44C4910190D93629E3B21F33F37D7C Accuracy: -m0
  Conclusion: CDDA 100%
  Signature: E2ADE5156559752F34437A07E1C652907697B501
FILE: Frank Zappa & The Mothers Of Invention - We're Only In It For The Money-Lumpy Gravy - 18. Mother People.flac
  Size: 12221940 Hash: 233312ED2269CC99CA2CEC9EF5A0BFF4 Accuracy: -m0
  Conclusion: CDDA 76%
  Signature: 7359C27FE5114D7AB99EC36D82687BCC1F0CA7C5
FILE: Frank Zappa & The Mothers Of Invention - We're Only In It For The Money-Lumpy Gravy - 17. What's The Ugliest Part Of Your Body (Reprise).flac
  Size: 5256573 Hash: 4A81FB6708A78EEF49355B47E687DCCC Accuracy: -m0
  Conclusion: CDDA 43%
  Signature: A73A91E5BBB09369C93416BD0AD6381E99612D02
FILE: Frank Zappa & The Mothers Of Invention - We're Only In It For The Money-Lumpy Gravy - 16. Take Your Clothes Off When You Dance.flac
  Size: 9307905 Hash: 5FF968E4CCDE9C81EA6FC41326DE6972 Accuracy: -m0
  Conclusion: ???
  Signature: A6C0D96C72BBDE936D7B8A9F46561B4EC824CED7
FILE: Frank Zappa & The Mothers Of Invention - We're Only In It For The Money-Lumpy Gravy - 15. Lonely Little Girl.flac
  Size: 9135767 Hash: 563F8FB5A56BC2EA638A3F59428C3D1E Accuracy: -m0
  Conclusion: ???
  Signature: 9DE06D2B2AF8146ECA4234DB0199C29F8A45D76F
FILE: Frank Zappa & The Mothers Of Invention - We're Only In It For The Money-Lumpy Gravy - 14. The Idiot Bastard Son.flac
  Size: 15300472 Hash: 7F9C60639B3FBFCB58CEB6B5DF3BCA8A Accuracy: -m0
  Conclusion: CDDA 62%
  Signature: 3B9E95A5202F6568699FBA2AEAC415F9349CEB0D
FILE: Frank Zappa & The Mothers Of Invention - We're Only In It For The Money-Lumpy Gravy - 13. Let's Make The Water Turn Black.flac
  Size: 10821214 Hash: 554D7A72914D25E1A549D972EEEBAF6F Accuracy: -m0
  Conclusion: CDDA 100%
  Signature: 719EFC6CF348829DD5A21A01539FB9BEF5455DDA
FILE: Frank Zappa & The Mothers Of Invention - We're Only In It For The Money-Lumpy Gravy - 12. Nasal Retentive Calliope Music.flac
  Size: 11629338 Hash: CB797DA0DEB1ECCA94A9B8C3992C533A Accuracy: -m0
  Conclusion: CDDA 100%
  Signature: 788E4BFEE1762269D8E2CEC3EC5990702B9FA722
FILE: Frank Zappa & The Mothers Of Invention - We're Only In It For The Money-Lumpy Gravy - 11. Hot Poop.flac
  Size: 1897709 Hash: 0D9F51852B33B5C21C7A01069556E717 Accuracy: -m0
  Conclusion: CDDA 100%
  Signature: BA1DF0084FD492170466F9679545B9C1CF56112D
FILE: Frank Zappa & The Mothers Of Invention - We're Only In It For The Money-Lumpy Gravy - 10. Flower Punk.flac
  Size: 17782234 Hash: 44439860EEC073EC1C92AB4C24FDBFBF Accuracy: -m0
  Conclusion: CDDA 100%
  Signature: 9075C46850466317C443937615FF291B24286A16
FILE: Frank Zappa & The Mothers Of Invention - We're Only In It For The Money-Lumpy Gravy - 09. Absolutely Free.flac
  Size: 17488341 Hash: DE1499C51595B0FE2E77BFBE9D6FC44C Accuracy: -m0
  Conclusion: CDDA 85%
  Signature: 73243E2F0842421DAE62F66DC4E84DC7B9286C3D
FILE: Frank Zappa & The Mothers Of Invention - We're Only In It For The Money-Lumpy Gravy - 08. What's The Ugliest Part Of Your Body.flac
  Size: 5692062 Hash: C117F5701CC8777B4F9A174E92C1269C Accuracy: -m0
  Conclusion: CDDA 62%
  Signature: 6D54B23F3D8BD9ACE340D11D5E10109738A3A4A7
FILE: Frank Zappa & The Mothers Of Invention - We're Only In It For The Money-Lumpy Gravy - 07. Harry, You're A Beast.flac
  Size: 6995011 Hash: 4D244F9FC5FF8705018A8A4DDD12DECE Accuracy: -m0
  Conclusion: CDDA 100%
  Signature: CAA5749A831E73B0112A613326B9827FA5835A21
FILE: Frank Zappa & The Mothers Of Invention - We're Only In It For The Money-Lumpy Gravy - 06. Bow Tie Daddy.flac
  Size: 3276195 Hash: A43EFA50866E44B825D8CDC702F853D2 Accuracy: -m0
  Conclusion: CDDA 62%
  Signature: 6D0789B62031E0B5EB6DAD15ACC882081674FC41
FILE: Frank Zappa & The Mothers Of Invention - We're Only In It For The Money-Lumpy Gravy - 05. Telephone Conversation.flac
  Size: 2201400 Hash: A27A869E31C4DB63EB72D9CB30F05B2F Accuracy: -m0
  Conclusion: CDDA 99%
  Signature: 5B246D4A3332FC6E27D0735F2321B21221110FCF
FILE: Frank Zappa & The Mothers Of Invention - We're Only In It For The Money-Lumpy Gravy - 04. Mom & Dad.flac
  Size: 11436216 Hash: 1C04CEE1041AA7AE13966FDB76E9E737 Accuracy: -m0
  Conclusion: CDDA 100%
  Signature: 41B87B31F3981E63DA541FE3A8F7456E673E737B
FILE: Frank Zappa & The Mothers Of Invention - We're Only In It For The Money-Lumpy Gravy - 03. Concentration Moon.flac
  Size: 13351276 Hash: B174A5E4872E66B21F509B6AB8E8BC26 Accuracy: -m0
  Conclusion: MPEG 95%
  Signature: 829DC3B82CA0163AF2936E36A2CA062CFA8B778B
FILE: Frank Zappa & The Mothers Of Invention - We're Only In It For The Money-Lumpy Gravy - 02. Who Needs The Peace Corps .flac
  Size: 15028319 Hash: EA09FC47E7FBEAC8397AC52741E7F20E Accuracy: -m0
  Conclusion: CDDA 92%
  Signature: DEC0F923E1C1AFCC88545EA19FE24F0083EE1F15
FILE: Frank Zappa & The Mothers Of Invention - We're Only In It For The Money-Lumpy Gravy - 01. Are You Hung Up .flac
  Size: 6374307 Hash: 0A10D30C75D0A1E53386F117B89350FF Accuracy: -m0
  Conclusion: CDDA 87%
  Signature: 7EC41A7DA680CE1497231EDBE218A5842FF53DCD


Прoдолжительность: 01:07:38

Трeклист:
01. Prologue (3:07)
02. Progress? (4:45)
03. Like It Or Not (2:22)
04. The Jimmy Carl Black Philosophy Lesson (2:01)
05. Holding The Group Back (2:00)
06. Holiday In Berlin (0:57)
07. The Rejected Mexican Pope Leaves The Stage (2:55)
08. Undaunted, The Band Plays On (4:35)
09. Agency Man (3:18)
10. Epilogue (1:52)
11. King Kong (8:14)
12. Help, I'm A Rock (1:38)
13. Transylvania Boogie (3:07)
14. Pound For A Brown (6:50)
15. Sleeping In A Jar (2:24)
16. Let's Make The Water Turn Black (1:52)
17. Harry, You're A Beast (0:54)
18. The Orange County Lumber Truck (Part I) (0:47)
19. Oh No (3:22)
20. The Orange County Lumber Truck (Part II) (10:37)
(Live at Royal Festival Hall, London, England, 28.10.68)
Альбом был выпущен в 1993 году по мотивам (и записям, соответственно) гастролей (если можно применить это слово здесь) в Лондоне в 1968 году.
Прелестная штучка в двух частях. И обе чрезвычайно симпатичные. Сначала вашему вниманию предлагается пьеса (этакий черновичок Двухсот Мотелей) под названием Progress? Матери Изобретения весело дуркуют (слова - импровизация членов группы, со стороны Фрэнка лишь в самых общих чертах предписывалась линия поведения, контур образа, так сказать), а между взрывами хохота играют сами и заодно с Симфоническим Оркестром BBC, основные темы 200 Мотелей. Занятно, что большую часть этого лондонского балдежа 1968 года можно не только услышать, но и увидеть в фильме Фрэнка Uncle Meat.
Кстати, среди потешной клоунады обращает на себя внимание одна занятная деталь, трех музыкантов Ian'а, Bunk'а и Art'а, покидающих M.O.I. по ходу действия с тем, чтобы сформировать куда более дисциплинированный и слаженный коллектив, Фрэнк, будущий командир бессловесного синклавира, явно не одобряет, называя то роботами, то механизмами. Такая вот ирония, опережающая свое время.
Ну, а после потешных словопрений, рулад вокальных, право же замечательных, Роя Эстрады, и фортепьянных, специалиста по Моцарту Иэна Андервуда, следует то, что Фрэнк без особого восторга оценил как не отличный далеко, но так, более или менее пристойный пример концерта оригинальных Матерей Изобретения. Дай Бог, заметим уже мы, всем такого более или менее. Тридцать шесть минут настоящего звука из тех удивительных, не знавших плюсовок и минусовок, шестидесятых. Мило, чертовски мило! Да, и любо, чего душой кривить.
Прекрасный диск, между прочим, оформленный еще одним ветераном Мамкованья, героем фильма Дядя Мясо, автором множества пластиночных обложек, включая исторические, вроде бессмертных We're Only In It For The Money и One Size Fits All, Calvin'ом Schenkel'ем.

FZ
Ian Underwood -- alto sax, piano
Bunk Gardner -- tenor sax, clarinet
Euclid James Motorhead Sherwood -- baritone sax, tambourine
Roy Estrada -- bass, vocals
Don Preston -- electric piano, odd noises
Arthur Dyer Tripp III -- drums, percussion
Jimmy Carl Black -- drums
Members of The BBC Symphony Orchestra
Код:
Код:

Exact Audio Copy V0.99 prebeta 1 from 25. May 2007

Отчёт EAC об извлечении, выполненном 13. октября 2008, 20:50

Frank Zappa / Ahead Of Their Time

Дисковод: _NEC    DVD_RW ND-3551A   Adapter: 0  ID: 0

Режим чтения                 : Достоверность
Использование точного потока : Да
Отключение кэша аудио        : Да
Использование указателей C2  : Да

Коррекция смещения при чтении                 : 48
Способность читать области Lead-in и Lead-out : Да
Заполнение пропущенных сэмплов тишиной        : Да
Удаление блоков с тишиной в начале и конце    : Нет
Интерфейс                                     : Встроенный Win32-интерфейс для Win NT/2000
Обработка зазоров                             : Добавлено к предыдущему треку

Выходной формат          : Пользовательский кодировщик
Выбранный битрейт        : 768 kBit/s
Качество                 : Высокий
Добавление ID3-тэга      : Нет
Утилита сжатия           : C:\Program Files\Exact Audio Copy\Flac\flac.exe
Дополнительные параметры : -6 -V -T "ARTIST=%a" -T "TITLE=%t" -T "ALBUM=%g" -T "DATE=%y" -T "TRACKNUMBER=%n" -T "GENRE=%m" -T "COMMENT=%e" %s -o %d
Смещение при сжатии      : 0

TOC извлечённого CD

     Трек |   Старт  | Длительность | Начальный сектор | Конечный сектор
    ---------------------------------------------------------------------
       1  |  0:00.00 |    3:07.27   |           0      |      14051
       2  |  3:07.27 |    4:44.60   |       14052      |      35411
       3  |  7:52.12 |    2:21.38   |       35412      |      46024
       4  | 10:13.50 |    2:01.27   |       46025      |      55126
       5  | 12:15.02 |    2:00.25   |       55127      |      64151
       6  | 14:15.27 |    0:57.05   |       64152      |      68431
       7  | 15:12.32 |    2:55.23   |       68432      |      81579
       8  | 18:07.55 |    4:34.35   |       81580      |     102164
       9  | 22:42.15 |    3:17.32   |      102165      |     116971
      10  | 25:59.47 |    1:52.03   |      116972      |     125374
      11  | 27:51.50 |    8:13.45   |      125375      |     162394
      12  | 36:05.20 |    1:38.12   |      162395      |     169756
      13  | 37:43.32 |    3:07.10   |      169757      |     183791
      14  | 40:50.42 |    6:50.25   |      183792      |     214566
      15  | 47:40.67 |    2:24.05   |      214567      |     225371
      16  | 50:04.72 |    1:51.30   |      225372      |     233726
      17  | 51:56.27 |    0:53.65   |      233727      |     237766
      18  | 52:50.17 |    0:46.73   |      237767      |     241289
      19  | 53:37.15 |    3:22.12   |      241290      |     256451
      20  | 56:59.27 |   10:36.38   |      256452      |     304189

Трек  1

     Имя файла D:\video\Ahead Of Their Time\Frank Zappa - Ahead Of Their Time - 01. Prologue.wav

     Длина предзазора  0:00:02.00

     Пиковый уровень 99.1 %
     Качество трека 100.0 %
     CRC копии 4F51FAE2
     Неточное извлечение (доверие 3)  [79AC006D], но должно быть [0A39EB26]
     Копирование... OK

Трек  2

     Имя файла D:\video\Ahead Of Their Time\Frank Zappa - Ahead Of Their Time - 02. Progress .wav

     Пиковый уровень 100.0 %
     Качество трека 100.0 %
     CRC копии A29473AF
     Неточное извлечение (доверие 3)  [BD16A699], но должно быть [107E05E5]
     Копирование... OK

Трек  3

     Имя файла D:\video\Ahead Of Their Time\Frank Zappa - Ahead Of Their Time - 03. Like It Or Not.wav

     Пиковый уровень 100.0 %
     Качество трека 99.8 %
     CRC копии 3B184ED0
     Неточное извлечение (доверие 3)  [9E913E63], но должно быть [4706DF2F]
     Копирование... OK

Трек  4

     Имя файла D:\video\Ahead Of Their Time\Frank Zappa - Ahead Of Their Time - 04. The Jimmy Carl Black Philosophy Lesson.wav

     Пиковый уровень 100.0 %
     Качество трека 100.0 %
     CRC копии D9FB2E22
     Неточное извлечение (доверие 3)  [03075872], но должно быть [8BD6EDE6]
     Копирование... OK

Трек  5

     Имя файла D:\video\Ahead Of Their Time\Frank Zappa - Ahead Of Their Time - 05. Holding The Group Back.wav

     Пиковый уровень 100.0 %
     Качество трека 100.0 %
     CRC копии 090E1DDC
     Неточное извлечение (доверие 3)  [B02D3AB5], но должно быть [CF524FF1]
     Копирование... OK

Трек  6

     Имя файла D:\video\Ahead Of Their Time\Frank Zappa - Ahead Of Their Time - 06. Holiday In Berlin.wav

     Пиковый уровень 96.8 %
     Качество трека 99.6 %
     CRC копии CE1E7727
     Неточное извлечение (доверие 3)  [AC2C4EFE], но должно быть [ECEA523F]
     Копирование... OK

Трек  7

     Имя файла D:\video\Ahead Of Their Time\Frank Zappa - Ahead Of Their Time - 07. The Rejected Mexican Pope Leaves The Stage.wav

     Пиковый уровень 100.0 %
     Качество трека 99.8 %
     CRC копии E77638D1
     Неточное извлечение (доверие 3)  [D5FA2332], но должно быть [A3F852FD]
     Копирование... OK

Трек  8

     Имя файла D:\video\Ahead Of Their Time\Frank Zappa - Ahead Of Their Time - 08. Undaunted, The Band Plays On.wav

     Пиковый уровень 100.0 %
     Качество трека 100.0 %
     CRC копии 75252B51
     Неточное извлечение (доверие 3)  [354DAE63], но должно быть [DA813FB4]
     Копирование... OK

Трек  9

     Имя файла D:\video\Ahead Of Their Time\Frank Zappa - Ahead Of Their Time - 09. Agency Man.wav

     Пиковый уровень 100.0 %
     Качество трека 100.0 %
     CRC копии E9314B72
     Неточное извлечение (доверие 3)  [46F12A48], но должно быть [399DCEDE]
     Копирование... OK

Трек 10

     Имя файла D:\video\Ahead Of Their Time\Frank Zappa - Ahead Of Their Time - 10. Epilogue.wav

     Пиковый уровень 100.0 %
     Качество трека 100.0 %
     CRC копии 3C1AB910
     Неточное извлечение (доверие 3)  [06996ECF], но должно быть [577E7E59]
     Копирование... OK

Трек 11

     Имя файла D:\video\Ahead Of Their Time\Frank Zappa - Ahead Of Their Time - 11. King Kong.wav

     Пиковый уровень 96.9 %
     Качество трека 100.0 %
     CRC копии 79EFAF6E
     Неточное извлечение (доверие 3)  [C29B5244], но должно быть [00782F64]
     Копирование... OK

Трек 12

     Имя файла D:\video\Ahead Of Their Time\Frank Zappa - Ahead Of Their Time - 12. Help, I'm A Rock.wav

     Пиковый уровень 84.3 %
     Качество трека 99.7 %
     CRC копии 0C478CB0
     Неточное извлечение (доверие 3)  [BD5C6CD9], но должно быть [01453536]
     Копирование... OK

Трек 13

     Имя файла D:\video\Ahead Of Their Time\Frank Zappa - Ahead Of Their Time - 13. Transylvania Boogie.wav

     Пиковый уровень 95.6 %
     Качество трека 100.0 %
     CRC копии 5D9E8F23
     Неточное извлечение (доверие 3)  [05DEA004], но должно быть [6718EB51]
     Копирование... OK

Трек 14

     Имя файла D:\video\Ahead Of Their Time\Frank Zappa - Ahead Of Their Time - 14. Pound For A Brown.wav

     Пиковый уровень 100.0 %
     Качество трека 100.0 %
     CRC копии 82615EF4
     Неточное извлечение (доверие 3)  [859BF1E1], но должно быть [F7956EB0]
     Копирование... OK

Трек 15

     Имя файла D:\video\Ahead Of Their Time\Frank Zappa - Ahead Of Their Time - 15. Sleeping In A Jar.wav

     Пиковый уровень 100.0 %
     Качество трека 99.8 %
     CRC копии 2592EE4F
     Неточное извлечение (доверие 3)  [B412EDDD], но должно быть [BB0B405B]
     Копирование... OK

Трек 16

     Имя файла D:\video\Ahead Of Their Time\Frank Zappa - Ahead Of Their Time - 16. Let's Make The Water Turn Black.wav

     Пиковый уровень 89.3 %
     Качество трека 100.0 %
     CRC копии 7E18B07F
     Неточное извлечение (доверие 3)  [8D39D68D], но должно быть [2D026A1B]
     Копирование... OK

Трек 17

     Имя файла D:\video\Ahead Of Their Time\Frank Zappa - Ahead Of Their Time - 17. Harry, You're A Beast.wav

     Пиковый уровень 86.5 %
     Качество трека 99.6 %
     CRC копии 2F61F777
     Неточное извлечение (доверие 3)  [606C031A], но должно быть [1D02AA6C]
     Копирование... OK

Трек 18

     Имя файла D:\video\Ahead Of Their Time\Frank Zappa - Ahead Of Their Time - 18. The Orange County Lumber Truck (Part I).wav

     Пиковый уровень 79.8 %
     Качество трека 100.0 %
     CRC копии AF2A800F
     Неточное извлечение (доверие 3)  [7A0E211D], но должно быть [4824380A]
     Копирование... OK

Трек 19

     Имя файла D:\video\Ahead Of Their Time\Frank Zappa - Ahead Of Their Time - 19. Oh No.wav

     Пиковый уровень 96.2 %
     Качество трека 100.0 %
     CRC копии 90467BB0
     Неточное извлечение (доверие 3)  [EBBA2FC3], но должно быть [B266531C]
     Копирование... OK

Трек 20

     Имя файла D:\video\Ahead Of Their Time\Frank Zappa - Ahead Of Their Time - 20. The Orange County Lumber Truck (Part II).wav

     Пиковый уровень 97.9 %
     Качество трека 99.9 %
     CRC копии 4910995D
     Неточное извлечение (доверие 3)  [D66D59A3], но должно быть [B61B4EA5]
     Копирование... OK

Не все треки извлечены точно

Конец отчёта
Код:
Код:
-----------------------

DON'T MODIFY THIS FILE

-----------------------

PERFORMER: auCDtect Task Manager, ver. 1.6.0 RC1 build 1.6.0.1
Copyright (c) 2008-2010 y-soft. All rights reserved
http:/y-soft.org

ANALYZER: auCDtect: CD records authenticity detector, version 0.8.2
Copyright (c) 2004 Oleg Berngardt. All rights reserved.
Copyright (c) 2004 Alexander Djourik. All rights reserved.

FILE: Frank Zappa - Ahead Of Their Time - 20. The Orange County Lumber Truck (Part II).flac
  Size: 76218764 Hash: D5675D42DF3FC95E756503CF0E53AD1C Accuracy: -m0
  Conclusion: CDDA 100%
  Signature: 366222F26503299DBF95F221A307FEF9AC29733E
FILE: Frank Zappa - Ahead Of Their Time - 19. Oh No.flac
  Size: 24476633 Hash: 1B3F09E2A11C78CD15A5763D98F13AEC Accuracy: -m0
  Conclusion: CDDA 100%
  Signature: 76E93810E1D14F8414EFFA133C9F3335B254BAAB
FILE: Frank Zappa - Ahead Of Their Time - 18. The Orange County Lumber Truck (Part I).flac
  Size: 5496335 Hash: AB803CD402D0D6EAB10C41B51D968BBB Accuracy: -m0
  Conclusion: CDDA 100%
  Signature: F6F5938350109F604EEB5A7C1796EA76120137C9
FILE: Frank Zappa - Ahead Of Their Time - 17. Harry, You're A Beast.flac
  Size: 6092095 Hash: 7810E4173A84E5E83D7646C8ECD6480B Accuracy: -m0
  Conclusion: CDDA 100%
  Signature: 18C72C87470E9656195EE2F40081A6DBF2B41F1B
FILE: Frank Zappa - Ahead Of Their Time - 16. Let's Make The Water Turn Black.flac
  Size: 13362635 Hash: D74C32CED0F610957D0CB91D43DE4CC4 Accuracy: -m0
  Conclusion: CDDA 100%
  Signature: CAD0E01AC175B0A6166FE0E6621D69FF10EBEEC1
FILE: Frank Zappa - Ahead Of Their Time - 15. Sleeping In A Jar.flac
  Size: 15598140 Hash: E3C2DDB27FB086F19FB8C86352B951A3 Accuracy: -m0
  Conclusion: CDDA 100%
  Signature: 17F6F2D77658E052A6D93638D41B65432A84F415
FILE: Frank Zappa - Ahead Of Their Time - 14. Pound For A Brown.flac
  Size: 49351241 Hash: 59665C9EC34406BD7E1993183438AC65 Accuracy: -m0
  Conclusion: CDDA 100%
  Signature: 60FAF7AD3769EB8ADD9B6E66C22DF2A5E94D8183
FILE: Frank Zappa - Ahead Of Their Time - 13. Transylvania Boogie.flac
  Size: 19132465 Hash: 4648659CD1E011B4DAE6AECC2C091404 Accuracy: -m0
  Conclusion: CDDA 100%
  Signature: CDA2268B82F4650FF2E1A3B09D5EB797472335BF
FILE: Frank Zappa - Ahead Of Their Time - 12. Help, I'm A Rock.flac
  Size: 11692531 Hash: A97045DE899AE20CCDA4C5BA22A98AA2 Accuracy: -m0
  Conclusion: CDDA 100%
  Signature: FD6CC4F493D5B8659D9838766CD5D57CB9189DA0
FILE: Frank Zappa - Ahead Of Their Time - 11. King Kong.flac
  Size: 53462978 Hash: 4853CD79B86813A3606F64BF1B8222A1 Accuracy: -m0
  Conclusion: MPEG 95%
  Signature: 3855133019F79D833F245085D35B293FA6E1BACB
FILE: Frank Zappa - Ahead Of Their Time - 10. Epilogue.flac
  Size: 12093639 Hash: 5C930EFF66A21E445F03AA1A66FA7942 Accuracy: -m0
  Conclusion: CDDA 100%
  Signature: 967956202F603853C0122FFF11FF67E429F2774B
FILE: Frank Zappa - Ahead Of Their Time - 09. Agency Man.flac
  Size: 21243513 Hash: 9FE0310AD86207B3779B4397DA74631F Accuracy: -m0
  Conclusion: CDDA 99%
  Signature: 9583F81D340168A11D65F9169CFC5DAFC5120630
FILE: Frank Zappa - Ahead Of Their Time - 08. Undaunted, The Band Plays On.flac
  Size: 27625668 Hash: C225547D76A807B72013C428ECA37104 Accuracy: -m0
  Conclusion: CDDA 100%
  Signature: 876C5221DD0E76ED149CCB1F422A7C47D89B4E96
FILE: Frank Zappa - Ahead Of Their Time - 07. The Rejected Mexican Pope Leaves The Stage.flac
  Size: 18594285 Hash: AC6AAC6288C0379F4871AAC7BBFEA65D Accuracy: -m0
  Conclusion: CDDA 100%
  Signature: 951CE29FD69647F65CDA3CDDA24C4463A2709AD9
FILE: Frank Zappa - Ahead Of Their Time - 06. Holiday In Berlin.flac
  Size: 5472242 Hash: 00279F69152B11E43247DB4EC5D33CE8 Accuracy: -m0
  Conclusion: CDDA 100%
  Signature: 7A5AB01E12E8A4DA4119002CF3B126C4496A45D7
FILE: Frank Zappa - Ahead Of Their Time - 05. Holding The Group Back.flac
  Size: 12190990 Hash: 34621DE8C96C5C6A6E01318F975C963E Accuracy: -m0
  Conclusion: CDDA 100%
  Signature: C9AA4F53CC532AB9BA1FA70785C45BA3D7BD5E63
FILE: Frank Zappa - Ahead Of Their Time - 04. The Jimmy Carl Black Philosophy Lesson.flac
  Size: 12497314 Hash: F080EA24E3358FEC1B1B271B6B067DB5 Accuracy: -m0
  Conclusion: CDDA 100%
  Signature: E5FF699490F90D599589C5D282B583B823709EC4
FILE: Frank Zappa - Ahead Of Their Time - 03. Like It Or Not.flac
  Size: 14009851 Hash: 69D0A40E97EC57D11E9BDA05D1BEA48C Accuracy: -m0
  Conclusion: CDDA 100%
  Signature: 491FC2382FCEE39A3F964B5C9A598D9615492D8B
FILE: Frank Zappa - Ahead Of Their Time - 02. Progress .flac
  Size: 29975940 Hash: 878E796BB412434106964191030D8C5F Accuracy: -m0
  Conclusion: CDDA 100%
  Signature: 70317719CF54279E745093E096582F00ACA965EE
FILE: Frank Zappa - Ahead Of Their Time - 01. Prologue.flac
  Size: 17111631 Hash: 4C8027EC212FC0D2EB952C15846FE3C4 Accuracy: -m0
  Conclusion: CDDA 100%
  Signature: 65FB0C25BEB996C7739DD7112F593F550B506E75

Все сканы лежат в соответствующих папках
Правила, инструкции, FAQ!!!
Торрент  Добавлен [16 мар 2014, 00:15] Скачать торрент Магнет ссылка
Скачать торрент
[ Размер 21.1 КБ / Просмотров 35 ]

Статус  
 
Размер  1.17 ГБ
Приватный: Нет (DHT включён)
.torrent скачан  1
 


     Отправить личное сообщение
   
Страница 1 из 1
Показать сообщения за:  Поле сортировки  
Начать новую тему Ответить на тему


Сейчас этот форум просматривают: нет зарегистрированных пользователей и гости: 0


Вы не можете начинать темы
Вы не можете отвечать на сообщения
Вы не можете редактировать свои сообщения
Вы не можете удалять свои сообщения
Вы не можете добавлять вложения

Перейти:  
cron