Начать новую тему Ответить на тему
Статистика раздачи
Размер: 722.23 МБ | Добавлен: 01 июл 2017, 08:29 | Скачали: 1
Сидеров: 9  [0 байт/сек]    Личеров: 3  [0 байт/сек]
Пред. тема | След. тема 

Автор
Сообщение

СообщениеДобавлено: 01 июл 2017, 08:29 

Ответить с цитатой 

Francoise Hardy / Comment te dire adieu
Формат записи/Источник записи: [TR24][OF]
Наличие водяных знаков: Нет
Год издания/переиздания диска: 1968/2016
Жанр: Pop, Chanson
Издатель(лейбл): Parlophone France
Продолжительность: 29:37
Наличие сканов в содержимом раздачи: Только обложка альбома
Треклист:
1. Comment te dire adieu
2. Où va la chance
3. L'anamour
4. Suzanne
5. Il n'y a pas d'amour heureux
6. La mésange
7. Parlez-moi de lui
8. A quoi ça sert
9. Il vaut mieux une petite maison dans la main qu'un grand château dans les nuages
10. La rue des coeurs perdus
11. Etonnez-moi, Benoît (Version single)
12. La mer, les étoiles et le vent
Контейнер: FLAC (*.flac)
Тип рипа: tracks
Разрядность: 24/96
Формат: PCM
Количество каналов: 2.0
Код:
foobar2000 1.3.13 / Замер динамического диапазона (DR) 1.1.1
Дата отчёта:  2017-01-23 10:23:34
--------------------------------------------------------------------------------
Анализ:   Françoise Hardy / Comment te dire adieu (remasterisé en 2016)
--------------------------------------------------------------------------------
DR         Пики         RMS           Продолжительность трека
--------------------------------------------------------------------------------
DR9       -0.03 дБ   -10.30 дБ      2:28 01-Comment te dire adieu (remasterisé en 2016)
DR7       -0.03 дБ    -8.61 дБ      3:12 02-Où va la chance (remasterisé en 2016)
DR6       -0.03 дБ    -8.31 дБ      2:14 03-L'anamour (remasterisé en 2016)
DR7       -0.03 дБ    -9.22 дБ      3:06 04-Suzanne (remasterisé en 2016)
DR7       -0.03 дБ    -9.09 дБ      2:19 05-Il n'y a pas d'amour heureux (remasterisé en 2016)
DR7       -0.03 дБ    -9.13 дБ      2:17 06-La mésange (remasterisé en 2016)
DR8       -0.03 дБ    -9.62 дБ      2:36 07-Parlez-moi de lui (remasterisé en 2016)
DR8       -0.03 дБ    -9.92 дБ      3:31 08-A quoi ça sert (remasterisé en 2016)
DR8       -0.03 дБ   -10.25 дБ      2:22 09-Il vaut mieux une petite maison dans la main qu'un grand château dans les nuages (remasterisé en 2016)
DR7       -0.03 дБ    -8.83 дБ      2:06 10-La rue des coeurs perdus (remasterisé en 2016)
DR8       -0.03 дБ    -9.79 дБ      3:01 11-Etonnez-moi, Benoît (Version single) [remasterisé en 2016]
DR9       -0.03 дБ   -10.58 дБ      1:52 12-La mer, les étoiles et le vent (remasterisé en 2016)
--------------------------------------------------------------------------------
Количество треков: 12
Реальные значения DR: DR8
Частота:   96000 Гц
Каналов:   2
Разрядность:   24
Битрейт:   3241 кбит/с
Кодек:   FLAC
================================================================================


Источник (релизер):
Правила, инструкции, FAQ!!!
Торрент  Добавлен [01 июл 2017, 08:29] Скачать торрент Магнет ссылка
Скачать торрент
[ Размер 15.38 КБ / Просмотров 87 ]

Статус
Проверен 
 
Размер  722.23 МБ
Приватный: Нет (DHT включён)
.torrent скачан  1
 


     Отправить личное сообщение
   
Страница 1 из 1
Показать сообщения за:  Поле сортировки  
Начать новую тему Ответить на тему


Сейчас этот форум просматривают: нет зарегистрированных пользователей и гости: 0


Вы не можете начинать темы
Вы не можете отвечать на сообщения
Вы не можете редактировать свои сообщения
Вы не можете удалять свои сообщения
Вы не можете добавлять вложения

Перейти:  
cron
cron