Начать новую тему Ответить на тему
Статистика раздачи
Размер: 1.01 ГБ | Добавлен: 01 июл 2017, 08:16 | Скачали: 1
Сидеров: 1  [0 байт/сек]    Личеров: 0  [0 байт/сек]
Пред. тема | След. тема 

Автор
Сообщение

СообщениеДобавлено: 01 июл 2017, 08:16 

Ответить с цитатой 

Francis Cabrel - Samedi soir sur la terre
Формат записи/Источник записи: [TR24][OF]
Наличие водяных знаков: Нет
Издание: Remastered
Год издания/переиздания диска: 1994/2013
Жанр: Pop, Rock, Folk, Chanson française
Издатель(лейбл): Columbia
Продолжительность: 50:49
Наличие сканов в содержимом раздачи: Только обложка альбома
Треклист:
01. La corrida (5:43)
02. Assis sur le rebord du monde (3:28)
03. La cabane du pêcheur (5:11)
04. Samedi soir sur la terre (6:54)
05. Je t'aimais, je t'aime, je t'aimerai (4:38)
06. Les vidanges du diable (4:50)
07. L' arbre va tomber (5:33)
08. Octobre (3:36)
09. Le noceur (6:55)
10. Tôt ou tard s'en aller (4:01) 

Контейнер: FLAC (*.flac)
Тип рипа: tracks
Разрядность: 24/96
Количество каналов: 2.0
Код:
foobar2000 1.3.9 / Dynamic Range Meter 1.1.1
log date: 2016-11-29 11:01:33
--------------------------------------------------------------------------------
Analyzed: Francis Cabrel / Samedi soir sur la terre
--------------------------------------------------------------------------------
DR         Peak         RMS     Duration Track
--------------------------------------------------------------------------------
DR10      -0.10 dB   -13.86 dB      5:43 01-La corrida
DR12      -0.10 dB   -14.78 dB      3:28 02-Assis sur le rebord du monde
DR9       -0.10 dB   -10.94 dB      5:11 03-La cabane du pêcheur
DR10      -0.10 dB   -13.35 dB      6:54 04-Samedi soir sur la terre
DR12      -0.10 dB   -14.53 dB      4:38 05-Je t'aimais, je t'aime, je t'aimerai
DR11      -0.10 dB   -13.95 dB      4:50 06-Les vidanges du diable
DR9       -0.10 dB   -10.67 dB      5:33 07-L' arbre va tomber
DR11      -0.10 dB   -13.06 dB      3:36 08-Octobre
DR9       -0.10 dB   -11.71 dB      6:55 09-Le noceur
DR12      -0.10 dB   -15.70 dB      4:01 10-Tôt ou tard s'en aller
--------------------------------------------------------------------------------
Number of tracks:  10
Official DR value: DR10
Samplerate:        96000 Hz
Channels:          2
Bits per sample:   24
Bitrate:           2624 kbps
Codec:             FLAC
================================================================================
Источник: qobuz[/spoiler]
Правила, инструкции, FAQ!!!
Торрент  Добавлен [01 июл 2017, 08:16] Скачать торрент Магнет ссылка
Скачать торрент
[ Размер 11.34 КБ / Просмотров 50 ]

Статус
Проверен 
 
Размер  1.01 ГБ
Приватный: Нет (DHT включён)
.torrent скачан  1
 


     Отправить личное сообщение
   
Страница 1 из 1
Показать сообщения за:  Поле сортировки  
Начать новую тему Ответить на тему


Сейчас этот форум просматривают: нет зарегистрированных пользователей и гости: 0


Вы не можете начинать темы
Вы не можете отвечать на сообщения
Вы не можете редактировать свои сообщения
Вы не можете удалять свои сообщения
Вы не можете добавлять вложения

Перейти:  
cron