Начать новую тему Ответить на тему
Статистика раздачи
Размер: 283.49 МБ | Добавлен: 16 мар 2014, 00:55 | Скачали: 0
Сидеров: 0  [0 байт/сек]    Личеров: 0  [0 байт/сек]
Пред. тема | След. тема 

Автор
Сообщение

СообщениеДобавлено: 16 мар 2014, 00:55 

Ответить с цитатой 

For All I Am
- Skinwalker


Год выпуска: 2013
Жанр: Metalcore | Post-Hardcore
Продолжительность: 00:37:44
Тип издания: Альбом
Страна: США



Треклист:

01. For Too Long I've Let You Haunt Me
02. Make History
03. Oppressor
04. Living Dead
05. Eye Of The Storm
06. Mind Trap
07. I, Artificial
08. Limbo
09. Forgotten
10. The Strange Daze


Код:
Код:
Exact Audio Copy V1.0 beta 3 from 29. August 2011

EAC extraction logfile from 4. September 2013, 14:51

For All I Am / Skinwalker

Used drive  : TSSTcorpCDDVDW TS-L633C   Adapter: 0  ID: 1

Read mode               : Secure
Utilize accurate stream : Yes
Defeat audio cache      : Yes
Make use of C2 pointers : No

Read offset correction                      : 6
Overread into Lead-In and Lead-Out          : No
Fill up missing offset samples with silence : Yes
Delete leading and trailing silent blocks   : No
Null samples used in CRC calculations       : Yes
Used interface                              : Native Win32 interface for Win NT & 2000
Gap handling                                : Appended to previous track

Used output format              : User Defined Encoder
Selected bitrate                : 1024 kBit/s
Quality                         : High
Add ID3 tag                     : No
Command line compressor         : C:\Program Files (x86)\Exact Audio Copy\Flac\flac.exe
Additional command line options : -8 -V -T "ARTIST=%artist%" -T "TITLE=%title%" -T "ALBUM=%albumtitle%" -T "DATE=%year%" -T "TRACKNUMBER=%tracknr%" -T "GENRE=%genre%" -T "PERFORMER=%albuminterpret%" -T "COMPOSER=%composer%" %haslyrics%--tag-from-file=LYRICS="%lyricsfile%"%haslyrics% -T "ALBUMARTIST=%albumartist%" -T "DISCNUMBER=%cdnumber%" -T "TOTALDISCS=%totalcds%" -T "TOTALTRACKS=%numtracks%" -T "COMMENT=%comment%" %source% -o %dest%

TOC of the extracted CD

     Track |   Start  |  Length  | Start sector | End sector
    ---------------------------------------------------------
        1  |  0:00.00 |  3:43.16 |         0    |    16740
        2  |  3:43.16 |  4:03.02 |     16741    |    34967
        3  |  7:46.18 |  3:12.30 |     34968    |    49397
        4  | 10:58.48 |  3:45.66 |     49398    |    66338
        5  | 14:44.39 |  3:39.04 |     66339    |    82767
        6  | 18:23.43 |  4:12.33 |     82768    |   101700
        7  | 22:36.01 |  3:36.00 |    101701    |   117900
        8  | 26:12.01 |  4:07.70 |    117901    |   136495
        9  | 30:19.71 |  3:01.55 |    136496    |   150125
       10  | 33:21.51 |  4:22.70 |    150126    |   169845

Track  1

     Filename D:\Convert\Exact Audio Copy\For All I Am - Skinwalker (2013) [FLAC]\01 - For Too Long I've Let You Haunt Me.wav

     Pre-gap length  0:00:02.00

     Peak level 100.0 %
     Extraction speed 2.8 X
     Track quality 100.0 %
     Test CRC F0D66952
     Copy CRC F0D66952
     Track not present in AccurateRip database
     Copy OK

Track  2

     Filename D:\Convert\Exact Audio Copy\For All I Am - Skinwalker (2013) [FLAC]\02 - Make History.wav

     Peak level 100.0 %
     Extraction speed 2.5 X
     Track quality 99.9 %
     Test CRC 7387896B
     Copy CRC 7387896B
     Track not present in AccurateRip database
     Copy OK

Track  3

     Filename D:\Convert\Exact Audio Copy\For All I Am - Skinwalker (2013) [FLAC]\03 - Oppressor.wav

     Pre-gap length  0:00:00.25

     Peak level 100.0 %
     Extraction speed 3.2 X
     Track quality 100.0 %
     Test CRC A3DB9FE4
     Copy CRC A3DB9FE4
     Track not present in AccurateRip database
     Copy OK

Track  4

     Filename D:\Convert\Exact Audio Copy\For All I Am - Skinwalker (2013) [FLAC]\04 - Living Dead.wav

     Pre-gap length  0:00:00.96

     Peak level 100.0 %
     Extraction speed 3.4 X
     Track quality 100.0 %
     Test CRC 5C9C7526
     Copy CRC 5C9C7526
     Track not present in AccurateRip database
     Copy OK

Track  5

     Filename D:\Convert\Exact Audio Copy\For All I Am - Skinwalker (2013) [FLAC]\05 - Eye Of The Storm.wav

     Pre-gap length  0:00:01.00

     Peak level 100.0 %
     Extraction speed 3.6 X
     Track quality 100.0 %
     Test CRC 8D497BFA
     Copy CRC 8D497BFA
     Track not present in AccurateRip database
     Copy OK

Track  6

     Filename D:\Convert\Exact Audio Copy\For All I Am - Skinwalker (2013) [FLAC]\06 - Mind Trap.wav

     Pre-gap length  0:00:01.96

     Peak level 100.0 %
     Extraction speed 3.9 X
     Track quality 100.0 %
     Test CRC BBB94CEE
     Copy CRC BBB94CEE
     Track not present in AccurateRip database
     Copy OK

Track  7

     Filename D:\Convert\Exact Audio Copy\For All I Am - Skinwalker (2013) [FLAC]\07 - I, Artificial.wav

     Pre-gap length  0:00:00.06

     Peak level 100.0 %
     Extraction speed 3.9 X
     Track quality 100.0 %
     Test CRC 990CBC9B
     Copy CRC 990CBC9B
     Track not present in AccurateRip database
     Copy OK

Track  8

     Filename D:\Convert\Exact Audio Copy\For All I Am - Skinwalker (2013) [FLAC]\08 - Limbo.wav

     Pre-gap length  0:00:01.37

     Peak level 100.0 %
     Extraction speed 4.2 X
     Track quality 100.0 %
     Test CRC B9E1436C
     Copy CRC B9E1436C
     Track not present in AccurateRip database
     Copy OK

Track  9

     Filename D:\Convert\Exact Audio Copy\For All I Am - Skinwalker (2013) [FLAC]\09 - Forgotten.wav

     Peak level 100.0 %
     Extraction speed 4.1 X
     Track quality 100.0 %
     Test CRC 62555BBD
     Copy CRC 62555BBD
     Track not present in AccurateRip database
     Copy OK

Track 10

     Filename D:\Convert\Exact Audio Copy\For All I Am - Skinwalker (2013) [FLAC]\10 - The Strange Daze.wav

     Pre-gap length  0:00:01.00

     Peak level 100.0 %
     Extraction speed 3.8 X
     Track quality 99.9 %
     Test CRC BE75B58A
     Copy CRC BE75B58A
     Track not present in AccurateRip database
     Copy OK

None of the tracks are present in the AccurateRip database

No errors occurred

End of status report

==== Log checksum 05F2E13D696761757E13DB4E057F32046E009660B8C13CB29CB926BC45786E54 ====

Код:
Код:
-----------------------

DON'T MODIFY THIS FILE

-----------------------

PERFORMER: auCDtect Task Manager, ver. 1.6.0 RC1 build 1.6.0.1
Copyright (c) 2008-2010 y-soft. All rights reserved
http:/y-soft.org

ANALYZER: auCDtect: CD records authenticity detector, version 0.8.2
Copyright (c) 2004 Oleg Berngardt. All rights reserved.
Copyright (c) 2004 Alexander Djourik. All rights reserved.

FILE: 10. For All I Am - The Strange Daze.flac
  Size: 33615380 Hash: D6FA0F5CE3C9633030C7E6B7F95B835E Accuracy: -m0
  Conclusion: CDDA 100%
  Signature: 1C3AFC25DBA3C446A25AC2795993B5E12A8A3FE9
FILE: 09. For All I Am - Forgotten.flac
  Size: 24267952 Hash: 7D24288E464B46D9D4C2C807192EA2F4 Accuracy: -m0
  Conclusion: CDDA 100%
  Signature: 74CD845863CD034571A11C3E3FDFA93A0A7D6A7B
FILE: 08. For All I Am - Limbo.flac
  Size: 26515758 Hash: 8D0C1120AEE569098175403760C6DEEC Accuracy: -m0
  Conclusion: CDDA 100%
  Signature: 56409B59B7D521D345CEADD69147EF2FC41B0760
FILE: 07. For All I Am - I, Artificial.flac
  Size: 28174654 Hash: B4974E20E88DC9FCB7EB4C6C42ECAE3B Accuracy: -m0
  Conclusion: CDDA 100%
  Signature: 7CF5BB50C040F100DB20DA090A12252DA2BC9EC7
FILE: 06. For All I Am - Mind Trap.flac
  Size: 33567766 Hash: CEA0616E809799BB87D9BCE0C27332AD Accuracy: -m0
  Conclusion: CDDA 100%
  Signature: A8BB50AA140FDE0B0AD34F908681B4A001E3306A
FILE: 05. For All I Am - Eye Of The Storm.flac
  Size: 29027574 Hash: 61EDEBFB54F1C62256CC72504809A3D9 Accuracy: -m0
  Conclusion: CDDA 100%
  Signature: DDCDA5D6A16BE72B09F238C382588701B704969C
FILE: 04. For All I Am - Living Dead.flac
  Size: 30972814 Hash: F36D149673B650D3E9FAC30156028CB0 Accuracy: -m0
  Conclusion: CDDA 100%
  Signature: 0751EFB359D0682FB33C28A4C1B550AD23B1A30C
FILE: 03. For All I Am - Oppressor.flac
  Size: 26610147 Hash: DAEBE84412C4294EF00CA02D317347E5 Accuracy: -m0
  Conclusion: CDDA 100%
  Signature: 22BD58FD425208DEF9CFCE3670F2137610506080
FILE: 02. For All I Am - Make History.flac
  Size: 32752520 Hash: FB0165218A801952BB2053DE929B9EF8 Accuracy: -m0
  Conclusion: CDDA 100%
  Signature: 59D58D4C17646736B33B472EAA9826FE4BB1DED1
FILE: 01. For All I Am - For Too Long I've Let You Haunt Me.flac
  Size: 29775705 Hash: 55BCAA524B54C3DA83B0D70C19A87F5B Accuracy: -m0
  Conclusion: CDDA 100%
  Signature: BA30F74304F1290A8190CAB2D5E29E7356887472

Тип рипа: Tracks+.cue
Аудиокодек: FLAC
Битрейт аудио: lossless
Правила, инструкции, FAQ!!!
Торрент  Добавлен [16 мар 2014, 00:55] Скачать торрент Магнет ссылка
Скачать торрент
[ Размер 12.62 КБ / Просмотров 25 ]

Статус  
 
Размер  283.49 МБ
Приватный: Нет (DHT включён)
.torrent скачан  0
 


     Отправить личное сообщение
   
Страница 1 из 1
Показать сообщения за:  Поле сортировки  
Начать новую тему Ответить на тему


Сейчас этот форум просматривают: нет зарегистрированных пользователей и гости: 0


Вы не можете начинать темы
Вы не можете отвечать на сообщения
Вы не можете редактировать свои сообщения
Вы не можете удалять свои сообщения
Вы не можете добавлять вложения

Перейти:  
cron
cron