Начать новую тему Ответить на тему
Статистика раздачи
Размер: 6.73 ГБ | Добавлен: 16 мар 2014, 00:08 | Скачали: 0
Сидеров: 1  [0 байт/сек]    Личеров: 2  [0 байт/сек]
Пред. тема | След. тема 

Автор
Сообщение

СообщениеДобавлено: 16 мар 2014, 00:08 

Ответить с цитатой 

Foghat - 19 альбомов (1972 - 2010)

Год: 1972 - 2010
Жанр: Blues rock, hard rock, boogie rock
Продолжительность: 14:26:17

Кодек: FLAC, WAVPack, APE
Битрейт: Lossless
Трек лист:
#777Трэклист:

01. I Just Want To Make Love To You (4:21)
02. Trouble, Trouble (3:20)
03. Leavin' Again (Again!) (3:36)
04. Fool's Hall Of Fame (2:59)
05. Sarah Lee (4:36)
06. Highway (Killing Me) (3:51)
07. Maybelline (3:36)
08. A Hole To Hide In (4:06)
09. Gotta Get To Know You (7:44)
Код:
Код:
Exact Audio Copy V0.99 prebeta 5 from 4. May 2009

EAC extraction logfile from 6. February 2011, 13:37

Foghat / Foghat

Used drive  : HL-DT-STDVDRAM GSA-H60N   Adapter: 2  ID: 0

Read mode               : Secure
Utilize accurate stream : Yes
Defeat audio cache      : Yes
Make use of C2 pointers : No

Read offset correction                      : 667
Overread into Lead-In and Lead-Out          : No
Fill up missing offset samples with silence : Yes
Delete leading and trailing silent blocks   : No
Null samples used in CRC calculations       : Yes
Used interface                              : Native Win32 interface for Win NT & 2000

Used output format : Internal WAV Routines
Sample format      : 44.100 Hz; 16 Bit; Stereo

TOC of the extracted CD

     Track |   Start  |  Length  | Start sector | End sector
    ---------------------------------------------------------
        1  |  0:00.32 |  4:21.13 |        32    |    19619
        2  |  4:21.45 |  3:20.07 |     19620    |    34626
        3  |  7:41.52 |  3:36.03 |     34627    |    50829
        4  | 11:17.55 |  2:58.65 |     50830    |    64244
        5  | 14:16.45 |  4:36.25 |     64245    |    84969
        6  | 18:52.70 |  3:51.25 |     84970    |   102319
        7  | 22:44.20 |  3:36.37 |    102320    |   118556
        8  | 26:20.57 |  4:06.15 |    118557    |   137021
        9  | 30:26.72 |  7:43.73 |    137022    |   171819

Range status and errors

Selected range

     Filename C:\Documents and Settings\Администратор\Рабочий стол\Lossless Galaxy Rip by ALLexxess\2010 Foghat Original Album Series (5CD Box Rhino Records)\1972 Foghat\Foghat - Foghat.wav

     Peak level 100.0 %
     Range quality 99.9 %
     Test CRC AA3587F6
     Copy CRC AA3587F6
     Copy OK

No errors occurred

AccurateRip summary

Track  1  accurately ripped (confidence 6)  [41A79C2F]
Track  2  accurately ripped (confidence 6)  [914E206A]
Track  3  accurately ripped (confidence 6)  [15348CDB]
Track  4  accurately ripped (confidence 6)  [268C3BA9]
Track  5  accurately ripped (confidence 6)  [77FA4BD7]
Track  6  accurately ripped (confidence 6)  [AB626AF0]
Track  7  accurately ripped (confidence 6)  [E6709196]
Track  8  accurately ripped (confidence 6)  [4B5C0EF5]
Track  9  accurately ripped (confidence 6)  [F9A2218E]

All tracks accurately ripped

End of status report
Код:
Код:
-----------------------

DON'T MODIFY THIS FILE

-----------------------

PERFORMER: auCDtect Task Manager, ver. 1.5.1RC4 build 1.5.1.5
Copyright (c) 2008-2010 y-soft. All rights reserved
http:/y-soft.org

ANALYZER: auCDtect: CD records authenticity detector, version 0.8.2
Copyright (c) 2004 Oleg Berngardt. All rights reserved.
Copyright (c) 2004 Alexander Djourik. All rights reserved.

FILE: Foghat - Foghat.flac
  Size: 260617577 Hash: CBE653211173A4EC42EE3223377FE5CC Accuracy: -m0
  Conclusion: CDDA 100%
  Signature: C222299E7D4CE76DCE27F876BED0DA41C5ECA64E
Продолжительность: 00:38:11
FLAC (image + .cue)
#777Трэклист:

01. Ride, Ride, Ride (4:24)
02. Feel So Bad (5:09)
03. Long Way To Go (5:07)
04. It's Too Late (5:45)
05. What A Shame (3:52)
06. Helping Hand (4:41)
07. Road Fever (4:23)
08. She's Gone (3:12)
09. Couldn't Make Her Stay (1:57)
Код:
Код:
Exact Audio Copy V0.99 prebeta 4 from 23. January 2008

Отчёт EAC об извлечении, выполненном 7. августа 2008, 8:25

Foghat / Foghat

Дисковод: _NEC    DVD_RW ND-3520A   Adapter: 0  ID: 1

Режим чтения                 : Достоверность
Использование точного потока : Да
Отключение кэша аудио        : Да
Использование указателей C2  : Нет

Коррекция смещения при чтении                     : 48
Способность читать области Lead-in и Lead-out     : Нет
Заполнение пропущенных сэмплов тишиной            : Да
Удаление блоков с тишиной в начале и конце        : Нет
При вычислениях CRC использовались нулевые сэмплы : Нет
Интерфейс                                         : Встроенный Win32-интерфейс для Win NT/2000

Выходной формат : Внутренние WAV-операции
Формат сэмплов  : 44.100 Гц; 16 бит; стерео

TOC извлечённого CD

     Трек |   Старт  | Длительность | Начальный сектор | Конечный сектор
    ---------------------------------------------------------------------
       1  |  0:00.00 |    4:24.12   |           0      |      19811
       2  |  4:24.12 |    5:09.00   |       19812      |      42986
       3  |  9:33.12 |    5:07.00   |       42987      |      66011
       4  | 14:40.12 |    5:45.00   |       66012      |      91886
       5  | 20:25.12 |    3:52.00   |       91887      |     109286
       6  | 24:17.12 |    4:41.00   |      109287      |     130361
       7  | 28:58.12 |    4:22.50   |      130362      |     150061
       8  | 33:20.62 |    3:12.25   |      150062      |     164486
       9  | 36:33.12 |    1:57.13   |      164487      |     173274

Характеристики диапазона извлечения и сообщения об ошибках

Выбранный диапазон

     Имя файла E:\_New\Foghat 2\Foghat - Foghat.wav

     Пиковый уровень 100.0 %
     Качество диапазона 100.0 %
     CRC копии DEE4439B
     Копирование... OK

Ошибок не произошло

AccurateRip: сводка

Трек  1  точное извлечение (доверие 2)  [D4294BC8]
Трек  2  точное извлечение (доверие 2)  [84D214B2]
Трек  3  точное извлечение (доверие 2)  [53BCDB68]
Трек  4  точное извлечение (доверие 2)  [B1C41A2B]
Трек  5  точное извлечение (доверие 2)  [38606FB2]
Трек  6  точное извлечение (доверие 2)  [00C2E66B]
Трек  7  точное извлечение (доверие 2)  [B3597F76]
Трек  8  точное извлечение (доверие 2)  [072C3A35]
Трек  9  точное извлечение (доверие 2)  [DD59AC14]

Все треки извлечены точно

Конец отчёта
Код:
Код:
-----------------------

DON'T MODIFY THIS FILE

-----------------------

PERFORMER: auCDtect Task Manager, ver. 1.5.1RC4 build 1.5.1.5
Copyright (c) 2008-2010 y-soft. All rights reserved
http:/y-soft.org

ANALYZER: auCDtect: CD records authenticity detector, version 0.8.2
Copyright (c) 2004 Oleg Berngardt. All rights reserved.
Copyright (c) 2004 Alexander Djourik. All rights reserved.

FILE: Foghat - Foghat.flac
  Size: 277397363 Hash: B81D0F50B51D1899DB19EDAEE9DEDEED Accuracy: -m0
  Conclusion: CDDA 100%
  Signature: D4E01C745FBC05B9E76117165DA4F91D9D666C9B
Продолжительность: 00:38:30
FLAC (image + .cue)
#777Трэклист:

01. Honey Hush (4:22)
02. Step Outside (6:19)
03. Golden Arrow (4:04)
04. Home In My Hand (5:13)
05. Wild Cherry (5:28)
06. That'll Be The Day (2:53)
07. Fly By Night (4:47)
08. Nothin' I Won't Do (6:56)
Код:
Код:
Exact Audio Copy V0.99 prebeta 5 from 4. May 2009

EAC extraction logfile from 6. February 2011, 14:42

Foghat / Energized

Used drive  : HL-DT-STDVDRAM GSA-H60N   Adapter: 2  ID: 0

Read mode               : Secure
Utilize accurate stream : Yes
Defeat audio cache      : Yes
Make use of C2 pointers : No

Read offset correction                      : 667
Overread into Lead-In and Lead-Out          : No
Fill up missing offset samples with silence : Yes
Delete leading and trailing silent blocks   : No
Null samples used in CRC calculations       : Yes
Used interface                              : Native Win32 interface for Win NT & 2000

Used output format : Internal WAV Routines
Sample format      : 44.100 Hz; 16 Bit; Stereo

TOC of the extracted CD

     Track |   Start  |  Length  | Start sector | End sector
    ---------------------------------------------------------
        1  |  0:00.32 |  4:21.60 |        32    |    19666
        2  |  4:22.17 |  6:18.65 |     19667    |    48081
        3  | 10:41.07 |  4:03.55 |     48082    |    66361
        4  | 14:44.62 |  5:13.05 |     66362    |    89841
        5  | 19:57.67 |  5:27.50 |     89842    |   114416
        6  | 25:25.42 |  2:53.03 |    114417    |   127394
        7  | 28:18.45 |  4:47.37 |    127395    |   148956
        8  | 33:06.07 |  6:56.25 |    148957    |   180181

Range status and errors

Selected range

     Filename C:\Documents and Settings\Администратор\Рабочий стол\Lossless Galaxy Rip by ALLexxess\2010 Foghat Original Album Series (5CD Box Rhino Records)\1974 Energized\Foghat - Energized.wav

     Peak level 100.0 %
     Range quality 100.0 %
     Test CRC A04D64F5
     Copy CRC A04D64F5
     Copy OK

No errors occurred

AccurateRip summary

Track  1  accurately ripped (confidence 6)  [A431F70F]
Track  2  accurately ripped (confidence 6)  [111FC868]
Track  3  accurately ripped (confidence 6)  [76F8F587]
Track  4  accurately ripped (confidence 6)  [73CAFD72]
Track  5  accurately ripped (confidence 6)  [1262A376]
Track  6  accurately ripped (confidence 6)  [E9A35F57]
Track  7  accurately ripped (confidence 6)  [BE6453AF]
Track  8  accurately ripped (confidence 6)  [9181B955]

All tracks accurately ripped

End of status report
Код:
Код:
-----------------------

DON'T MODIFY THIS FILE

-----------------------

PERFORMER: auCDtect Task Manager, ver. 1.5.1RC3 build 1.5.1.4
Copyright (c) 2008-2010 y-soft. All rights reserved
http:/y-soft.org

ANALYZER: auCDtect: CD records authenticity detector, version 0.8.2
Copyright (c) 2004 Oleg Berngardt. All rights reserved.
Copyright (c) 2004 Alexander Djourik. All rights reserved.

FILE: Foghat - Energized.flac
  Size: 275597677 Hash: 1E1BEA610246DFFA186DAFFA170EE1F8 Accuracy: -m0
  Conclusion: CDDA 99%
  Signature: D2ED4CF014FBFF32FEA41BB70F5286981BDC780E
Продолжительность: 00:40:02
FLAC (image + .cue)
#777Трэклист:

01. Eight Days On The Road (6:08)
02. Hate To See You Go (4:40)
03. Dreamer (6:39)
04. Trouble In My Way (3:32)
05. Rock And Roll Outlaw (3:54)
06. Shirley Jean (3:47)
07. Blue Spruce Woman (4:09)
08. Chateau Lafitte '59 Boogie (6:18)
Код:
Код:
Exact Audio Copy V0.99 prebeta 4 from 23. January 2008

Отчёт EAC об извлечении, выполненном 7. августа 2008, 8:59

Foghat / Rock And Roll Outlaws

Дисковод: _NEC    DVD_RW ND-3520A   Adapter: 0  ID: 1

Режим чтения                 : Достоверность
Использование точного потока : Да
Отключение кэша аудио        : Да
Использование указателей C2  : Нет

Коррекция смещения при чтении                     : 48
Способность читать области Lead-in и Lead-out     : Нет
Заполнение пропущенных сэмплов тишиной            : Да
Удаление блоков с тишиной в начале и конце        : Нет
При вычислениях CRC использовались нулевые сэмплы : Нет
Интерфейс                                         : Встроенный Win32-интерфейс для Win NT/2000

Выходной формат : Внутренние WAV-операции
Формат сэмплов  : 44.100 Гц; 16 бит; стерео

TOC извлечённого CD

     Трек |   Старт  | Длительность | Начальный сектор | Конечный сектор
    ---------------------------------------------------------------------
       1  |  0:00.00 |    6:08.22   |           0      |      27621
       2  |  6:08.22 |    4:39.55   |       27622      |      48601
       3  | 10:48.02 |    6:39.23   |       48602      |      78549
       4  | 17:27.25 |    3:32.07   |       78550      |      94456
       5  | 20:59.32 |    3:53.70   |       94457      |     112001
       6  | 24:53.27 |    3:46.45   |      112002      |     128996
       7  | 28:39.72 |    4:08.40   |      128997      |     147636
       8  | 32:48.37 |    6:17.43   |      147637      |     175954

Характеристики диапазона извлечения и сообщения об ошибках

Выбранный диапазон

     Имя файла E:\_New\Foghat 4\Foghat - Rock And Roll Outlaws.wav

     Пиковый уровень 100.0 %
     Качество диапазона 99.9 %
     CRC копии 4CFE0966
     Копирование... OK

Ошибок не произошло

AccurateRip: сводка

Трек  1  нет в базе данных
Трек  2  нет в базе данных
Трек  3  нет в базе данных
Трек  4  нет в базе данных
Трек  5  нет в базе данных
Трек  6  нет в базе данных
Трек  7  нет в базе данных
Трек  8  нет в базе данных

Ни одного трека нет в базе AccurateRip

Конец отчёта
Код:
Код:
-----------------------

DON'T MODIFY THIS FILE

-----------------------

PERFORMER: auCDtect Task Manager, ver. 1.5.1RC4 build 1.5.1.5
Copyright (c) 2008-2010 y-soft. All rights reserved
http:/y-soft.org

ANALYZER: auCDtect: CD records authenticity detector, version 0.8.2
Copyright (c) 2004 Oleg Berngardt. All rights reserved.
Copyright (c) 2004 Alexander Djourik. All rights reserved.

FILE: Foghat - Rock And Roll Outlaws.flac
  Size: 275391189 Hash: 794C115A938B99FA1329F2CC0B510B75 Accuracy: -m0
  Conclusion: CDDA 99%
  Signature: B8586ED9C806B6F2A32F78ABCE2D8F180B619A26
Продолжительность: 00:39:06
FLAC (image + .cue)
#777Трэклист:

01. Fool For The City (4:32)
02. My Babe (4:37)
03. Slow Ride (8:15)
04. Terraplane Blues (5:45)
05. Save Your Loving (For Me) (3:32)
06. Drive Me Home (3:57)
07. Take It Or Leave It (4:56)
Код:
Код:
Exact Audio Copy V0.99 prebeta 5 from 4. May 2009

EAC extraction logfile from 6. February 2011, 18:12

Foghat / Fool For The City

Used drive  : HL-DT-STDVDRAM GSA-H60N   Adapter: 2  ID: 0

Read mode               : Secure
Utilize accurate stream : Yes
Defeat audio cache      : Yes
Make use of C2 pointers : No

Read offset correction                      : 667
Overread into Lead-In and Lead-Out          : No
Fill up missing offset samples with silence : Yes
Delete leading and trailing silent blocks   : No
Null samples used in CRC calculations       : Yes
Used interface                              : Native Win32 interface for Win NT & 2000

Used output format : Internal WAV Routines
Sample format      : 44.100 Hz; 16 Bit; Stereo

TOC of the extracted CD

     Track |   Start  |  Length  | Start sector | End sector
    ---------------------------------------------------------
        1  |  0:00.32 |  4:32.10 |        32    |    20441
        2  |  4:32.42 |  4:36.58 |     20442    |    41199
        3  |  9:09.25 |  8:14.40 |     41200    |    78289
        4  | 17:23.65 |  5:45.32 |     78290    |   104196
        5  | 23:09.22 |  3:32.30 |    104197    |   120126
        6  | 26:41.52 |  3:56.40 |    120127    |   137866
        7  | 30:38.17 |  4:56.23 |    137867    |   160089

Range status and errors

Selected range

     Filename C:\Documents and Settings\Администратор\Рабочий стол\Lossless Galaxy Rip by ALLexxess\2010 Foghat Original Album Series (5CD Box Rhino Records)\1975 Fool For The City\Foghat - Fool For The City.wav

     Peak level 100.0 %
     Range quality 99.9 %
     Test CRC 74A0EA95
     Copy CRC 74A0EA95
     Copy OK

No errors occurred

AccurateRip summary

Track  1  accurately ripped (confidence 6)  [3133CA99]
Track  2  accurately ripped (confidence 6)  [27F4BFF6]
Track  3  accurately ripped (confidence 6)  [8D71FF7B]
Track  4  accurately ripped (confidence 6)  [4CBCE0A1]
Track  5  accurately ripped (confidence 6)  [789F8EAA]
Track  6  accurately ripped (confidence 6)  [582BF0FC]
Track  7  accurately ripped (confidence 6)  [7F4631EB]

All tracks accurately ripped

End of status report
Код:
Код:
-----------------------

DON'T MODIFY THIS FILE

-----------------------

PERFORMER: auCDtect Task Manager, ver. 1.5.1RC3 build 1.5.1.4
Copyright (c) 2008-2010 y-soft. All rights reserved
http:/y-soft.org

ANALYZER: auCDtect: CD records authenticity detector, version 0.8.2
Copyright (c) 2004 Oleg Berngardt. All rights reserved.
Copyright (c) 2004 Alexander Djourik. All rights reserved.

FILE: Foghat - Fool For The City.flac
  Size: 256524764 Hash: B4F6580762E8D7BFB9626D1584BE0D8A Accuracy: -m0
  Conclusion: CDDA 100%
  Signature: 4F24EFF15D3F6C3BEC0B62CF1415441F5D1C2BD4
Продолжительность: 00:35:34
FLAC (image + .cue)
#777Трэклист:

01. Drivin' Wheel (5:14)
02. Don't Run Me Down (6:33)
03. Burnin' The Mightnight Oil (5:39)
04. Night Shift (5:35)
05. Hot Shot Love (4:00)
06. Take Me To The River (4:43)
07. I'll Be Standing By (5:56)
08. New Place To Call Home (3:00)
Код:
Код:
Exact Audio Copy V0.99 prebeta 5 from 4. May 2009

EAC extraction logfile from 20. March 2011, 17:51

Foghat / Night Shift (K2HD Japanese, VICP-64284)

Used drive  : ASUS    DRW-22B2L   Adapter: 0  ID: 0

Read mode               : Secure
Utilize accurate stream : Yes
Defeat audio cache      : Yes
Make use of C2 pointers : No

Read offset correction                      : 6
Overread into Lead-In and Lead-Out          : No
Fill up missing offset samples with silence : Yes
Delete leading and trailing silent blocks   : No
Null samples used in CRC calculations       : Yes
Used interface                              : Native Win32 interface for Win NT & 2000

Used output format              : User Defined Encoder
Selected bitrate                : 896 kBit/s
Quality                         : High
Add ID3 tag                     : No
Command line compressor         : C:\Program Files\Exact Audio Copy\Wavepack\wavpack.exe
Additional command line options : -hlm %s

TOC of the extracted CD

     Track |   Start  |  Length  | Start sector | End sector
    ---------------------------------------------------------
        1  |  0:00.00 |  5:13.49 |         0    |    23523
        2  |  5:13.49 |  6:32.55 |     23524    |    52978
        3  | 11:46.29 |  5:38.57 |     52979    |    78385
        4  | 17:25.11 |  5:34.74 |     78386    |   103509
        5  | 23:00.10 |  4:00.11 |    103510    |   121520
        6  | 27:00.21 |  4:42.53 |    121521    |   142723
        7  | 31:42.74 |  5:55.46 |    142724    |   169394
        8  | 37:38.45 |  3:00.22 |    169395    |   182916

Range status and errors

Selected range

     Filename D:\E2K\My Releases\Foghat - 1976 - Night Shift (K2HD Japanese, VICP-64284)\Foghat - Night Shift (K2HD Japanese, VICP-64284).wav

     Peak level 97.9 %
     Range quality 100.0 %
     Test CRC D70B88A0
     Copy CRC D70B88A0
     Copy OK

No errors occurred

AccurateRip summary

Track  1  accurately ripped (confidence 1)  [FC216E2F]
Track  2  accurately ripped (confidence 1)  [2C9DABCD]
Track  3  accurately ripped (confidence 1)  [2D46A2DF]
Track  4  accurately ripped (confidence 1)  [3D515C0D]
Track  5  accurately ripped (confidence 1)  [E9AB460C]
Track  6  accurately ripped (confidence 1)  [07F3AB39]
Track  7  accurately ripped (confidence 1)  [232618D4]
Track  8  accurately ripped (confidence 1)  [5FD16191]

All tracks accurately ripped

End of status report
Код:
Код:
-----------------------

DON'T MODIFY THIS FILE

-----------------------

PERFORMER: auCDtect Task Manager, ver. 1.5.1RC4 build 1.5.1.5
Copyright (c) 2008-2010 y-soft. All rights reserved
http:/y-soft.org

ANALYZER: auCDtect: CD records authenticity detector, version 0.8.2
Copyright (c) 2004 Oleg Berngardt. All rights reserved.
Copyright (c) 2004 Alexander Djourik. All rights reserved.

FILE: Foghat [1976] Night Shift (K2HD Japanese, VICP-64284).wv
  Size: 282395024 Hash: A2E3E9C176AE038662787ACD80FDD616 Accuracy: -m0
  Conclusion: CDDA 100%
  Signature: 98E6566E23B8CBAEA801A629D4822DB6FA1C6390
Продолжительность: 00:40:39
WAVPack (image+.cue)
#777Трэклист:

01. Fool For The City (5:32)
02. Home In My Hand (4:56)
03. I Just Want To Make Love To You (8:36)
04. Road Fever (5:29)
05. Honey Hush (5:38)
06. Slow Ride (8:22)
Код:
Код:
Exact Audio Copy V0.99 prebeta 5 from 4. May 2009

EAC extraction logfile from 6. February 2011, 20:34

Foghat / Live

Used drive  : HL-DT-STDVDRAM GSA-H60N   Adapter: 2  ID: 0

Read mode               : Secure
Utilize accurate stream : Yes
Defeat audio cache      : Yes
Make use of C2 pointers : No

Read offset correction                      : 667
Overread into Lead-In and Lead-Out          : No
Fill up missing offset samples with silence : Yes
Delete leading and trailing silent blocks   : No
Null samples used in CRC calculations       : Yes
Used interface                              : Native Win32 interface for Win NT & 2000

Used output format : Internal WAV Routines
Sample format      : 44.100 Hz; 16 Bit; Stereo

TOC of the extracted CD

     Track |   Start  |  Length  | Start sector | End sector
    ---------------------------------------------------------
        1  |  0:00.00 |  5:32.30 |         0    |    24929
        2  |  5:32.30 |  4:56.23 |     24930    |    47152
        3  | 10:28.53 |  8:36.37 |     47153    |    85889
        4  | 19:05.15 |  5:29.25 |     85890    |   110589
        5  | 24:34.40 |  5:38.03 |    110590    |   135942
        6  | 30:12.43 |  8:22.07 |    135943    |   173599

Range status and errors

Selected range

     Filename C:\Documents and Settings\Администратор\Рабочий стол\Lossless Galaxy Rip by ALLexxess\2010 Foghat Original Album Series (5CD Box Rhino Records)\1977 Live\Foghat - Live.wav

     Peak level 97.7 %
     Range quality 100.0 %
     Test CRC 2A1D7B6E
     Copy CRC 2A1D7B6E
     Copy OK

No errors occurred

AccurateRip summary

Track  1  accurately ripped (confidence 6)  [8E921B6D]
Track  2  accurately ripped (confidence 6)  [BB5B1CF8]
Track  3  accurately ripped (confidence 6)  [C127D5F7]
Track  4  accurately ripped (confidence 6)  [5F733D20]
Track  5  accurately ripped (confidence 6)  [277FD64E]
Track  6  accurately ripped (confidence 6)  [F8E9F89F]

All tracks accurately ripped

End of status report
Код:
Код:
-----------------------

DON'T MODIFY THIS FILE

-----------------------

PERFORMER: auCDtect Task Manager, ver. 1.5.1RC4 build 1.5.1.5
Copyright (c) 2008-2010 y-soft. All rights reserved
http:/y-soft.org

ANALYZER: auCDtect: CD records authenticity detector, version 0.8.2
Copyright (c) 2004 Oleg Berngardt. All rights reserved.
Copyright (c) 2004 Alexander Djourik. All rights reserved.

FILE: Foghat - Live.flac
  Size: 288583169 Hash: 61B7DDC205A9423FDDB4B9E81D665ADF Accuracy: -m0
  Conclusion: CDDA 99%
  Signature: 46ADF54EF80A9009A9065A18AB7849558D21C0E6
Продолжительность: 00:38:35
FLAC (image + .cue)
#777Трэклист:

01. Stone Blue (5:39)
02. Sweet Home Chicago (4:00)
03. Easy Money (3:55)
04. Midnight Madness (6:54)
05. It Hurts Me Too (5:33)
06. High On Love (5:19)
07. Chevrolet (3:22)
08. Stay With Me (4:24)
Код:
Код:
Exact Audio Copy V0.99 prebeta 4 from 23. January 2008

EAC extraction logfile from 5. August 2008, 16:13

Foghat / Stone Blue

Used drive  : _NEC    DVD_RW ND-3550A   Adapter: 5  ID: 0

Read mode               : Secure
Utilize accurate stream : Yes
Defeat audio cache      : Yes
Make use of C2 pointers : No

Read offset correction                      : 48
Overread into Lead-In and Lead-Out          : No
Fill up missing offset samples with silence : Yes
Delete leading and trailing silent blocks   : No
Null samples used in CRC calculations       : Yes
Used interface                              : Native Win32 interface for Win NT & 2000

Used output format              : User Defined Encoder
Selected bitrate                : 768 kBit/s
Quality                         : High
Add ID3 tag                     : No
Command line compressor         : C:\Program Files\Exact Audio Copy\FLAC\FLAC.EXE
Additional command line options : -6 -V -T "ARTIST=%a" -T "TITLE=%t" -T "ALBUM=%g" -T "DATE=%y" -T "TRACKNUMBER=%n" -T "GENRE=%m" -T "COMMENT=%e" %s -o %d

TOC of the extracted CD

     Track |   Start  |  Length  | Start sector | End sector
    ---------------------------------------------------------
        1  |  0:00.00 |  5:38.58 |         0    |    25407
        2  |  5:38.58 |  3:59.60 |     25408    |    43392
        3  |  9:38.43 |  3:55.00 |     43393    |    61017
        4  | 13:33.43 |  6:53.47 |     61018    |    92039
        5  | 20:27.15 |  5:32.60 |     92040    |   116999
        6  | 26:00.00 |  5:18.40 |    117000    |   140889
        7  | 31:18.40 |  3:21.58 |    140890    |   156022
        8  | 34:40.23 |  4:24.32 |    156023    |   175854

Range status and errors

Selected range

     Filename D:\Downloads\Foghat - Stone Blue\Foghat - Stone Blue.wav

     Suspicious position 0:09:57

     Peak level 97.7 %
     Range quality 99.9 %
     Test CRC AB39AC5E
     Copy CRC AB39AC5E
     Copy finished

There were errors

AccurateRip summary

Track  1  not present in database
Track  2  not present in database
Track  3  not present in database
Track  4  not present in database
Track  5  not present in database
Track  6  not present in database
Track  7  not present in database
Track  8  not present in database

None of the tracks are present in the AccurateRip database

End of status report
Код:
Код:
-----------------------

DON'T MODIFY THIS FILE

-----------------------

PERFORMER: auCDtect Task Manager, ver. 1.5.1RC4 build 1.5.1.5
Copyright (c) 2008-2010 y-soft. All rights reserved
http:/y-soft.org

ANALYZER: auCDtect: CD records authenticity detector, version 0.8.2
Copyright (c) 2004 Oleg Berngardt. All rights reserved.
Copyright (c) 2004 Alexander Djourik. All rights reserved.

FILE: Foghat - Stone Blue.flac
  Size: 273283923 Hash: 844F4D3F7F089539F49DA2B42F8BDCF1 Accuracy: -m0
  Conclusion: CDDA 99%
  Signature: 6ADF342DC855CC037F63BAB6C639AEB4F283AE1F
Продолжительность: 00:39:05
FLAC (image + .cue)
#777Трэклист:

01. Somebody's Been Sleepin' In My Bed (3:50)
02. Third Time Lucky (First Time I Was A Fool) (4:13)
03. Comin' Down With Love (5:23)
04. Paradise Alley (5:38)
05. Boogie Motel (7:21)
06. Love In Motion (4:31)
07. Nervous Release (5:54)
Код:
Код:
Exact Audio Copy V0.99 prebeta 4 from 23. January 2008

EAC extraction logfile from 2. September 2009, 21:17

Foghat / Boogie Motel

Used drive  : ATAPI   DVD D  DH16D3P   Adapter: 0  ID: 1

Read mode               : Secure
Utilize accurate stream : Yes
Defeat audio cache      : Yes
Make use of C2 pointers : No

Read offset correction                      : 6
Overread into Lead-In and Lead-Out          : No
Fill up missing offset samples with silence : Yes
Delete leading and trailing silent blocks   : No
Null samples used in CRC calculations       : No
Used interface                              : Installed external ASPI interface
Gap handling                                : Appended to previous track

Used output format              : User Defined Encoder
Selected bitrate                : 768 kBit/s
Quality                         : High
Add ID3 tag                     : No
Command line compressor         : C:\Program Files\Exact Audio Copy\FLAC\FLAC.EXE
Additional command line options : -6 -V -T "ARTIST=%a" -T "TITLE=%t" -T "ALBUM=%g" -T "DATE=%y" -T "TRACKNUMBER=%n" -T "GENRE=%m" -T "COMMENT=%e" %s -o %d

TOC of the extracted CD

     Track |   Start  |  Length  | Start sector | End sector
    ---------------------------------------------------------
        1  |  0:00.00 |  3:50.02 |         0    |    17251
        2  |  3:50.02 |  4:12.48 |     17252    |    36199
        3  |  8:02.50 |  5:23.05 |     36200    |    60429
        4  | 13:25.55 |  5:37.42 |     60430    |    85746
        5  | 19:03.22 |  7:20.65 |     85747    |   118811
        6  | 26:24.12 |  4:30.65 |    118812    |   139126
        7  | 30:55.02 |  5:53.53 |    139127    |   165654

Track  1

     Filename E:\Music\Foghat\Boogie Motel\Foghat - Boogie Motel - 01. Somebody's Been Sleepin' In My Bed.wav

     Pre-gap length  0:00:02.00

     Peak level 100.0 %
     Track quality 100.0 %
     Test CRC CC2130E6
     Copy CRC CC2130E6
     Accurately ripped (confidence 1)  [817C59F8]
     Copy OK

Track  2

     Filename E:\Music\Foghat\Boogie Motel\Foghat - Boogie Motel - 02. Third Time Lucky (First Time I Was A Fool).wav

     Peak level 100.0 %
     Track quality 100.0 %
     Test CRC 7A4F6663
     Copy CRC 7A4F6663
     Track not present in AccurateRip database
     Copy OK

Track  3

     Filename E:\Music\Foghat\Boogie Motel\Foghat - Boogie Motel - 03. Comin' Down With Love.wav

     Peak level 100.0 %
     Track quality 99.9 %
     Test CRC 67EAD1C3
     Copy CRC 67EAD1C3
     Track not present in AccurateRip database
     Copy OK

Track  4

     Filename E:\Music\Foghat\Boogie Motel\Foghat - Boogie Motel - 04. Paradise Alley.wav

     Peak level 100.0 %
     Track quality 100.0 %
     Test CRC B26AE3AF
     Copy CRC B26AE3AF
     Track not present in AccurateRip database
     Copy OK

Track  5

     Filename E:\Music\Foghat\Boogie Motel\Foghat - Boogie Motel - 05. Boogie Motel.wav

     Peak level 100.0 %
     Track quality 100.0 %
     Test CRC F70BAAE1
     Copy CRC F70BAAE1
     Accurately ripped (confidence 1)  [6EF29718]
     Copy OK

Track  6

     Filename E:\Music\Foghat\Boogie Motel\Foghat - Boogie Motel - 06. Love In Motion.wav

     Peak level 100.0 %
     Track quality 100.0 %
     Test CRC 1C7434D4
     Copy CRC 1C7434D4
     Accurately ripped (confidence 1)  [8E322107]
     Copy OK

Track  7

     Filename E:\Music\Foghat\Boogie Motel\Foghat - Boogie Motel - 07. Nervous Release.wav

     Peak level 100.0 %
     Track quality 100.0 %
     Test CRC A2B1BE75
     Copy CRC A2B1BE75
     Accurately ripped (confidence 1)  [4E2E4460]
     Copy OK

 4 track(s) accurately ripped
 3 track(s) not present in the AccurateRip database

Some tracks could not be verified as accurate

No errors occurred

End of status report
Код:
Код:
-----------------------

DON'T MODIFY THIS FILE

-----------------------

PERFORMER: auCDtect Task Manager, ver. 1.5.1RC4 build 1.5.1.5
Copyright (c) 2008-2010 y-soft. All rights reserved
http:/y-soft.org

ANALYZER: auCDtect: CD records authenticity detector, version 0.8.2
Copyright (c) 2004 Oleg Berngardt. All rights reserved.
Copyright (c) 2004 Alexander Djourik. All rights reserved.

FILE: Foghat - Boogie Motel - 07. Nervous Release.flac
  Size: 44113469 Hash: 703D2B5C19B398DD55AE6865B49B87E9 Accuracy: -m0
  Conclusion: CDDA 100%
  Signature: BB6D5937E307424AF26D66CFCE14ED2B3D708D76
FILE: Foghat - Boogie Motel - 06. Love In Motion.flac
  Size: 32443088 Hash: 7B42DCB6118B5C65A1BBC8FA61AE89E4 Accuracy: -m0
  Conclusion: CDDA 100%
  Signature: 3AA746D2AA1DD2792453BBA97F4CF24E848F2C5E
FILE: Foghat - Boogie Motel - 05. Boogie Motel.flac
  Size: 55870854 Hash: 13F8EDB1F3F2122CE953D734AC56309D Accuracy: -m0
  Conclusion: CDDA 100%
  Signature: 67705D8216519E54823A20056FE5FEFEEDD965A2
FILE: Foghat - Boogie Motel - 04. Paradise Alley.flac
  Size: 36712429 Hash: 122374BAD4FB4BFB9F9B786BC2A478B3 Accuracy: -m0
  Conclusion: CDDA 100%
  Signature: E4C9FA72EB1D0783A72E82AD0DDE495B2268464D
FILE: Foghat - Boogie Motel - 03. Comin' Down With Love.flac
  Size: 40424044 Hash: B781CDB54CD59930BB25CFAA33609D44 Accuracy: -m0
  Conclusion: CDDA 100%
  Signature: 7A02E71A811A79B5D3A7CD61438DEB702251E9D8
FILE: Foghat - Boogie Motel - 02. Third Time Lucky (First Time I Was A Fool).flac
  Size: 30001117 Hash: A02E41CE79292B4806C8991A44D46102 Accuracy: -m0
  Conclusion: CDDA 99%
  Signature: ACEBEDF92497DB87B72CF4C154141105AAD4768C
FILE: Foghat - Boogie Motel - 01. Somebody's Been Sleepin' In My Bed.flac
  Size: 27699377 Hash: CE4DD6419D11B9CED8E4BCBFCAC649FC Accuracy: -m0
  Conclusion: CDDA 100%
  Signature: 760B0A605B0881BE1BE11CB746BF4E711D8A1067
Продолжительность: 00:36:49
FLAC (tracks + .cue)
#777Трэклист:

01. Stranger In My Home Town (4:24)
02. Loose Ends (4:38)
03. Full Time Lover (4:30)
04. Baby Can I Change Your Mind (3:52)
05. Too Late The Hero (5:01)
06. Dead End Street (5:00)
07. Be My Woman (5:57)
08. No Hard Feelings (6:16)
Код:
Код:
Exact Audio Copy V0.99 prebeta 5 from 4. May 2009

EAC extraction logfile from 6. February 2011, 20:06

Foghat / Tight Shoes

Used drive  : HL-DT-STDVDRAM GSA-H60N   Adapter: 2  ID: 0

Read mode               : Secure
Utilize accurate stream : Yes
Defeat audio cache      : Yes
Make use of C2 pointers : No

Read offset correction                      : 667
Overread into Lead-In and Lead-Out          : No
Fill up missing offset samples with silence : Yes
Delete leading and trailing silent blocks   : No
Null samples used in CRC calculations       : Yes
Used interface                              : Native Win32 interface for Win NT & 2000

Used output format : Internal WAV Routines
Sample format      : 44.100 Hz; 16 Bit; Stereo

TOC of the extracted CD

     Track |   Start  |  Length  | Start sector | End sector
    ---------------------------------------------------------
        1  |  0:00.00 |  4:24.05 |         0    |    19804
        2  |  4:24.05 |  4:38.37 |     19805    |    40691
        3  |  9:02.42 |  4:30.03 |     40692    |    60944
        4  | 13:32.45 |  3:51.70 |     60945    |    78339
        5  | 17:24.40 |  5:01.05 |     78340    |   100919
        6  | 22:25.45 |  5:00.12 |    100920    |   123431
        7  | 27:25.57 |  5:57.28 |    123432    |   150234
        8  | 33:23.10 |  6:15.70 |    150235    |   178429

Range status and errors

Selected range

     Filename C:\Documents and Settings\Администратор\Рабочий стол\Lossless Galaxy Rip by ALLexxess\2010 Foghat Original Album Series (5CD Box Rhino Records)\1980 Tight Shoes\Foghat - Tight Shoes.wav

     Peak level 100.0 %
     Range quality 100.0 %
     Test CRC 009AEB40
     Copy CRC 009AEB40
     Copy OK

No errors occurred

AccurateRip summary

Track  1  accurately ripped (confidence 6)  [2296D299]
Track  2  accurately ripped (confidence 6)  [46B429C4]
Track  3  accurately ripped (confidence 6)  [E2D675A4]
Track  4  accurately ripped (confidence 6)  [763B653F]
Track  5  accurately ripped (confidence 6)  [4579CC37]
Track  6  accurately ripped (confidence 6)  [76AC3FCA]
Track  7  accurately ripped (confidence 6)  [1092BB37]
Track  8  accurately ripped (confidence 6)  [B2C23108]

All tracks accurately ripped

End of status report
Код:
Код:
-----------------------

DON'T MODIFY THIS FILE

-----------------------

PERFORMER: auCDtect Task Manager, ver. 1.5.1RC3 build 1.5.1.4
Copyright (c) 2008-2010 y-soft. All rights reserved
http:/y-soft.org

ANALYZER: auCDtect: CD records authenticity detector, version 0.8.2
Copyright (c) 2004 Oleg Berngardt. All rights reserved.
Copyright (c) 2004 Alexander Djourik. All rights reserved.

FILE: Foghat - Tight Shoes.flac
  Size: 297797076 Hash: 87EF9C09FC701E97FD40EE398D9F29FE Accuracy: -m0
  Conclusion: CDDA 100%
  Signature: 2F828B88EB9732DA8E15CA3E6031394ED53B9C77
Продолжительность: 00:39:39
FLAC (image + .cue)
#777Трэклист:

01. Wide Boy (2:47)
02. Let Me Get Close to You (5:24)
03. Live Now - Pay Later (6:03)
04. Love Zone (5:10)
05. Delayed Reaction (6:10)
06. Second Childhood (5:10)
07. Weekend Driver (4:02)
08. Sing About Love (3:35)
09. Slipped, Tripped, Fell in Love (4:14)
10. Bustin' Up or Bustin' Out (3:44)
11. Take This Heart of Mine (3:04)
12. Love Rustler (5:41)
13. Ain't Livin' Long Like This (4:48)
14. Back for a Taste of Your Love (4:31)
15. There Ain't No Man That Can't Be Taught (3:39)
16. And I Do Just What I Want (3:21)
Код:
Код:
Exact Audio Copy V0.99 prebeta 4 from 23. January 2008

Отчёт EAC об извлечении, выполненном 28. апреля 2010, 9:19

Foghat / Girls to Chat & Boys to Bounce -In the Mood for Something Rude

Дисковод: HL-DT-STDVDRAM GSA-E40N   Adapter: 1  ID: 0

Режим чтения                 : Достоверность
Использование точного потока : Да
Отключение кэша аудио        : Да
Использование указателей C2  : Нет

Коррекция смещения при чтении                     : 667
Способность читать области Lead-in и Lead-out     : Нет
Заполнение пропущенных сэмплов тишиной            : Да
Удаление блоков с тишиной в начале и конце        : Нет
При вычислениях CRC использовались нулевые сэмплы : Да
Интерфейс                                         : Установленный внешний ASPI-интерфейс
Обработка зазоров                                 : Добавлено к предыдущему треку

Выходной формат          : Пользовательский кодировщик
Выбранный битрейт        : 768 kBit/s
Качество                 : Высокий
Добавление ID3-тэга      : Нет
Утилита сжатия           : C:\Program Files\Exact Audio Copy\FLAC\FLAC.EXE
Дополнительные параметры : -6 -V -T "ARTIST=%a" -T "TITLE=%t" -T "ALBUM=%g" -T "DATE=%y" -T "TRACKNUMBER=%n" -T "GENRE=%m" -T "COMMENT=%e" %s -o %d

TOC извлечённого CD

     Трек |   Старт  | Длительность | Начальный сектор | Конечный сектор
    ---------------------------------------------------------------------
       1  |  0:00.00 |    2:46.51   |           0      |      12500
       2  |  2:46.51 |    5:23.70   |       12501      |      36795
       3  |  8:10.46 |    6:03.01   |       36796      |      64021
       4  | 14:13.47 |    5:10.37   |       64022      |      87308
       5  | 19:24.09 |    6:09.73   |       87309      |     115056
       6  | 25:34.07 |    5:10.00   |      115057      |     138306
       7  | 30:44.07 |    4:02.02   |      138307      |     156458
       8  | 34:46.09 |    3:35.23   |      156459      |     172606
       9  | 38:21.32 |    4:14.00   |      172607      |     191656
      10  | 42:35.32 |    3:43.41   |      191657      |     208422
      11  | 46:18.73 |    3:03.38   |      208423      |     222185
      12  | 49:22.36 |    5:41.12   |      222186      |     247772
      13  | 55:03.48 |    4:48.37   |      247773      |     269409
      14  | 59:52.10 |    4:30.74   |      269410      |     289733
      15  | 64:23.09 |    3:39.00   |      289734      |     306158
      16  | 68:02.09 |    3:21.01   |      306159      |     321234

Трек  1

     Имя файла H:\Торрентс.ру\Foghat - 1981 & 1982\01 -  Wide Boy.wav

     Длина предзазора  0:00:02.00

     Пиковый уровень 99.9 %
     Качество трека 99.9 %
     CRC теста 1F7789B5
     CRC копии 1F7789B5
     Копирование... OK

Трек  2

     Имя файла H:\Торрентс.ру\Foghat - 1981 & 1982\02 - Let Me Get Close to You.wav

     Длина предзазора  0:00:02.00

     Пиковый уровень 99.9 %
     Качество трека 100.0 %
     CRC теста EE11A7B5
     CRC копии EE11A7B5
     Копирование... OK

Трек  3

     Имя файла H:\Торрентс.ру\Foghat - 1981 & 1982\03 - Live Now - Pay Later.wav

     Длина предзазора  0:00:02.00

     Пиковый уровень 99.9 %
     Качество трека 100.0 %
     CRC теста EA1EF956
     CRC копии EA1EF956
     Копирование... OK

Трек  4

     Имя файла H:\Торрентс.ру\Foghat - 1981 & 1982\04 - Love Zone.wav

     Длина предзазора  0:00:02.00

     Пиковый уровень 99.9 %
     Качество трека 99.9 %
     CRC теста 7661B8D9
     CRC копии 7661B8D9
     Копирование... OK

Трек  5

     Имя файла H:\Торрентс.ру\Foghat - 1981 & 1982\05 - Delayed Reaction.wav

     Длина предзазора  0:00:02.00

     Пиковый уровень 99.9 %
     Качество трека 100.0 %
     CRC теста D9F17D8E
     CRC копии D9F17D8E
     Копирование... OK

Трек  6

     Имя файла H:\Торрентс.ру\Foghat - 1981 & 1982\06 - Second Childhood.wav

     Длина предзазора  0:00:02.00

     Пиковый уровень 99.9 %
     Качество трека 100.0 %
     CRC теста 45C56A22
     CRC копии 45C56A22
     Копирование... OK

Трек  7

     Имя файла H:\Торрентс.ру\Foghat - 1981 & 1982\07 - Weekend Driver.wav

     Длина предзазора  0:00:02.00

     Пиковый уровень 99.9 %
     Качество трека 100.0 %
     CRC теста E93298AC
     CRC копии E93298AC
     Копирование... OK

Трек  8

     Имя файла H:\Торрентс.ру\Foghat - 1981 & 1982\08 - Sing About Love.wav

     Длина предзазора  0:00:02.00

     Пиковый уровень 99.9 %
     Качество трека 100.0 %
     CRC теста 4AD15F43
     CRC копии 4AD15F43
     Копирование... OK

Трек  9

     Имя файла H:\Торрентс.ру\Foghat - 1981 & 1982\09 - Slipped, Tripped, Fell in Love.wav

     Длина предзазора  0:00:02.00

     Пиковый уровень 99.9 %
     Качество трека 99.9 %
     CRC теста 6089C453
     CRC копии 6089C453
     Копирование... OK

Трек 10

     Имя файла H:\Торрентс.ру\Foghat - 1981 & 1982\10 - Bustin' Up or Bustin' Out.wav

     Длина предзазора  0:00:02.00

     Пиковый уровень 99.9 %
     Качество трека 100.0 %
     CRC теста 8AC981F6
     CRC копии 8AC981F6
     Копирование... OK

Трек 11

     Имя файла H:\Торрентс.ру\Foghat - 1981 & 1982\11 - Take This Heart of Mine.wav

     Длина предзазора  0:00:02.00

     Пиковый уровень 99.9 %
     Качество трека 100.0 %
     CRC теста D24BBA45
     CRC копии D24BBA45
     Копирование... OK

Трек 12

     Имя файла H:\Торрентс.ру\Foghat - 1981 & 1982\12 - Love Rustler.wav

     Длина предзазора  0:00:02.00

     Пиковый уровень 99.9 %
     Качество трека 100.0 %
     CRC теста 483784BA
     CRC копии 483784BA
     Копирование... OK

Трек 13

     Имя файла H:\Торрентс.ру\Foghat - 1981 & 1982\13 - Ain't Livin' Long Like This.wav

     Длина предзазора  0:00:02.00

     Пиковый уровень 99.9 %
     Качество трека 100.0 %
     CRC теста 276A524C
     CRC копии 276A524C
     Копирование... OK

Трек 14

     Имя файла H:\Торрентс.ру\Foghat - 1981 & 1982\14 -  Back for a Taste of Your Love.wav

     Длина предзазора  0:00:02.00

     Пиковый уровень 99.9 %
     Качество трека 99.9 %
     CRC теста 870F91D5
     CRC копии 870F91D5
     Копирование... OK

Трек 15

     Имя файла H:\Торрентс.ру\Foghat - 1981 & 1982\15 - There Ain't No Man That Can't Be Taught.wav

     Длина предзазора  0:00:02.00

     Пиковый уровень 99.9 %
     Качество трека 100.0 %
     CRC теста 75360988
     CRC копии 75360988
     Копирование... OK

Трек 16

     Имя файла H:\Торрентс.ру\Foghat - 1981 & 1982\16 - And I Do Just What I Want.wav

     Длина предзазора  0:00:02.00

     Пиковый уровень 99.9 %
     Качество трека 100.0 %
     CRC теста 713C71BC
     CRC копии 713C71BC
     Копирование... OK

Ошибок не произошло

Конец отчёта
Код:
Код:
-----------------------

DON'T MODIFY THIS FILE

-----------------------

PERFORMER: auCDtect Task Manager, ver. 1.5.1RC4 build 1.5.1.5
Copyright (c) 2008-2010 y-soft. All rights reserved
http:/y-soft.org

ANALYZER: auCDtect: CD records authenticity detector, version 0.8.2
Copyright (c) 2004 Oleg Berngardt. All rights reserved.
Copyright (c) 2004 Alexander Djourik. All rights reserved.

FILE: 16 - And I Do Just What I Want.flac
  Size: 25172151 Hash: 910AAB5A71BC39E6241CBFC79D7255BE Accuracy: -m0
  Conclusion: CDDA 100%
  Signature: B771A11C421DE61CC72EB57CE756AAE6B6260428
FILE: 15 - There Ain't No Man That Can't Be Taught.flac
  Size: 29020338 Hash: 6240A60016BE1FDD67C380D24C2DB647 Accuracy: -m0
  Conclusion: CDDA 100%
  Signature: CE910A52DC47B06B5B03DA25C2C14003BA6BC172
FILE: 14 -  Back for a Taste of Your Love.flac
  Size: 36083282 Hash: 21C94D89655746EF552E9FC38E0A0187 Accuracy: -m0
  Conclusion: CDDA 100%
  Signature: C5EDA7245BEECF02CC800DBA783CAB4278C5C1FE
FILE: 13 - Ain't Livin' Long Like This.flac
  Size: 39573592 Hash: 2C7708A07BF48110FE9B54D718AE9607 Accuracy: -m0
  Conclusion: CDDA 100%
  Signature: 198033D942CAD527EFE6A54EF0646422D3222F65
FILE: 12 - Love Rustler.flac
  Size: 44511884 Hash: FDC61F60F56D388714C0139478BC1D92 Accuracy: -m0
  Conclusion: CDDA 100%
  Signature: D0544E2AB64E3BA104563543522DF9F685F7E6E3
FILE: 11 - Take This Heart of Mine.flac
  Size: 23158989 Hash: 7FC2DB2F16D99B4288687A71266DF50E Accuracy: -m0
  Conclusion: CDDA 100%
  Signature: 0B65AC897975D94585B79A05E8C65AB596E59B72
FILE: 10 - Bustin' Up or Bustin' Out.flac
  Size: 29267608 Hash: DD8E3A3BE0C488F394F8DAA88FDDB13D Accuracy: -m0
  Conclusion: CDDA 100%
  Signature: 67D9A3A4364D634EFB2373B9F0921CF987DBC9C9
FILE: 09 - Slipped, Tripped, Fell in Love.flac
  Size: 34222449 Hash: DCAE79AA4A4DD426F10D050AC09DFF0F Accuracy: -m0
  Conclusion: CDDA 100%
  Signature: 05472C317B407C8E9B904347895423DBBBFFE70F
FILE: 08 - Sing About Love.flac
  Size: 27951069 Hash: 3DD4115E27CC5601EA68E3C2F2BE3456 Accuracy: -m0
  Conclusion: CDDA 100%
  Signature: 0E3BCC23E2ECF737B072C73B5EBD62134CE868E0
FILE: 07 - Weekend Driver.flac
  Size: 29803383 Hash: DEB7A36A2252A0D24CA45435E107587C Accuracy: -m0
  Conclusion: CDDA 100%
  Signature: B05FFE765ECB37C1E69FC2D2B80A1847EAE0188A
FILE: 06 - Second Childhood.flac
  Size: 41110232 Hash: 30A5105F85EAADFC6D7DDABBBB135472 Accuracy: -m0
  Conclusion: CDDA 99%
  Signature: DF689AED23E46B1A15E55F6CF67939630F9811FB
FILE: 05 - Delayed Reaction.flac
  Size: 46492403 Hash: 1BB2F73FF08EA3ABD1AD50B1C448BCA1 Accuracy: -m0
  Conclusion: CDDA 100%
  Signature: 79156D683A4F83E2C894F30AA45F4FF039B9FE38
FILE: 04 - Love Zone.flac
  Size: 38493565 Hash: E400A372A333D4D74A38F7447DDB8678 Accuracy: -m0
  Conclusion: CDDA 100%
  Signature: 3FC95A6867BE560CCB7E720718850868E0ED25AD
FILE: 03 - Live Now - Pay Later.flac
  Size: 44479921 Hash: ABFF9E5DE3A9F1B93971AE36A7D937F3 Accuracy: -m0
  Conclusion: CDDA 100%
  Signature: 15FD0F83D32180B01DFEAD2F421F7B0C06FAEA05
FILE: 02 - Let Me Get Close to You.flac
  Size: 40135012 Hash: 5F00FA3ACF6A42E2FA14903726724A4A Accuracy: -m0
  Conclusion: CDDA 100%
  Signature: 788F337D077905B1AC02A9926A59A4139ED1F810
FILE: 01 -  Wide Boy.flac
  Size: 22626470 Hash: A2D1C11BD1969EED3246F1D9AAE82AE2 Accuracy: -m0
  Conclusion: CDDA 100%
  Signature: C566815C23D862AF80F90F0B1F80F865424E859B
Продолжительность: 01:11:23
FLAC (tracks + .cue)
#777Трэклист:

01. That's What Love Can Do (3:55)
02. Zig-Zag Walk (3:29)
03. Choo Choo Ch'Boogie (2:43)
04. Jenny Don't Mind (4:37)
05. Three Wheeled Cadillac (3:56)
06. It'll Be Me (3:30)
07. Silent Treatment (3:18)
08. Down the Road a Piece (2:36)
09. Seven Day Weekend (4:10)
10. Linda Lou (3:47)
11. Ubang stom(bonus) (2:48)
12. All I Want for Christmas Is You(bonus) (4:06)
13. I Just Want to make Love To You(Bonus- Live version) (3:49)
Код:
Код:
Exact Audio Copy V0.99 prebeta 3 from 28. July 2007

Отчёт EAC об извлечении, выполненном 6. декабря 2009, 19:50

Foghat / Zig-Zag Walk

Дисковод: Optiarc DVD RW AD-7203A   Adapter: 0  ID: 0

Режим чтения                 : Достоверность
Использование точного потока : Да
Отключение кэша аудио        : Да
Использование указателей C2  : Нет

Коррекция смещения при чтении                     : 48
Способность читать области Lead-in и Lead-out     : Нет
Заполнение пропущенных сэмплов тишиной            : Да
Удаление блоков с тишиной в начале и конце        : Нет
При вычислениях CRC использовались нулевые сэмплы : Да
Интерфейс                                         : Встроенный Win32-интерфейс для Win NT/2000
Обработка зазоров                                 : Не обнаружено, добавлено к предыдущему треку

Выходной формат          : Пользовательский кодировщик
Выбранный битрейт        : 768 kBit/s
Качество                 : Высокий
Добавление ID3-тэга      : Нет
Утилита сжатия           : I:\Program Files\Exact Audio Copy\FLAC\FLAC.EXE
Дополнительные параметры : -6 -V -T "ARTIST=%a" -T "TITLE=%t" -T "ALBUM=%g" -T "DATE=%y" -T "TRACKNUMBER=%n" -T "GENRE=%m" -T "COMMENT=%e" %s -o %d

TOC извлечённого CD

     Трек |   Старт  | Длительность | Начальный сектор | Конечный сектор
    ---------------------------------------------------------------------
       1  |  0:00.00 |    3:54.51   |           0      |      17600
       2  |  3:54.51 |    3:20.74   |       17601      |      32674
       3  |  7:15.50 |    2:43.00   |       32675      |      44899
       4  |  9:58.50 |    4:31.01   |       44900      |      65225
       5  | 14:29.51 |    3:47.00   |       65226      |      82250
       6  | 18:16.51 |    3:19.38   |       82251      |      97213
       7  | 21:36.14 |    3:15.00   |       97214      |     111838
       8  | 24:51.14 |    2:26.44   |      111839      |     122832
       9  | 27:17.58 |    4:06.00   |      122833      |     141282
      10  | 31:23.58 |    3:38.07   |      141283      |     157639
      11  | 35:01.65 |    2:47.39   |      157640      |     170203
      12  | 37:49.29 |    4:05.44   |      170204      |     188622
      13  | 41:54.73 |    3:48.56   |      188623      |     205778

Трек  1

     Имя файла I:\temp\Foghat\(01) That's What Love Can Do - Foghat.wav

     Пиковый уровень 100.0 %
     Качество трека 100.0 %
     CRC теста 7AE076C1
     CRC копии 7AE076C1
     Трек не обнаружен в базе AccurateRip
     Копирование... OK

Трек  2

     Имя файла I:\temp\Foghat\(02) Zig-Zag Walk - Foghat.wav

     Пиковый уровень 100.0 %
     Качество трека 100.0 %
     CRC теста 81DC6234
     CRC копии 81DC6234
     Трек не обнаружен в базе AccurateRip
     Копирование... OK

Трек  3

     Имя файла I:\temp\Foghat\(03) Choo Choo Ch'Boogie - Foghat.wav

     Пиковый уровень 100.0 %
     Качество трека 100.0 %
     CRC теста 882E1118
     CRC копии 882E1118
     Трек не обнаружен в базе AccurateRip
     Копирование... OK

Трек  4

     Имя файла I:\temp\Foghat\(04) Jenny Don't Mind - Foghat.wav

     Пиковый уровень 100.0 %
     Качество трека 100.0 %
     CRC теста 2E1BAB5C
     CRC копии 2E1BAB5C
     Трек не обнаружен в базе AccurateRip
     Копирование... OK

Трек  5

     Имя файла I:\temp\Foghat\(05) Three Wheeled Cadillac - Foghat.wav

     Пиковый уровень 100.0 %
     Качество трека 100.0 %
     CRC теста 417A9175
     CRC копии 417A9175
     Трек не обнаружен в базе AccurateRip
     Копирование... OK

Трек  6

     Имя файла I:\temp\Foghat\(06)  It'll Be Me - Foghat.wav

     Пиковый уровень 100.0 %
     Качество трека 100.0 %
     CRC теста 66214921
     CRC копии 66214921
     Трек не обнаружен в базе AccurateRip
     Копирование... OK

Трек  7

     Имя файла I:\temp\Foghat\(07) Silent Treatment - Foghat.wav

     Пиковый уровень 100.0 %
     Качество трека 100.0 %
     CRC теста 9DA2AC83
     CRC копии 9DA2AC83
     Трек не обнаружен в базе AccurateRip
     Копирование... OK

Трек  8

     Имя файла I:\temp\Foghat\(08) Down the Road a Piece - Foghat.wav

     Пиковый уровень 100.0 %
     Качество трека 100.0 %
     CRC теста E1E1CF9B
     CRC копии E1E1CF9B
     Трек не обнаружен в базе AccurateRip
     Копирование... OK

Трек  9

     Имя файла I:\temp\Foghat\(09) Seven Day Weekend - Foghat.wav

     Пиковый уровень 100.0 %
     Качество трека 100.0 %
     CRC теста C86A944D
     CRC копии C86A944D
     Трек не обнаружен в базе AccurateRip
     Копирование... OK

Трек 10

     Имя файла I:\temp\Foghat\(10)  Linda Lou - Foghat.wav

     Пиковый уровень 100.0 %
     Качество трека 100.0 %
     CRC теста 77107214
     CRC копии 77107214
     Трек не обнаружен в базе AccurateRip
     Копирование... OK

Трек 11

     Имя файла I:\temp\Foghat\(11) Ubang stom(bonus) - Foghat.wav

     Пиковый уровень 100.0 %
     Качество трека 100.0 %
     CRC теста 07305A79
     CRC копии 07305A79
     Трек не обнаружен в базе AccurateRip
     Копирование... OK

Трек 12

     Имя файла I:\temp\Foghat\(12) All I Want for Christmas Is You(bonus) - Foghat.wav

     Пиковый уровень 100.0 %
     Качество трека 100.0 %
     CRC теста 4DCB1D1E
     CRC копии 4DCB1D1E
     Трек не обнаружен в базе AccurateRip
     Копирование... OK

Трек 13

     Имя файла I:\temp\Foghat\(13) I Just Want to make Love To You(Bonus- Live version) - Foghat.wav

     Пиковый уровень 100.0 %
     Качество трека 100.0 %
     CRC теста 2E14B4BF
     CRC копии 2E14B4BF
     Трек не обнаружен в базе AccurateRip
     Копирование... OK

Ни одного трека нет в базе AccurateRip

Ошибок не произошло

Конец отчёта
Код:
Код:
-----------------------

DON'T MODIFY THIS FILE

-----------------------

PERFORMER: auCDtect Task Manager, ver. 1.5.1RC4 build 1.5.1.5
Copyright (c) 2008-2010 y-soft. All rights reserved
http:/y-soft.org

ANALYZER: auCDtect: CD records authenticity detector, version 0.8.2
Copyright (c) 2004 Oleg Berngardt. All rights reserved.
Copyright (c) 2004 Alexander Djourik. All rights reserved.

FILE: (13) I Just Want to make Love To You(Bonus- Live version) - Foghat.flac
  Size: 29766788 Hash: CFC104EADA8D86E05C99EE35334E5A8D Accuracy: -m0
  Conclusion: CDDA 100%
  Signature: DF052CD672A7CEE4AEC7F93F34AED5E25C637627
FILE: (12) All I Want for Christmas Is You(bonus) - Foghat.flac
  Size: 29447270 Hash: 8835AD994E9C894CE0D67DBF68B0B36A Accuracy: -m0
  Conclusion: CDDA 86%
  Signature: 290FEDD92A1A2C6C3E197E7FBF00FAFBEB03907D
FILE: (11) Ubang stom(bonus) - Foghat.flac
  Size: 21705350 Hash: D93685AC6D53F0946E13F3EEE9107102 Accuracy: -m0
  Conclusion: CDDA 100%
  Signature: 59EAC13D2BA75AB55A50B9D51C6FD5350F576856
FILE: (10)  Linda Lou - Foghat.flac
  Size: 28055337 Hash: 9F9A87443943F8DEC303404F191360F6 Accuracy: -m0
  Conclusion: CDDA 100%
  Signature: A521A58994099B0D4F635400B3604A2DF8A621D6
FILE: (09) Seven Day Weekend - Foghat.flac
  Size: 31681963 Hash: 76BB13F9C5FF50B3F4CFD402B9965502 Accuracy: -m0
  Conclusion: CDDA 100%
  Signature: 495BA8BC655C711CE4C5D0D30022CFB31C0F2AD3
FILE: (08) Down the Road a Piece - Foghat.flac
  Size: 19127884 Hash: 51D5B7AB828F218552201C85EA9B68C3 Accuracy: -m0
  Conclusion: CDDA 100%
  Signature: FFF8037E9C424D664E52E3C1DDA63B066E59CA2B
FILE: (07) Silent Treatment - Foghat.flac
  Size: 25140304 Hash: 83C6D06D83E5D88A4E210BAA4B8485A2 Accuracy: -m0
  Conclusion: CDDA 100%
  Signature: F559A863AF1BFA4F3DF6BA8160BDF7B1C6758F8D
FILE: (06)  It'll Be Me - Foghat.flac
  Size: 27254462 Hash: 500A12D9D756C3ED454B5336E1DDF34C Accuracy: -m0
  Conclusion: CDDA 100%
  Signature: 31E8F4CEB42F3D881FA33CB33466019817814481
FILE: (05) Three Wheeled Cadillac - Foghat.flac
  Size: 29775318 Hash: 26E6448737B6E66A097F3E171E422768 Accuracy: -m0
  Conclusion: CDDA 100%
  Signature: 6042B68C42DE0E9F768432C80C0F3398D8F3843F
FILE: (04) Jenny Don't Mind - Foghat.flac
  Size: 35774705 Hash: 950E639E7331031B836DF07994DD18D9 Accuracy: -m0
  Conclusion: CDDA 100%
  Signature: 71D0BD5CD3EA2EEE569847BD361CF6D80D9D73C6
FILE: (03) Choo Choo Ch'Boogie - Foghat.flac
  Size: 20666738 Hash: DC8DB8FC7AEB40DBB7DEE449967EDC6F Accuracy: -m0
  Conclusion: CDDA 100%
  Signature: 1B7E83F287BC8782BC35CB22931758B182BB6D73
FILE: (02) Zig-Zag Walk - Foghat.flac
  Size: 23864751 Hash: 9B8F56391A4E9165DC75EBBCF5EA1FC9 Accuracy: -m0
  Conclusion: CDDA 100%
  Signature: F910A2EA2FC42AEB07B861DA82943B61E4D3D629
FILE: (01) That's What Love Can Do - Foghat.flac
  Size: 30272658 Hash: D57D5535C0AA7CA0F9A8508094F12D8B Accuracy: -m0
  Conclusion: CDDA 100%
  Signature: 1F274D27F4FD9C0975908B53008443FF979EDCFF
Продолжительность: 00:46:42
FLAC (tracks + .cue)
#777Трэклист:

01. I Just Want To Make Love To You (4:21)
02. Maybelline (3:35)
03. Ride, Ride, Ride (4:28)
04. Take It Or Leave It (4:58)
05. Home In My Hand (4:59)
06. Drivin' Wheel (4:31)
07. Fool For The City (3:30)
08. Slow Ride (3:59)
09. Stone Blue (4:00)
10. Honey Hush (4:23)
11. Night Shift (5:35)
12. Wild Cherry (5:29)
13. Third Time Lucky (First Time I Was A Fool) (4:14)
14. Easy Money (3:56)
15. Chateau Lafitte '59 Boogie (6:18)
16. Eight Days On The Road (6:05)
Код:
Код:
Exact Audio Copy V0.99 prebeta 5 from 4. May 2009

EAC extraction logfile from 31. October 2009, 6:01

Foghat / The Best Of Foghat

Used drive  : ATAPI   DVD C  DH48C1P   Adapter: 1  ID: 1

Read mode               : Secure
Utilize accurate stream : Yes
Defeat audio cache      : Yes
Make use of C2 pointers : No

Read offset correction                      : 6
Overread into Lead-In and Lead-Out          : No
Fill up missing offset samples with silence : Yes
Delete leading and trailing silent blocks   : No
Null samples used in CRC calculations       : No
Used interface                              : Native Win32 interface for Win NT & 2000
Gap handling                                : Not detected, thus appended to previous track

Used output format              : User Defined Encoder
Selected bitrate                : 1024 kBit/s
Quality                         : High
Add ID3 tag                     : No
Command line compressor         : C:\Program Files\Exact Audio Copy\FLAC\FLAC.EXE
Additional command line options : -6 -V -T "ARTIST=%a" -T "TITLE=%t" -T "ALBUM=%g" -T "DATE=%y" -T "TRACKNUMBER=%n" -T "GENRE=%m" -T "COMMENT=%e" %s -o %d

TOC of the extracted CD

     Track |   Start  |  Length  | Start sector | End sector
    ---------------------------------------------------------
        1  |  0:00.32 |  4:21.33 |        32    |    19639
        2  |  4:21.65 |  3:34.47 |     19640    |    35736
        3  |  7:56.37 |  4:28.08 |     35737    |    55844
        4  | 12:24.45 |  4:57.70 |     55845    |    78189
        5  | 17:22.40 |  4:59.12 |     78190    |   100626
        6  | 22:21.52 |  4:31.13 |    100627    |   120964
        7  | 26:52.65 |  3:30.00 |    120965    |   136714
        8  | 30:22.65 |  3:58.47 |    136715    |   154611
        9  | 34:21.37 |  3:59.50 |    154612    |   172586
       10  | 38:21.12 |  4:23.23 |    172587    |   192334
       11  | 42:44.35 |  5:34.70 |    192335    |   217454
       12  | 48:19.30 |  5:29.10 |    217455    |   242139
       13  | 53:48.40 |  4:13.67 |    242140    |   261181
       14  | 58:02.32 |  3:55.70 |    261182    |   278876
       15  | 61:58.27 |  6:17.65 |    278877    |   307216
       16  | 68:16.17 |  6:04.53 |    307217    |   334569

Track  1

     Filename N:\01. Foghat - I Just Want To Make Love To You.wav

     Peak level 76.6 %
     Track quality 100.0 %
     Copy CRC 1FA62FB1
     Accurately ripped (confidence 20)  [6E7A01E4]
     Copy OK

Track  2

     Filename N:\02. Foghat - Maybelline.wav

     Peak level 90.2 %
     Track quality 100.0 %
     Copy CRC CB788944
     Accurately ripped (confidence 20)  [0A13EC62]
     Copy OK

Track  3

     Filename N:\03. Foghat - Ride, Ride, Ride.wav

     Peak level 100.0 %
     Track quality 100.0 %
     Copy CRC 1A54D5CB
     Accurately ripped (confidence 20)  [C0A89432]
     Copy OK

Track  4

     Filename N:\04. Foghat - Take It Or Leave It.wav

     Peak level 98.3 %
     Track quality 100.0 %
     Copy CRC EE3DC43D
     Accurately ripped (confidence 20)  [0CE06E69]
     Copy OK

Track  5

     Filename N:\05. Foghat - Home In My Hand.wav

     Peak level 87.8 %
     Track quality 100.0 %
     Copy CRC 7EF6B185
     Accurately ripped (confidence 20)  [FDB9EED2]
     Copy OK

Track  6

     Filename N:\06. Foghat - Drivin' Wheel.wav

     Peak level 100.0 %
     Track quality 100.0 %
     Copy CRC AFD622F1
     Accurately ripped (confidence 19)  [ABE3BEC0]
     Copy OK

Track  7

     Filename N:\07. Foghat - Fool For The City.wav

     Peak level 100.0 %
     Track quality 100.0 %
     Copy CRC 9526286D
     Accurately ripped (confidence 19)  [09F7559E]
     Copy OK

Track  8

     Filename N:\08. Foghat - Slow Ride.wav

     Peak level 100.0 %
     Track quality 100.0 %
     Copy CRC CAE25901
     Accurately ripped (confidence 20)  [28D4FF7F]
     Copy OK

Track  9

     Filename N:\09. Foghat - Stone Blue.wav

     Peak level 99.3 %
     Track quality 100.0 %
     Copy CRC 785363E8
     Accurately ripped (confidence 19)  [823EDA89]
     Copy OK

Track 10

     Filename N:\10. Foghat - Honey Hush.wav

     Peak level 99.8 %
     Track quality 99.9 %
     Copy CRC DF28749E
     Accurately ripped (confidence 19)  [98EAD6F5]
     Copy OK

Track 11

     Filename N:\11. Foghat - Night Shift.wav

     Peak level 100.0 %
     Track quality 100.0 %
     Copy CRC 2A493ED0
     Accurately ripped (confidence 19)  [66153EC4]
     Copy OK

Track 12

     Filename N:\12. Foghat - Wild Cherry.wav

     Peak level 100.0 %
     Track quality 100.0 %
     Copy CRC 2A414E8F
     Accurately ripped (confidence 19)  [14535DAE]
     Copy OK

Track 13

     Filename N:\13. Foghat - Third Time Lucky (First Time I Was A Fool).wav

     Peak level 100.0 %
     Track quality 100.0 %
     Copy CRC A202B9E6
     Accurately ripped (confidence 20)  [9329CA9F]
     Copy OK

Track 14

     Filename N:\14. Foghat - Easy Money.wav

     Peak level 99.9 %
     Track quality 100.0 %
     Copy CRC 43A257B5
     Accurately ripped (confidence 19)  [9109394F]
     Copy OK

Track 15

     Filename N:\15. Foghat - Chateau Lafitte '59 Boogie.wav

     Peak level 82.9 %
     Track quality 99.9 %
     Copy CRC 8414BB50
     Accurately ripped (confidence 19)  [922B4C33]
     Copy OK

Track 16

     Filename N:\16. Foghat - Eight Days On The Road.wav

     Peak level 83.3 %
     Track quality 100.0 %
     Copy CRC 9B87ACEA
     Accurately ripped (confidence 16)  [913FC89B]
     Copy OK

All tracks accurately ripped

No errors occurred

End of status report
Код:
Код:
-----------------------

DON'T MODIFY THIS FILE

-----------------------

PERFORMER: auCDtect Task Manager, ver. 1.5.1RC4 build 1.5.1.5
Copyright (c) 2008-2010 y-soft. All rights reserved
http:/y-soft.org

ANALYZER: auCDtect: CD records authenticity detector, version 0.8.2
Copyright (c) 2004 Oleg Berngardt. All rights reserved.
Copyright (c) 2004 Alexander Djourik. All rights reserved.

FILE: 16. Foghat - Eight Days On The Road.flac
  Size: 41815690 Hash: 83693FBEA19DA05E3F3DBBC7DB11577F Accuracy: -m0
  Conclusion: CDDA 100%
  Signature: 4587B2FDC88A88CE09E839A079DFBCDBF4000041
FILE: 15. Foghat - Chateau Lafitte '59 Boogie.flac
  Size: 47018274 Hash: B323D6882DAD99DFEE23E70EBBA962E1 Accuracy: -m0
  Conclusion: CDDA 100%
  Signature: 80A0232BEDC56EBDA24A68A774E4FCDFE5B6AA75
FILE: 14. Foghat - Easy Money.flac
  Size: 28381627 Hash: EB805C5A8D063E6E46962C8D926CDA81 Accuracy: -m0
  Conclusion: CDDA 100%
  Signature: FDB6B42A5A6024B150128BE6A1CAAABB8DF73CEE
FILE: 13. Foghat - Third Time Lucky (First Time I Was A Fool).flac
  Size: 29686255 Hash: 5C8DA07E19B123B8C625F88466A823C9 Accuracy: -m0
  Conclusion: CDDA 100%
  Signature: B7FEDF5EE900AA963A2477DBFFA4BFAE8E668402
FILE: 12. Foghat - Wild Cherry.flac
  Size: 37466179 Hash: 4B540D03523AC98D075FE9B5973465DF Accuracy: -m0
  Conclusion: CDDA 100%
  Signature: DE0A92D4900AEE956BD5CED66B1138127BF9A1F4
FILE: 11. Foghat - Night Shift.flac
  Size: 36294297 Hash: 5A4B73D9DDC10463BCF7337F295CE51A Accuracy: -m0
  Conclusion: CDDA 100%
  Signature: 7DF53160C4C578BCAF8000618F3FC0BD47C414D9
FILE: 10. Foghat - Honey Hush.flac
  Size: 29706786 Hash: 2ABEE07D60F25F2D4A2C437889A8FD06 Accuracy: -m0
  Conclusion: CDDA 100%
  Signature: 6BA7526EDD4351BF202E73900D6CBDAE3CB08325
FILE: 09. Foghat - Stone Blue.flac
  Size: 27509053 Hash: 49A992E3FDBC080CFDACAF2748F5E66A Accuracy: -m0
  Conclusion: CDDA 100%
  Signature: E01D3FF71588C44533773DB6A881FCE82451EF3C
FILE: 08. Foghat - Slow Ride.flac
  Size: 29806010 Hash: FF5BCAE25DF5A23E0C9AB859D993229D Accuracy: -m0
  Conclusion: CDDA 100%
  Signature: A98624F1B8F85415A7B697B2FCF59E5CE4A2603E
FILE: 07. Foghat - Fool For The City.flac
  Size: 24617444 Hash: 4FA010CFAE670399C1EA6AA5292121D0 Accuracy: -m0
  Conclusion: CDDA 100%
  Signature: E9730DC9B68AFD0E5AC5AC1770356A853DE1973A
FILE: 06. Foghat - Drivin' Wheel.flac
  Size: 30992191 Hash: 5C3775E94C82E491D23BF3AC9123D6C3 Accuracy: -m0
  Conclusion: CDDA 100%
  Signature: DCAA41EEFAA94BB831A8EB3058E48CCE00F80629
FILE: 05. Foghat - Home In My Hand.flac
  Size: 35391644 Hash: 1C614C8AF7BAD7A16C00D1255249A67E Accuracy: -m0
  Conclusion: CDDA 100%
  Signature: EC769406BAFCE7F2FFDD39A7A0DED5821BCFEA76
FILE: 04. Foghat - Take It Or Leave It.flac
  Size: 32148052 Hash: 195FFC1D8D5F00D084F7454F5C609551 Accuracy: -m0
  Conclusion: CDDA 100%
  Signature: 58C37A49FAFA47B8031102D6C088686C391F0396
FILE: 03. Foghat - Ride, Ride, Ride.flac
  Size: 31604484 Hash: C3F7B7035D3B57E4556C43500E92A967 Accuracy: -m0
  Conclusion: CDDA 100%
  Signature: C49DED6DEFF795D2FC2A23F758D4D58DC3E77EDA
FILE: 02. Foghat - Maybelline.flac
  Size: 25277615 Hash: 06337493D9EEF4E24D9E382C98478FCF Accuracy: -m0
  Conclusion: CDDA 99%
  Signature: F956BE62FC8CC047DD1E96CFBBE41472A351E8D3
FILE: 01. Foghat - I Just Want To Make Love To You.flac
  Size: 30955760 Hash: 3CC9E26910DD57A3A03238B85957D1D1 Accuracy: -m0
  Conclusion: CDDA 100%
  Signature: E8929A95A32BA8E9ABB4A7BADD445733DC43B77B
Продолжительность: 01:14:21
FLAC (tracks + .cue)
#777Трэклист:

01. Jump That Train (5:16)
02. Louisiana Blues (5:47)
03. Motel Shaker (4:39)
04. Play Dirty (5:03)
05. Nothin' But Trouble (4:50)
06. Talk to Me Baby (3:57)
07. I Just Want to Make Love to You (4:19)
08. Take Me to the River (5:15)
09. That's Alright Mama (4:19)
10. Feel So Good (3:04)
11. I Want You to Love Me (5:34)
12. Writing on the Wall (4:27)
Код:
Код:
Exact Audio Copy V0.99 prebeta 4 from 23. January 2008

Отчёт EAC об извлечении, выполненном 4. марта 2009, 18:44

Foghat - Return of the Boogie Man / -

Дисковод: Optiarc DVD RW AD-7201A   Adapter: 0  ID: 0

Режим чтения                 : Достоверность
Использование точного потока : Да
Отключение кэша аудио        : Да
Использование указателей C2  : Нет

Коррекция смещения при чтении                     : 48
Способность читать области Lead-in и Lead-out     : Нет
Заполнение пропущенных сэмплов тишиной            : Да
Удаление блоков с тишиной в начале и конце        : Нет
При вычислениях CRC использовались нулевые сэмплы : Да
Интерфейс                                         : Установленный внешний ASPI-интерфейс

Выходной формат : Внутренние WAV-операции
Формат сэмплов  : 44.100 Гц; 16 бит; стерео

TOC извлечённого CD

     Трек |   Старт  | Длительность | Начальный сектор | Конечный сектор
    ---------------------------------------------------------------------
       1  |  0:00.32 |    5:16.30   |          32      |      23761
       2  |  5:16.62 |    5:47.35   |       23762      |      49821
       3  | 11:04.22 |    4:39.05   |       49822      |      70751
       4  | 15:43.27 |    5:03.28   |       70752      |      93504
       5  | 20:46.55 |    4:49.62   |       93505      |     115241
       6  | 25:36.42 |    3:56.50   |      115242      |     132991
       7  | 29:33.17 |    4:18.58   |      132992      |     152399
       8  | 33:52.00 |    5:15.15   |      152400      |     176039
       9  | 39:07.15 |    4:18.60   |      176040      |     195449
      10  | 43:26.00 |    3:03.65   |      195450      |     209239
      11  | 46:29.65 |    5:33.47   |      209240      |     234261
      12  | 52:03.37 |    4:27.08   |      234262      |     254294

Характеристики диапазона извлечения и сообщения об ошибках

Выбранный диапазон

     Имя файла C:\Documents and Settings\Администратор\Рабочий стол\Foghat-Return of the Boogie Man\Foghat - Return of the Boogie Man.wav

     Пиковый уровень 100.0 %
     Качество диапазона 100.0 %
     CRC копии 304E5583
     Копирование... OK

Ошибок не произошло

Конец отчёта
Код:
Код:
-----------------------

DON'T MODIFY THIS FILE

-----------------------

PERFORMER: auCDtect Task Manager, ver. 1.5.1RC4 build 1.5.1.5
Copyright (c) 2008-2010 y-soft. All rights reserved
http:/y-soft.org

ANALYZER: auCDtect: CD records authenticity detector, version 0.8.2
Copyright (c) 2004 Oleg Berngardt. All rights reserved.
Copyright (c) 2004 Alexander Djourik. All rights reserved.

FILE: Foghat - Return of the Boogie Man.ape
  Size: 402357780 Hash: 8371A1DED9E7F2687C64D1D58D74CBCB Accuracy: -m0
  Conclusion: CDDA 100%
  Signature: 9257CB40EF6057F55E672AC870A0684EE94CBB61
Продолжительность: 00:56:30
APE (image + .cue)
#777Трэклист:

01. I Just Want To Make Love To You (9:55)
02. Drivin Wheel (7:21)
03. Chevrolet (4:22)
04. Soakin' The Bone (4:00)
05. Sweet Home Chicago (7:48)
06. Rock Your House (6:06)
07. It Hurts Me Too (8:05)
08. Bad Bad Lovin' (4:14)
09. Fool For the City (5:05)
10. Slow Ride (9:23)
11. Angel Of Mercy (5:09)
12. Tear You Down (4:52)
Код:
Код:
Exact Audio Copy V0.99 prebeta 5 from 4. May 2009

EAC extraction logfile from 13. April 2010, 18:45

Foghat / Road Cases

Used drive  : SONY    DVD RW DRX-S70U   Adapter: 1  ID: 0

Read mode               : Secure
Utilize accurate stream : Yes
Defeat audio cache      : Yes
Make use of C2 pointers : No

Read offset correction                      : 48
Overread into Lead-In and Lead-Out          : No
Fill up missing offset samples with silence : Yes
Delete leading and trailing silent blocks   : No
Null samples used in CRC calculations       : No
Used interface                              : Native Win32 interface for Win NT & 2000

Used output format : Internal WAV Routines
Sample format      : 44.100 Hz; 16 Bit; Stereo

TOC of the extracted CD

     Track |   Start  |  Length  | Start sector | End sector
    ---------------------------------------------------------
        1  |  0:00.00 |  9:54.47 |         0    |    44596
        2  |  9:54.47 |  7:21.23 |     44597    |    77694
        3  | 17:15.70 |  4:21.52 |     77695    |    97321
        4  | 21:37.47 |  3:59.45 |     97322    |   115291
        5  | 25:37.17 |  7:48.03 |    115292    |   150394
        6  | 33:25.20 |  6:06.20 |    150395    |   177864
        7  | 39:31.40 |  8:04.55 |    177865    |   214219
        8  | 47:36.20 |  4:13.67 |    214220    |   233261
        9  | 51:50.12 |  5:05.15 |    233262    |   256151
       10  | 56:55.27 |  9:22.73 |    256152    |   298374
       11  | 66:18.25 |  5:08.47 |    298375    |   321521
       12  | 71:26.72 |  4:52.00 |    321522    |   343421

Range status and errors

Selected range

     Filename C:\Users\Alex\Музыка\Foghat - Road Cases.wav

     Peak level 100.0 %
     Range quality 100.0 %
     Copy CRC A245DA2E
     Copy OK

No errors occurred

AccurateRip summary

Track  1  cannot be verified as accurate (confidence 3)  [F5E95D02], AccurateRip returned [B771DBDE]
Track  2  cannot be verified as accurate (confidence 3)  [CAFDE648], AccurateRip returned [195FFF44]
Track  3  cannot be verified as accurate (confidence 3)  [A469F5C4], AccurateRip returned [3FFC167B]
Track  4  cannot be verified as accurate (confidence 3)  [1A72A46D], AccurateRip returned [29EEF65B]
Track  5  cannot be verified as accurate (confidence 3)  [D617BEE2], AccurateRip returned [835BB3BF]
Track  6  cannot be verified as accurate (confidence 3)  [5E7152D2], AccurateRip returned [C60E2031]
Track  7  cannot be verified as accurate (confidence 3)  [4DF875C8], AccurateRip returned [7C2A7707]
Track  8  cannot be verified as accurate (confidence 3)  [8F21F7F9], AccurateRip returned [13AE4955]
Track  9  cannot be verified as accurate (confidence 3)  [40BA1EDF], AccurateRip returned [EBA5804C]
Track 10  cannot be verified as accurate (confidence 3)  [76695E42], AccurateRip returned [9AAA29D0]
Track 11  cannot be verified as accurate (confidence 3)  [DAC3E019], AccurateRip returned [8352EC71]
Track 12  cannot be verified as accurate (confidence 3)  [88FAFB0D], AccurateRip returned [070B2576]

No tracks could be verified as accurate
You may have a different pressing from the one(s) in the database

End of status report
Код:
Код:
-----------------------

DON'T MODIFY THIS FILE

-----------------------

PERFORMER: auCDtect Task Manager, ver. 1.5.1RC4 build 1.5.1.5
Copyright (c) 2008-2010 y-soft. All rights reserved
http:/y-soft.org

ANALYZER: auCDtect: CD records authenticity detector, version 0.8.2
Copyright (c) 2004 Oleg Berngardt. All rights reserved.
Copyright (c) 2004 Alexander Djourik. All rights reserved.

FILE: Foghat - Road Cases.wv
  Size: 571980342 Hash: 52C9EDBE08FEC5DAD48660A342DCB52C Accuracy: -m0
  Conclusion: CDDA 99%
  Signature: 14E1C65F1E6A93507E85EB20C1E92DA2FB6AFF97
Продолжительность: 01:16:19
WAVPack (image+.cue)
#777Трэклист:

01. Mumbo Jumbo (4:20)
02. Hero To Zero (4:48)
03. Thames Delta Blues (5:38)
04. Flat Busted (4:08)
05. I Feel Fine (3:11)
06. I'm A Rock'n Roller (5:35)
07. Hit The Ground Running (4:05)
08. Looking For You (4:43)
09. Long Time Coming (3:37)
10. Sex With The Ex (4:17)
11. Self-Medicated (7:32)
12. Mean Voodoo Woman (4:13)
13. Voodoo Woman Blues (1:23)
Код:
Код:
Exact Audio Copy V0.99 prebeta 5 from 4. May 2009

Отчёт EAC об извлечении, выполненном 26. января 2010, 14:34

Foghat / Family Joules

Дисковод: ASUS    DRW-1814BL   Adapter: 2  ID: 0

Режим чтения                 : Достоверность
Использование точного потока : Да
Отключение кэша аудио        : Да
Использование указателей C2  : Нет

Коррекция смещения при чтении                     : 6
Способность читать области Lead-in и Lead-out     : Нет
Заполнение пропущенных сэмплов тишиной            : Да
Удаление блоков с тишиной в начале и конце        : Нет
При вычислениях CRC использовались нулевые сэмплы : Нет
Интерфейс                                         : Встроенный Win32-интерфейс для Win NT/2000

Выходной формат : Внутренние WAV-операции
Формат сэмплов  : 44.100 Гц; 16 бит; стерео

TOC извлечённого CD

     Трек |   Старт  | Длительность | Начальный сектор | Конечный сектор
    ---------------------------------------------------------------------
       1  |  0:00.00 |    4:19.58   |           0      |      19482
       2  |  4:19.58 |    4:48.07   |       19483      |      41089
       3  |  9:07.65 |    5:38.10   |       41090      |      66449
       4  | 14:46.00 |    4:08.29   |       66450      |      85078
       5  | 18:54.29 |    3:11.19   |       85079      |      99422
       6  | 22:05.48 |    5:35.31   |       99423      |     124578
       7  | 27:41.04 |    4:05.25   |      124579      |     142978
       8  | 31:46.29 |    4:42.51   |      142979      |     164179
       9  | 36:29.05 |    3:37.01   |      164180      |     180455
      10  | 40:06.06 |    4:16.67   |      180456      |     199722
      11  | 44:22.73 |    7:31.44   |      199723      |     233591
      12  | 51:54.42 |    4:12.38   |      233592      |     252529
      13  | 56:07.05 |    1:23.06   |      252530      |     258760

Характеристики диапазона извлечения и сообщения об ошибках

Выбранный диапазон

     Имя файла E:\UPLOAD\Foghat - Family Joules (2003)\Foghat - Family Joules.wav

     Пиковый уровень 99.6 %
     Качество диапазона 99.9 %
     CRC копии 6520402F
     Копирование... OK

Ошибок не произошло

Конец отчёта
Код:
Код:
-----------------------

DON'T MODIFY THIS FILE

-----------------------

PERFORMER: auCDtect Task Manager, ver. 1.0.3 B1 build 1.0.3.0
Copyright (c) 2008, 2009 y-soft. All rights reserved
http:/y-soft.110mb.com

ANALYZER: auCDtect: CD records authenticity detector, version 0.8.2
Copyright (c) 2004 Oleg Berngardt. All rights reserved.
Copyright (c) 2004 Alexander Djourik. All rights reserved.

FILE: Foghat - Family Joules.ape
  Size: 410366144 Hash: 0DC8B9D542F3192920E1631882A19B40 Accuracy: -m0
  Conclusion: CDDA 100%
  Signature: 93D095FC2AD2FE195275417BF5A2C7383BC75E6B
Продолжительность: 00:57:30
APE (image + .cue)
#777Трэклист:

01. Night Shift (5:55)
02. Take Me To The River (5:54)
03. Stone Blue (6:28)
04. Slippin' & Slidin (1:05)
05. Drivin' Wheel (6:40)
06. Mumbo Jumbo (4:49)
07. Terraplane Blues (5:13)
08. Bang, Bang (1:54)
09. Fool For The City (5:13)
Код:
Код:
Exact Audio Copy V0.99 prebeta 5 from 4. May 2009

EAC extraction logfile from 13. February 2010, 5:20

Foghat / Live II (CD-1)

Used drive  : HL-DT-STDVDRAM GSA-T20N   Adapter: 0  ID: 0

Read mode               : Secure
Utilize accurate stream : Yes
Defeat audio cache      : Yes
Make use of C2 pointers : No

Read offset correction                      : 667
Overread into Lead-In and Lead-Out          : Yes
Fill up missing offset samples with silence : Yes
Delete leading and trailing silent blocks   : No
Null samples used in CRC calculations       : No
Used interface                              : Native Win32 interface for Win NT & 2000

Used output format : Internal WAV Routines
Sample format      : 44.100 Hz; 16 Bit; Stereo

TOC of the extracted CD

     Track |   Start  |  Length  | Start sector | End sector
    ---------------------------------------------------------
        1  |  0:00.00 |  5:54.44 |         0    |    26593
        2  |  5:54.44 |  5:53.65 |     26594    |    53133
        3  | 11:48.34 |  6:28.22 |     53134    |    82255
        4  | 18:16.56 |  1:05.14 |     82256    |    87144
        5  | 19:21.70 |  6:40.15 |     87145    |   117159
        6  | 26:02.10 |  4:48.61 |    117160    |   138820
        7  | 30:50.71 |  5:12.73 |    138821    |   162293
        8  | 36:03.69 |  1:54.10 |    162294    |   170853
        9  | 37:58.04 |  5:12.50 |    170854    |   194303

Range status and errors

Selected range

     Filename C:\Users\Alex\Музыка\Foghat - Live II (CD-1).wav

     Peak level 96.9 %
     Range quality 99.9 %
     Test CRC 5E2BB298
     Copy CRC 5E2BB298
     Copy OK

No errors occurred

End of status report
Код:
Код:
-----------------------

DON'T MODIFY THIS FILE

-----------------------

PERFORMER: auCDtect Task Manager, ver. 1.5.1RC4 build 1.5.1.5
Copyright (c) 2008-2010 y-soft. All rights reserved
http:/y-soft.org

ANALYZER: auCDtect: CD records authenticity detector, version 0.8.2
Copyright (c) 2004 Oleg Berngardt. All rights reserved.
Copyright (c) 2004 Alexander Djourik. All rights reserved.

FILE: Foghat - Live II (CD-1).wv
  Size: 307676892 Hash: 1C262F11416B4335AB637F4E09ECA43B Accuracy: -m0
  Conclusion: CDDA 99%
  Signature: AF301745400DF163A8ECD39D687E2B6987386733
Продолжительность: 00:43:11
WAVPack (image+.cue)
#777Трэклист:

01. California Blues (5:59)
02. I Just Want To Make Love To You (9:55)
03. Chateu Lafitte '59 Boogie (9:39)
04. Slow Ride (9:44)
05. Trouble, Trouble (4:06)
06. Chevrolet (3:37)
07. I'm A Rock 'N' Roller (4:54)
08. I Feel Fine (4:07)
09. My Baby (4:30)
10. Self-Medicated (6:45)
11. Road Fever (5:06)
Код:
Код:
Exact Audio Copy V0.99 prebeta 5 from 4. May 2009

EAC extraction logfile from 13. February 2010, 15:20

Foghat / Live II (CD-2)

Used drive  : HL-DT-STDVDRAM GSA-T20N   Adapter: 0  ID: 0

Read mode               : Secure
Utilize accurate stream : Yes
Defeat audio cache      : Yes
Make use of C2 pointers : No

Read offset correction                      : 667
Overread into Lead-In and Lead-Out          : Yes
Fill up missing offset samples with silence : Yes
Delete leading and trailing silent blocks   : No
Null samples used in CRC calculations       : No
Used interface                              : Native Win32 interface for Win NT & 2000

Used output format : Internal WAV Routines
Sample format      : 44.100 Hz; 16 Bit; Stereo

TOC of the extracted CD

     Track |   Start  |  Length  | Start sector | End sector
    ---------------------------------------------------------
        1  |  0:00.00 |  5:58.71 |         0    |    26920
        2  |  5:58.71 |  9:54.46 |     26921    |    71516
        3  | 15:53.42 |  9:38.66 |     71517    |   114932
        4  | 25:32.33 |  9:43.72 |    114933    |   158729
        5  | 35:16.30 |  4:05.64 |    158730    |   177168
        6  | 39:22.19 |  3:37.18 |    177169    |   193461
        7  | 42:59.37 |  4:53.54 |    193462    |   215490
        8  | 47:53.16 |  4:06.54 |    215491    |   233994
        9  | 51:59.70 |  4:30.36 |    233995    |   254280
       10  | 56:30.31 |  6:45.37 |    254281    |   284692
       11  | 63:15.68 |  5:05.45 |    284693    |   307612

Range status and errors

Selected range

     Filename C:\Users\Alex\Музыка\Foghat - Live II (CD-2).wav

     Peak level 97.7 %
     Range quality 99.9 %
     Test CRC 48444DC9
     Copy CRC 48444DC9
     Copy OK

No errors occurred

End of status report
Код:
Код:
-----------------------

DON'T MODIFY THIS FILE

-----------------------

PERFORMER: auCDtect Task Manager, ver. 1.5.1RC4 build 1.5.1.5
Copyright (c) 2008-2010 y-soft. All rights reserved
http:/y-soft.org

ANALYZER: auCDtect: CD records authenticity detector, version 0.8.2
Copyright (c) 2004 Oleg Berngardt. All rights reserved.
Copyright (c) 2004 Alexander Djourik. All rights reserved.

FILE: Foghat - Live II (CD-2).wv
  Size: 485128350 Hash: 89426DA74CDEB1FDC8B524E4B78A816B Accuracy: -m0
  Conclusion: CDDA 100%
  Signature: C919D16FC89C71E6E2DF76461AC51AAD1B2797B7
Продолжительность: 01:08:22
WAVPack (image+.cue)
#777Трэклист:

01. Born For The Road (4:59)
02. Needle And Spoon (3:46)
03. So Many Roads So Many Trains (4:50)
04. Last Train Home (4:21)
05. Shake Your Money Maker (4:38)
06. It Hurts Me Too (5:58)
07. Feel So Bad (4:39)
08. Louisiana Blues (4:44)
09. 495 Boogie (3:55)
10. Rollin And Tumblin (8:12)
11. In My Dreams (5:41)
12. Good Good Day (4:31)
Код:
Код:
Exact Audio Copy V0.99 prebeta 4 from 23. January 2008

EAC extraction logfile from 3. May 2011, 17:09

Foghat / Last Train Home

Used drive  : ATAPI   DVD A  DH16AASH   Adapter: 1  ID: 1

Read mode               : Secure
Utilize accurate stream : Yes
Defeat audio cache      : Yes
Make use of C2 pointers : No

Read offset correction                      : 6
Overread into Lead-In and Lead-Out          : No
Fill up missing offset samples with silence : Yes
Delete leading and trailing silent blocks   : No
Null samples used in CRC calculations       : Yes
Used interface                              : Native Win32 interface for Win NT & 2000
Gap handling                                : Appended to previous track

Used output format              : User Defined Encoder
Selected bitrate                : 768 kBit/s
Quality                         : High
Add ID3 tag                     : No
Command line compressor         : L:\Program Files\Exact Audio Copy\Flac\flac.exe
Additional command line options : -8 -V -T "artist=%a" -T "title=%t" -T "album=%g" -T "date=%y" -T "tracknumber=%n" -T "genre=%m" -T "comment=High Quality, EAC secure, Lossless flac " %s

TOC of the extracted CD

     Track |   Start  |  Length  | Start sector | End sector
    ---------------------------------------------------------
        1  |  0:00.00 |  4:58.72 |         0    |    22421
        2  |  4:58.72 |  3:45.64 |     22422    |    39360
        3  |  8:44.61 |  4:49.38 |     39361    |    61073
        4  | 13:34.24 |  4:20.73 |     61074    |    80646
        5  | 17:55.22 |  4:37.71 |     80647    |   101492
        6  | 22:33.18 |  5:58.08 |    101493    |   128350
        7  | 28:31.26 |  4:38.70 |    128351    |   149270
        8  | 33:10.21 |  4:43.45 |    149271    |   170540
        9  | 37:53.66 |  3:54.63 |    170541    |   188153
       10  | 41:48.54 |  8:11.39 |    188154    |   225017
       11  | 50:00.18 |  5:40.42 |    225018    |   250559
       12  | 55:40.60 |  4:31.00 |    250560    |   270884

Track  1

     Filename F:\Converted Flac\Foghat - Last Train Home\01 - Born For The Road.wav

     Pre-gap length  0:00:02.00

     Peak level 99.9 %
     Track quality 100.0 %
     Test CRC 64C9F128
     Copy CRC 64C9F128
     Track not present in AccurateRip database
     Copy OK

Track  2

     Filename F:\Converted Flac\Foghat - Last Train Home\02 - Needle And Spoon.wav

     Peak level 91.4 %
     Track quality 100.0 %
     Test CRC A19E361D
     Copy CRC A19E361D
     Track not present in AccurateRip database
     Copy OK

Track  3

     Filename F:\Converted Flac\Foghat - Last Train Home\03 - So Many Roads So Many Trains.wav

     Peak level 99.9 %
     Track quality 100.0 %
     Test CRC B4D59DBD
     Copy CRC B4D59DBD
     Track not present in AccurateRip database
     Copy OK

Track  4

     Filename F:\Converted Flac\Foghat - Last Train Home\04 - Last Train Home.wav

     Peak level 99.9 %
     Track quality 99.9 %
     Test CRC 59A33FDE
     Copy CRC 59A33FDE
     Track not present in AccurateRip database
     Copy OK

Track  5

     Filename F:\Converted Flac\Foghat - Last Train Home\05 - Shake Your Money Maker.wav

     Peak level 99.9 %
     Track quality 99.9 %
     Test CRC FFEC63DD
     Copy CRC FFEC63DD
     Track not present in AccurateRip database
     Copy OK

Track  6

     Filename F:\Converted Flac\Foghat - Last Train Home\06 - It Hurts Me Too.wav

     Peak level 99.9 %
     Track quality 100.0 %
     Test CRC BA4659A5
     Copy CRC BA4659A5
     Track not present in AccurateRip database
     Copy OK

Track  7

     Filename F:\Converted Flac\Foghat - Last Train Home\07 - Feel So Bad.wav

     Peak level 99.9 %
     Track quality 99.9 %
     Test CRC F5CB6091
     Copy CRC F5CB6091
     Track not present in AccurateRip database
     Copy OK

Track  8

     Filename F:\Converted Flac\Foghat - Last Train Home\08 - Louisiana Blues.wav

     Peak level 99.9 %
     Track quality 99.9 %
     Test CRC 30AFF171
     Copy CRC 30AFF171
     Track not present in AccurateRip database
     Copy OK

Track  9

     Filename F:\Converted Flac\Foghat - Last Train Home\09 - 495 Boogie.wav

     Peak level 99.9 %
     Track quality 100.0 %
     Test CRC E01F8404
     Copy CRC E01F8404
     Track not present in AccurateRip database
     Copy OK

Track 10

     Filename F:\Converted Flac\Foghat - Last Train Home\10 - Rollin And Tumblin.wav

     Peak level 99.9 %
     Track quality 100.0 %
     Test CRC 62E0BDD6
     Copy CRC 62E0BDD6
     Track not present in AccurateRip database
     Copy OK

Track 11

     Filename F:\Converted Flac\Foghat - Last Train Home\11 - In My Dreams.wav

     Peak level 99.9 %
     Track quality 100.0 %
     Test CRC 8630A649
     Copy CRC 8630A649
     Track not present in AccurateRip database
     Copy OK

Track 12

     Filename F:\Converted Flac\Foghat - Last Train Home\12 - Good Good Day.wav

     Peak level 99.9 %
     Track quality 99.9 %
     Test CRC 9963B95B
     Copy CRC 9963B95B
     Track not present in AccurateRip database
     Copy OK

None of the tracks are present in the AccurateRip database

No errors occurred

End of status report
Код:
Код:
-----------------------

DON'T MODIFY THIS FILE

-----------------------

PERFORMER: auCDtect Task Manager, ver. 1.5.1RC4 build 1.5.1.5
Copyright (c) 2008-2010 y-soft. All rights reserved
http:/y-soft.org

ANALYZER: auCDtect: CD records authenticity detector, version 0.8.2
Copyright (c) 2004 Oleg Berngardt. All rights reserved.
Copyright (c) 2004 Alexander Djourik. All rights reserved.

FILE: 12 - Good Good Day.flac
  Size: 33353474 Hash: C776B1AEFB241BC5F851CD850B3EFE12 Accuracy: -m0
  Conclusion: CDDA 100%
  Signature: 59533333FDCDEAE11FBFB2C9EA7D48ADE9861E6B
FILE: 11 - In My Dreams.flac
  Size: 41120108 Hash: 64182BD954999F4B77524A53E22F10FF Accuracy: -m0
  Conclusion: CDDA 100%
  Signature: 172D5D6464E7E623C9411EAA4EBB78575597EE43
FILE: 10 - Rollin And Tumblin.flac
  Size: 59757349 Hash: 6F6B3C968E523129DD33B386DD9CA91F Accuracy: -m0
  Conclusion: CDDA 100%
  Signature: 68367960DEDB192EA726DB41669642BED14EF9C6
FILE: 09 - 495 Boogie.flac
  Size: 27813314 Hash: 94828653E1DB7DB0E766BAB96C4F489D Accuracy: -m0
  Conclusion: CDDA 100%
  Signature: 6480BA4308D7D37AD71FA9C59BFEF41AB3756BBF
FILE: 08 - Louisiana Blues.flac
  Size: 35703666 Hash: B2BC83FDEFEC16047D8EA5B6906913D6 Accuracy: -m0
  Conclusion: CDDA 100%
  Signature: 21D32A49AE7BAD11B4A6873834201DD9494543CB
FILE: 07 - Feel So Bad.flac
  Size: 35364261 Hash: 0070BE88FF4CDFA0135786CCC87D537F Accuracy: -m0
  Conclusion: CDDA 100%
  Signature: 6382AAA13D3DD97FEED564BA70FB78D74ED2778E
FILE: 06 - It Hurts Me Too.flac
  Size: 41406843 Hash: B12537DD8F74E13AA3CA6FA885F69F8E Accuracy: -m0
  Conclusion: CDDA 100%
  Signature: B97F7CD0FA03B95DA6F5216E1696E5240C10E0D5
FILE: 05 - Shake Your Money Maker.flac
  Size: 35063789 Hash: F610C35AF4E57D9193691594D8AF8E15 Accuracy: -m0
  Conclusion: CDDA 100%
  Signature: C5C383D4A0D2325B2E5486F3E48F6C10DADE9F3A
FILE: 04 - Last Train Home.flac
  Size: 31890845 Hash: 0CEFD2C05FD592DE0F4D73131C2E9A0B Accuracy: -m0
  Conclusion: CDDA 100%
  Signature: 81AC59157381868C5AD4B8F6DF5D26632FB87766
FILE: 03 - So Many Roads So Many Trains.flac
  Size: 35441162 Hash: F0ACBBCA4EBC0B47D3AA700C3D602198 Accuracy: -m0
  Conclusion: CDDA 100%
  Signature: 8AFEFDD0244118A14EDA3A0970AD0833F7C9753C
FILE: 02 - Needle And Spoon.flac
  Size: 27951668 Hash: E64E418B5D0AB9403EFF48BBFFDD7264 Accuracy: -m0
  Conclusion: CDDA 100%
  Signature: 57C394A6AA3BE07F779CAD63BB157715506E7625
FILE: 01 - Born For The Road.flac
  Size: 36555904 Hash: F31D77E7B3102CDAA5C3631C77318BFD Accuracy: -m0
  Conclusion: CDDA 100%
  Signature: 62D5C348E84B76B14FD906C3FB83FBD6D136BF76
Продолжительность: 01:00:12
FLAC (tracks + .cue)




Смесь блюз-рока, харда, буги и рок-н-ролла, исполняемая этой английской командой, сделала ее весьма популярной в середине 70-х, однако впоследствии волна панка и диско выбросила "Foghat" на обочину шоу-бизнеса. Группу организовали в 1971 году выходцы из "Savoy Brown" Roger Earl (ударные), Dave Peverett (гитара, вокал) и Tony Stevens (бас), объединившиеся со слайд-гитаристом Rod Price. Заключив контракт с лейблом "Bearsville Records", "Foghat" в 1972-м дебютировали с одноименным альбомом. Благодаря удачному каверу на "I Just Want To Make Love To You" Willie Dixon'а коллектив получил признание в Штатах, а сам лонгплей занял 127-ю строчку "Billboard". Используя формулу упрощенного американизированного буги, команда испекла второй виниловый блин, принесший ей первое золото.
В 1975 году группа выпустила диск "Fool For The City", содержавший убойнейшую композицию "Slow Ride". Эта ураганная вещица угодила в Топ 40 и помогла альбому преодолеть платиновую отметку. Их концертник "Foghat Live" (1977) взял двойную платину.
Однако в 80-х положение изменилось. Времена диско-поп, команда пробовала менять стиль, но популярность Foghat продолжала неуклонно снижаться и пережив ряд кадровых перестановок, коллектив распался.
Оставшиеся в Америке Roger Earl, Erik Cartwright и Craig MacGregor, спустя некоторое время воссоединились и остаток десятилетия провели, гастролируя под вывесками "Kneetremblers" и "Roger Earl's Foghat". В начале 90-х Dave Peverett собрал другую команду, "Lonesome Dave's Foghat", и некоторое время оба проекта вели параллельное существование.
Наконец, в 1993 году с подачи легендарного продюсера Rick Rubin две половинки слились воедино, и Foghat вернулись в своем классическом составе. По поводу реюниона группа устроила глобальное турне и выпустила студийный альбом "Return Of The Boogie Men". Остаток 90-х коллектив провел на гастролях, а в 1998-м вышел концертник "Road Cases". 7 февраля 2000 года от рака скончался Dave Peverett, один из основателей и вокалист группы.
Некоторое время проект пролежал в коме, но впоследствии музыканты решили возобновить деятельность. Наняв нового вокалиста в лице Charlie Huhn, в 2003 году "Foghat" выпустили альбом "Family Joules". Гастрольная жизнь коллектива вновь активизировалась, в 2007-м на прилавки магазинов лег двойной концертник "Foghat Live II", а затем студийный альбом Last Train Home (2010). Жизнь продолжается...

Состав на данный момент
Charlie Huhn - вокал
Bryan Bassett - гитара
Craig MacGregor - бас
Roger Earl - ударные

Дискография

1972 - Foghat
1973 - Foghat (Rock and Roll)
1974 - Energized
1974 - Rock and Roll Outlaws
1975 - Fool for the City
1976 - Night Shift
1977 - Foghat Live (Live)
1978 - Stone Blue
1979 - Boogie Motel
1980 - Tight Shoes
1981 - Girls to Chat and Boys to Bounce
1982 - In the Mood for Something Rude
1983 - Zig-Zag Walk
1994 - Return of the Boogie Men
1998 - Road Cases (Live)
1999 - King Biscuit Flower Hour (Live)
2001 - Road Cases Version 2 (Live)
2003 - Decades Live (Live)
2003 - Family Joules
2006 - Live II (Live)
2010 - Last Train Home

Благодарность за рипы: rainbow.n, st1958, gatherone, audelas, goldenday, Валерий K, makatins, drengar, doroj123, Sjakiebakker
Foghat - самый, что ни на есть оригинальный состав, 1998 год. Один из последних концертов с вокалом Dave Peverett.
Правила, инструкции, FAQ!!!
Торрент  Добавлен [16 мар 2014, 00:08] Скачать торрент Магнет ссылка
Скачать торрент
[ Размер 40.14 КБ / Просмотров 66 ]

Статус  
 
Размер  6.73 ГБ
Приватный: Нет (DHT включён)
.torrent скачан  0
 


     Отправить личное сообщение
   
Страница 1 из 1
Показать сообщения за:  Поле сортировки  
Начать новую тему Ответить на тему


Сейчас этот форум просматривают: нет зарегистрированных пользователей и гости: 0


Вы не можете начинать темы
Вы не можете отвечать на сообщения
Вы не можете редактировать свои сообщения
Вы не можете удалять свои сообщения
Вы не можете добавлять вложения

Перейти:  
cron