Начать новую тему Ответить на тему
Статистика раздачи
Размер: 611.18 МБ | Добавлен: 16 мар 2014, 00:46 | Скачали: 0
Сидеров: 1  [0 байт/сек]    Личеров: 1  [0 байт/сек]
Пред. тема | След. тема 

Автор
Сообщение

СообщениеДобавлено: 16 мар 2014, 00:46 

Ответить с цитатой 

Florence & The Machine - Ceremonials (Deluxe Edition) (2011)

Год: 2011
Жанр: Alternative, Rock, Soul
Продолжительность: 01:01:04 + 00:33:39

Кодек: FLAC
Битрейт: Lossless

Трек лист:
CD1
01. Only If for a Night (4:58)
02. Shake It Out (4:37)
03. What the Water Gave Me (5:33)
04. Never Let Me Go (4:30)
05. Breaking Down (3:49)
06. Lover to Lover (4:02)
07. No Light, No Light (4:34)
08. Seven Devils (5:03)
09. Heartlines (5:01)
10. Spectrum (5:11)
11. All This and Heaven Too (4:05)
12. Leave My Body (4:34)

CD2
01. Remain Nameless (4:03)
02. Strangeness And Charm (5:17)
03. Bedroom Hymns (3:03)
04. What The Water Gave Me (Demo) (3:54)
05. Landscape (Demo) (4:03)
06. Heartlines (Acoustic) (5:33)
07. Shake It Out (Acoustic) (4:13)
08. Breaking Down (Acoustic) (3:31)
Код:
Код:
Exact Audio Copy V1.0 beta 3 from 29. August 2011

EAC extraction logfile from 29. October 2011, 15:03

Florence & The Machine / Ceremonials (Deluxe Edition) (Disc One)

Used drive  : PLEXTOR DVDR   PX-760A   Adapter: 3  ID: 0

Read mode               : Secure
Utilize accurate stream : Yes
Defeat audio cache      : Yes
Make use of C2 pointers : No

Read offset correction                      : 30
Overread into Lead-In and Lead-Out          : Yes
Fill up missing offset samples with silence : Yes
Delete leading and trailing silent blocks   : No
Null samples used in CRC calculations       : Yes
Used interface                              : Native Win32 interface for Win NT & 2000
Gap handling                                : Appended to previous track

Used output format              : User Defined Encoder
Selected bitrate                : 1024 kBit/s
Quality                         : High
Add ID3 tag                     : No
Command line compressor         : C:\Program Files (x86)\Exact Audio Copy\Flac\flac.exe
Additional command line options : -8 -V -T "ARTIST=%artist%" -T "TITLE=%title%" -T "ALBUM=%albumtitle%" -T "DATE=%year%" -T "TRACKNUMBER=%tracknr%" -T "GENRE=%genre%" -T "PERFORMER=%albuminterpret%" -T "COMPOSER=%composer%" %haslyrics%--tag-from-file=LYRICS="%lyricsfile%"%haslyrics% -T "ALBUMARTIST=%albumartist%" -T "ALBUM ARTIST=%albumartist%" -T "DISCNUMBER=%cdnumber%" -T "TOTALDISCS=%totalcds%" -T "TOTALTRACKS=%numtracks%" -T "COMMENT=%comment%" %source% -o %dest%

TOC of the extracted CD

     Track |   Start  |  Length  | Start sector | End sector
    ---------------------------------------------------------
        1  |  0:00.00 |  4:58.34 |         0    |    22383
        2  |  4:58.34 |  4:37.45 |     22384    |    43203
        3  |  9:36.04 |  5:33.30 |     43204    |    68208
        4  | 15:09.34 |  4:30.73 |     68209    |    88531
        5  | 19:40.32 |  3:49.14 |     88532    |   105720
        6  | 23:29.46 |  4:02.61 |    105721    |   123931
        7  | 27:32.32 |  4:34.64 |    123932    |   144545
        8  | 32:07.21 |  5:03.19 |    144546    |   167289
        9  | 37:10.40 |  5:01.34 |    167290    |   189898
       10  | 42:11.74 |  5:11.40 |    189899    |   213263
       11  | 47:23.39 |  4:05.66 |    213264    |   231704
       12  | 51:29.30 |  4:36.44 |    231705    |   252448
       13  | 58:37.74 |  2:22.29 |    263849    |   274527

Track  1

     Filename C:\EACRips\01 Only If For A Night.wav

     Pre-gap length  0:00:02.00

     Peak level 100.0 %
     Extraction speed 1.7 X
     Track quality 99.9 %
     Test CRC B38BBE42
     Copy CRC B38BBE42
     Track not present in AccurateRip database
     Copy OK

Track  2

     Filename C:\EACRips\02 Shake It Out.wav

     Peak level 97.7 %
     Extraction speed 2.2 X
     Track quality 100.0 %
     Test CRC B5A9EE8F
     Copy CRC B5A9EE8F
     Track not present in AccurateRip database
     Copy OK

Track  3

     Filename C:\EACRips\03 What The Water Gave Me.wav

     Peak level 100.0 %
     Extraction speed 2.2 X
     Track quality 100.0 %
     Test CRC 0F6A158C
     Copy CRC 0F6A158C
     Track not present in AccurateRip database
     Copy OK

Track  4

     Filename C:\EACRips\04 Never Let Me Go.wav

     Peak level 100.0 %
     Extraction speed 2.2 X
     Track quality 100.0 %
     Test CRC 56A0A8D9
     Copy CRC 56A0A8D9
     Track not present in AccurateRip database
     Copy OK

Track  5

     Filename C:\EACRips\05 Breaking Down.wav

     Peak level 100.0 %
     Extraction speed 2.2 X
     Track quality 100.0 %
     Test CRC 3A6A4528
     Copy CRC 3A6A4528
     Track not present in AccurateRip database
     Copy OK

Track  6

     Filename C:\EACRips\06 Lover To Lover.wav

     Peak level 100.0 %
     Extraction speed 2.2 X
     Track quality 100.0 %
     Test CRC E4167519
     Copy CRC E4167519
     Track not present in AccurateRip database
     Copy OK

Track  7

     Filename C:\EACRips\07 No Light, No Light.wav

     Peak level 97.7 %
     Extraction speed 1.6 X
     Track quality 99.9 %
     Test CRC 532DC39F
     Copy CRC 532DC39F
     Track not present in AccurateRip database
     Copy OK

Track  8

     Filename C:\EACRips\08 Seven Devils.wav

     Peak level 100.0 %
     Extraction speed 2.2 X
     Track quality 100.0 %
     Test CRC 3B16B572
     Copy CRC 3B16B572
     Track not present in AccurateRip database
     Copy OK

Track  9

     Filename C:\EACRips\09 Heartlines.wav

     Peak level 99.5 %
     Extraction speed 1.7 X
     Track quality 99.9 %
     Test CRC 0FE6BB42
     Copy CRC 0FE6BB42
     Track not present in AccurateRip database
     Copy OK

Track 10

     Filename C:\EACRips\10 Spectrum.wav

     Peak level 100.0 %
     Extraction speed 2.2 X
     Track quality 100.0 %
     Test CRC 021FEF17
     Copy CRC 021FEF17
     Track not present in AccurateRip database
     Copy OK

Track 11

     Filename C:\EACRips\11 All This And Heaven Too.wav

     Peak level 100.0 %
     Extraction speed 2.2 X
     Track quality 100.0 %
     Test CRC E0E9060F
     Copy CRC E0E9060F
     Track not present in AccurateRip database
     Copy OK

Track 12

     Filename C:\EACRips\12 Leave My Body.wav

     Peak level 100.0 %
     Extraction speed 2.2 X
     Track quality 100.0 %
     Test CRC E097C48C
     Copy CRC E097C48C
     Track not present in AccurateRip database
     Copy OK

None of the tracks are present in the AccurateRip database

No errors occurred

End of status report

---- CUETools DB Plugin V2.1.3

[CTDB TOCID: 960a.FOwV1EQ604IgVJaJDqZreU-] found, Submit result: 960a.FOwV1EQ604IgVJaJDqZreU- has been confirmed
[bc49f60c] (2/2) Accurately ripped

==== Log checksum AAA500A74988470A6614CC1449E9DFBBEC75179E56C621D73B5684C43117EF66 ====
Код:
Код:
Exact Audio Copy V1.0 beta 3 from 29. August 2011

EAC extraction logfile from 29. October 2011, 15:56

Florence & The Machine / Ceremonials (Deluxe Edition) (Disc Two)

Used drive  : PLEXTOR DVDR   PX-760A   Adapter: 3  ID: 0

Read mode               : Secure
Utilize accurate stream : Yes
Defeat audio cache      : Yes
Make use of C2 pointers : No

Read offset correction                      : 30
Overread into Lead-In and Lead-Out          : Yes
Fill up missing offset samples with silence : Yes
Delete leading and trailing silent blocks   : No
Null samples used in CRC calculations       : Yes
Used interface                              : Native Win32 interface for Win NT & 2000
Gap handling                                : Appended to previous track

Used output format              : User Defined Encoder
Selected bitrate                : 1024 kBit/s
Quality                         : High
Add ID3 tag                     : No
Command line compressor         : C:\Program Files (x86)\Exact Audio Copy\Flac\flac.exe
Additional command line options : -8 -V -T "ARTIST=%artist%" -T "TITLE=%title%" -T "ALBUM=%albumtitle%" -T "DATE=%year%" -T "TRACKNUMBER=%tracknr%" -T "GENRE=%genre%" -T "PERFORMER=%albuminterpret%" -T "COMPOSER=%composer%" %haslyrics%--tag-from-file=LYRICS="%lyricsfile%"%haslyrics% -T "ALBUMARTIST=%albumartist%" -T "ALBUM ARTIST=%albumartist%" -T "DISCNUMBER=%cdnumber%" -T "TOTALDISCS=%totalcds%" -T "TOTALTRACKS=%numtracks%" -T "COMMENT=%comment%" %source% -o %dest%

TOC of the extracted CD

     Track |   Start  |  Length  | Start sector | End sector
    ---------------------------------------------------------
        1  |  0:00.00 |  4:03.03 |         0    |    18227
        2  |  4:03.03 |  5:17.08 |     18228    |    42010
        3  |  9:20.11 |  3:03.19 |     42011    |    55754
        4  | 12:23.30 |  3:54.52 |     55755    |    73356
        5  | 16:18.07 |  4:03.10 |     73357    |    91591
        6  | 20:21.17 |  5:33.16 |     91592    |   116582
        7  | 25:54.33 |  4:13.58 |    116583    |   135615
        8  | 30:08.16 |  3:31.50 |    135616    |   151490

Track  1

     Filename C:\EACRips\01 Remain Nameless.wav

     Pre-gap length  0:00:02.00

     Peak level 99.9 %
     Extraction speed 1.5 X
     Track quality 99.9 %
     Test CRC 6F81753F
     Copy CRC 6F81753F
     Track not present in AccurateRip database
     Copy OK

Track  2

     Filename C:\EACRips\02 Strangeness And Charm.wav

     Peak level 100.0 %
     Extraction speed 2.2 X
     Track quality 100.0 %
     Test CRC CE97AF6A
     Copy CRC CE97AF6A
     Track not present in AccurateRip database
     Copy OK

Track  3

     Filename C:\EACRips\03 Bedroom Hymns.wav

     Peak level 100.0 %
     Extraction speed 1.4 X
     Track quality 99.9 %
     Test CRC F9D8A84A
     Copy CRC F9D8A84A
     Track not present in AccurateRip database
     Copy OK

Track  4

     Filename C:\EACRips\04 What The Water Gave Me (Demo).wav

     Peak level 98.9 %
     Extraction speed 1.5 X
     Track quality 99.9 %
     Test CRC 2D2E32C5
     Copy CRC 2D2E32C5
     Track not present in AccurateRip database
     Copy OK

Track  5

     Filename C:\EACRips\05 Landscape (Demo).wav

     Peak level 97.8 %
     Extraction speed 2.2 X
     Track quality 100.0 %
     Test CRC E0039999
     Copy CRC E0039999
     Track not present in AccurateRip database
     Copy OK

Track  6

     Filename C:\EACRips\06 Heartlines ( Acoustic).wav

     Peak level 99.9 %
     Extraction speed 2.2 X
     Track quality 100.0 %
     Test CRC 811A3585
     Copy CRC 811A3585
     Track not present in AccurateRip database
     Copy OK

Track  7

     Filename C:\EACRips\07 Shake It Out (Acoustic).wav

     Peak level 99.9 %
     Extraction speed 2.2 X
     Track quality 100.0 %
     Test CRC 299842F3
     Copy CRC 299842F3
     Track not present in AccurateRip database
     Copy OK

Track  8

     Filename C:\EACRips\08 Breaking Down (Acoustic).wav

     Peak level 99.9 %
     Extraction speed 2.4 X
     Track quality 100.0 %
     Test CRC F1C6FF9A
     Copy CRC F1C6FF9A
     Track not present in AccurateRip database
     Copy OK

None of the tracks are present in the AccurateRip database

No errors occurred

End of status report

---- CUETools DB Plugin V2.1.3

[CTDB TOCID: nRsfGTrHd07WC7P_7YTO7BxNvIQ-] found, Submit result: nRsfGTrHd07WC7P_7YTO7BxNvIQ- has been confirmed
[60d1fc3d] (1/1) Accurately ripped

==== Log checksum 44933469E3A122AEE372DDF8EF7DC6BB75DC42A8972B0528E40178D918E8CD98 ====
Код:
Код:
-----------------------

DON'T MODIFY THIS FILE

-----------------------

PERFORMER: auCDtect Task Manager, ver. 1.5.1RC6 build 1.5.1.7
Copyright (c) 2008-2010 y-soft. All rights reserved
http:/y-soft.org

ANALYZER: auCDtect: CD records authenticity detector, version 0.8.2
Copyright (c) 2004 Oleg Berngardt. All rights reserved.
Copyright (c) 2004 Alexander Djourik. All rights reserved.

FILE: 12 Leave My Body.flac
  Size: 31447495 Hash: 7B1C159FF12935D3F7E068E5BE196FA7 Accuracy: -m0
  Conclusion: CDDA 100%
  Signature: 7C1D2CED200789D29992B7D4455835CA2C137D06
FILE: 11 All This And Heaven Too.flac
  Size: 30260873 Hash: DEFAF4F95FACAA166D2C2C1A8C3D42D8 Accuracy: -m0
  Conclusion: CDDA 100%
  Signature: 1A687D445AD61A6124F86FC07AD539D15FFAD937
FILE: 10 Spectrum.flac
  Size: 36014926 Hash: 1AC61C0C237554477B88EB8BCDE8B0E0 Accuracy: -m0
  Conclusion: CDDA 100%
  Signature: 1DABC738045378CDD37F804416D656AC719CFE5F
FILE: 09 Heartlines.flac
  Size: 37284342 Hash: F9730EA62C01AD88D11AF107109D4093 Accuracy: -m0
  Conclusion: CDDA 100%
  Signature: 0AB90BEDC29E51C70827B16A4D70B34EEEA60EFF
FILE: 08 Seven Devils.flac
  Size: 35018742 Hash: 661669F321DD60D255EF73090BE5210F Accuracy: -m0
  Conclusion: CDDA 100%
  Signature: 45073DD51A35C4AE1E04F40D90A513B2DC84AC66
FILE: 07 No Light, No Light.flac
  Size: 33602670 Hash: 8EA222FFCAB0AF4ADB93DD6E1E6D3064 Accuracy: -m0
  Conclusion: CDDA 100%
  Signature: 942DBC966BB3318185465FA2596A364F270BC72F
FILE: 06 Lover To Lover.flac
  Size: 29816120 Hash: 34FD0296110C3C0BFE12150C95AEA101 Accuracy: -m0
  Conclusion: CDDA 100%
  Signature: 578EA6DF024AE615E50E97DC02C692AB254119BB
FILE: 05 Breaking Down.flac
  Size: 28393330 Hash: 35F10CC17371549449AE8D7A23DF1011 Accuracy: -m0
  Conclusion: CDDA 100%
  Signature: 8B10D969123801535ACB05D3E715DBFFADDFA068
FILE: 04 Never Let Me Go.flac
  Size: 31854111 Hash: DA8299DB6A530B4EE5666FCBD469613C Accuracy: -m0
  Conclusion: CDDA 100%
  Signature: B612ECE2FB01C1ECF129B533151BF52AE77360E9
FILE: 03 What The Water Gave Me.flac
  Size: 38670332 Hash: 2C33A690EE1131397968E953A0F56EFF Accuracy: -m0
  Conclusion: CDDA 100%
  Signature: 4B3E537BD332E0EE2BA634A82DC690E89BFDCA78
FILE: 02 Shake It Out.flac
  Size: 34469670 Hash: E67C66E80A40ED27506A568B3E2004B8 Accuracy: -m0
  Conclusion: CDDA 99%
  Signature: 0BCD2E9223E4F07DA7B1FAC031A457F7CDA7F59A
FILE: 01 Only If For A Night.flac
  Size: 35323365 Hash: E50A17CBBABF29105C8F68E47A5A4E8D Accuracy: -m0
  Conclusion: CDDA 100%
  Signature: EB8347D436C13F21A91B9FF8B7771089C815C2D7
Код:
Код:
-----------------------

DON'T MODIFY THIS FILE

-----------------------

PERFORMER: auCDtect Task Manager, ver. 1.5.1RC6 build 1.5.1.7
Copyright (c) 2008-2010 y-soft. All rights reserved
http:/y-soft.org

ANALYZER: auCDtect: CD records authenticity detector, version 0.8.2
Copyright (c) 2004 Oleg Berngardt. All rights reserved.
Copyright (c) 2004 Alexander Djourik. All rights reserved.

FILE: 08 Breaking Down (Acoustic).flac
  Size: 20321048 Hash: C5B6CEF68124EBC9C780B6AA0518759D Accuracy: -m0
  Conclusion: CDDA 62%
  Signature: 34C558988DB46624AF8F1823C42D9A7C0687D5C0
FILE: 07 Shake It Out (Acoustic).flac
  Size: 30085172 Hash: 7AE7692A89D122CA0FADD7967D62AE99 Accuracy: -m0
  Conclusion: CDDA 100%
  Signature: F4285CB87780C370DFA087525E4C9959DA5A6E6F
FILE: 06 Heartlines ( Acoustic).flac
  Size: 37704924 Hash: 2127A8E3D56F2123F0947C563BB1E279 Accuracy: -m0
  Conclusion: CDDA 100%
  Signature: 0C76CFE6BAD6C9576D3C7F018BFF3C9E41F9E317
FILE: 05 Landscape (Demo).flac
  Size: 30226718 Hash: 1339B2BDF0DADF182F9285EFEABCF69B Accuracy: -m0
  Conclusion: CDDA 100%
  Signature: 0AEC3F497A34EC54815FC28C1E3C5AB19B13FEDB
FILE: 04 What The Water Gave Me (Demo).flac
  Size: 28014822 Hash: 64C2BAD938A99C6D5E07A6572B60737D Accuracy: -m0
  Conclusion: CDDA 100%
  Signature: 491F4B56914E9C26EFCFFFA4E17651C0E9AD871F
FILE: 03 Bedroom Hymns.flac
  Size: 21690565 Hash: 3083E8342490A9EB55E6C6DCEB9B4ED1 Accuracy: -m0
  Conclusion: CDDA 100%
  Signature: 1761C403305400DC4B35674468D05B61619C0CB1
FILE: 02 Strangeness And Charm.flac
  Size: 41284510 Hash: 9671DD20086EF8BD0A81EBAFA88EA277 Accuracy: -m0
  Conclusion: CDDA 100%
  Signature: 87657A9761F85A8D1044591D41355D2B8F35AC03
FILE: 01 Remain Nameless.flac
  Size: 29347612 Hash: F1B25F613E442C45A7846DAE0C92D6E1 Accuracy: -m0
  Conclusion: CDDA 100%
  Signature: D61C801A26880252350A75CBD41B0D4CE4BF20D4
Правила, инструкции, FAQ!!!
Торрент  Добавлен [16 мар 2014, 00:46] Скачать торрент Магнет ссылка
Скачать торрент
[ Размер 14.51 КБ / Просмотров 231 ]

Статус  
 
Размер  611.18 МБ
Приватный: Нет (DHT включён)
.torrent скачан  0
 


     Отправить личное сообщение
   
Страница 1 из 1
Показать сообщения за:  Поле сортировки  
Начать новую тему Ответить на тему


Сейчас этот форум просматривают: нет зарегистрированных пользователей и гости: 0


Вы не можете начинать темы
Вы не можете отвечать на сообщения
Вы не можете редактировать свои сообщения
Вы не можете удалять свои сообщения
Вы не можете добавлять вложения

Перейти:  
cron
cron