Начать новую тему Ответить на тему
Статистика раздачи
Размер: 2.92 ГБ | Добавлен: 05 дек 2013, 10:38 | Скачали: 0
Сидеров: 0  [0 байт/сек]    Личеров: 1  [0 байт/сек]
Пред. тема | След. тема 

Автор
Сообщение

СообщениеДобавлено: 05 дек 2013, 10:38 

Ответить с цитатой 


Fleetwood Mac – 7 Albums Mini LP SHM-CD (1969-1974)

Год: 1969-1974 / 2013
Жанр: Rock, Blues Rock, Folk Rock, Pop Rock, Soft Rock
Продолжительность: 04:49:35
Формат: 7 SHM-CD Box Set
Страна-производитель: Japan
Издатель: Warner Music Japan
Номер по каталогу: WPCR-14579~85
Кодек: FLAC
Битрейт: Lossless
Тип рипа: image + cue
Наличие сканов: да
Источник: ALLexxess



Содержание:
#777Треклист:
01. Coming Your Way (3:48)
02. Closing My Eyes (4:55)
03. Show-Biz Blues (3:55)
04. My Dream (3:34)
05. Underway (2:55)
06. Oh Well (9:02)
07. Although The Sun Is Shining (2:26)
08. Rattlesnake Shake (3:31)
09. Searching For Madge (6:58)
10. Fighting For Madge (2:49)
11. When You Say (4:32)
12. Like Crying (2:24)
13. Before The Beginning (3:27)

Продолжительноcть: 00:54:16
Код:
Код:
Exact Audio Copy V1.0 beta 3 from 29. August 2011

EAC extraction logfile from 29. October 2013, 10:44

Fleetwood Mac / Then Play On

Used drive  : PLEXTOR BD-R  PX-B950SA   Adapter: 6  ID: 0

Read mode               : Secure
Utilize accurate stream : Yes
Defeat audio cache      : Yes
Make use of C2 pointers : No

Read offset correction                      : 6
Overread into Lead-In and Lead-Out          : No
Fill up missing offset samples with silence : Yes
Delete leading and trailing silent blocks   : No
Null samples used in CRC calculations       : Yes
Used interface                              : Native Win32 interface for Win NT & 2000

Used output format : Internal WAV Routines
Sample format      : 44.100 Hz; 16 Bit; Stereo

TOC of the extracted CD

     Track |   Start  |  Length  | Start sector | End sector
    ---------------------------------------------------------
        1  |  0:00.00 |  3:48.05 |         0    |    17104
        2  |  3:48.05 |  4:55.17 |     17105    |    39246
        3  |  8:43.22 |  3:54.43 |     39247    |    56839
        4  | 12:37.65 |  3:33.47 |     56840    |    72861
        5  | 16:11.37 |  2:54.48 |     72862    |    85959
        6  | 19:06.10 |  9:02.37 |     85960    |   126646
        7  | 28:08.47 |  2:25.55 |    126647    |   137576
        8  | 30:34.27 |  3:30.63 |    137577    |   153389
        9  | 34:05.15 |  6:58.30 |    153390    |   184769
       10  | 41:03.45 |  2:48.65 |    184770    |   197434
       11  | 43:52.35 |  4:32.00 |    197435    |   217834
       12  | 48:24.35 |  2:24.15 |    217835    |   228649
       13  | 50:48.50 |  3:27.42 |    228650    |   244216

Range status and errors

Selected range

     Filename C:\Users\Meijin\Desktop\Lossless Galaxy ALLexxess\Fleetwood Mac\1969 Then Play On (Mini LP SHM-CD Warner Japan 2013)\Fleetwood Mac - Then Play On.wav

     Peak level 100.0 %
     Extraction speed 7.2 X
     Range quality 99.9 %
     Test CRC 43B3CD26
     Copy CRC 43B3CD26
     Copy OK

No errors occurred

AccurateRip summary

Track  1  accurately ripped (confidence 1)  [6A26CF2B]  (AR v2)
Track  2  accurately ripped (confidence 1)  [B497D4EB]  (AR v2)
Track  3  accurately ripped (confidence 1)  [B03568CD]  (AR v2)
Track  4  accurately ripped (confidence 1)  [BBAF6610]  (AR v2)
Track  5  accurately ripped (confidence 1)  [3717839E]  (AR v2)
Track  6  accurately ripped (confidence 1)  [A45893EA]  (AR v2)
Track  7  accurately ripped (confidence 1)  [8A9F1033]  (AR v2)
Track  8  accurately ripped (confidence 1)  [5C4B39F2]  (AR v2)
Track  9  accurately ripped (confidence 1)  [1B8DAD9D]  (AR v2)
Track 10  accurately ripped (confidence 1)  [E571DEF3]  (AR v2)
Track 11  accurately ripped (confidence 1)  [2632A7DB]  (AR v2)
Track 12  accurately ripped (confidence 1)  [708BC41B]  (AR v2)
Track 13  accurately ripped (confidence 1)  [B261B21C]  (AR v2)

All tracks accurately ripped

End of status report

==== Log checksum 81C601FFD202FE2B3A52A7030C9DB9F3DBB846923D5E3947D8BE7AC49B049C35 ====
Код:
Код:
-----------------------

DON'T MODIFY THIS FILE

-----------------------

PERFORMER: auCDtect Task Manager, ver. 1.5.1RC4 build 1.5.1.5
Copyright (c) 2008-2010 y-soft. All rights reserved
http:/y-soft.org

ANALYZER: auCDtect: CD records authenticity detector, version 0.8.2
Copyright (c) 2004 Oleg Berngardt. All rights reserved.
Copyright (c) 2004 Alexander Djourik. All rights reserved.

FILE: Fleetwood Mac - Then Play On.flac
  Size: 312482177 Hash: 31EE42ACE973A2E3DF35D288B032A03E Accuracy: -m0
  Conclusion: CDDA 100%
  Signature: DCBBAF702249B87E0450BDA32B8E7111813D1CCA
#777Треклист:
01. This Is The Rock (2:51)
02. Station Man (5:52)
03. Blood On The Floor (2:47)
04. Hi Ho Silver (3:08)
05. Jewel Eyed Judy (3:19)
06. Buddy's Song (2:13)
07. Earl Gray (4:05)
08. One Together (3:28)
09. Tell Me All The Things You Do (4:15)
10. Mission Bell (2:34)

Продолжительноcть: 00:34:32
Код:
Код:
Exact Audio Copy V1.0 beta 3 from 29. August 2011

EAC extraction logfile from 29. October 2013, 9:47

Fleetwood Mac / Kiln House

Used drive  : PLEXTOR BD-R  PX-B950SA   Adapter: 6  ID: 0

Read mode               : Secure
Utilize accurate stream : Yes
Defeat audio cache      : Yes
Make use of C2 pointers : No

Read offset correction                      : 6
Overread into Lead-In and Lead-Out          : No
Fill up missing offset samples with silence : Yes
Delete leading and trailing silent blocks   : No
Null samples used in CRC calculations       : Yes
Used interface                              : Native Win32 interface for Win NT & 2000

Used output format : Internal WAV Routines
Sample format      : 44.100 Hz; 16 Bit; Stereo

TOC of the extracted CD

     Track |   Start  |  Length  | Start sector | End sector
    ---------------------------------------------------------
        1  |  0:00.00 |  2:50.50 |         0    |    12799
        2  |  2:50.50 |  5:51.70 |     12800    |    39194
        3  |  8:42.45 |  2:47.22 |     39195    |    51741
        4  | 11:29.67 |  3:08.33 |     51742    |    65874
        5  | 14:38.25 |  3:19.27 |     65875    |    80826
        6  | 17:57.52 |  2:12.49 |     80827    |    90775
        7  | 20:10.26 |  4:04.64 |     90776    |   109139
        8  | 24:15.15 |  3:27.55 |    109140    |   124719
        9  | 27:42.70 |  4:15.22 |    124720    |   143866
       10  | 31:58.17 |  2:34.33 |    143867    |   155449

Range status and errors

Selected range

     Filename C:\Users\Meijin\Desktop\Lossless Galaxy ALLexxess\Fleetwood Mac\1970 Kiln House (Mini LP SHM-CD Warner Japan 2013)\Fleetwood Mac - Kiln House.wav

     Peak level 100.0 %
     Extraction speed 6.3 X
     Range quality 99.9 %
     Test CRC F92CAAE9
     Copy CRC F92CAAE9
     Copy OK

No errors occurred

AccurateRip summary

Track  1  not present in database
Track  2  not present in database
Track  3  not present in database
Track  4  not present in database
Track  5  not present in database
Track  6  not present in database
Track  7  not present in database
Track  8  not present in database
Track  9  not present in database
Track 10  not present in database

None of the tracks are present in the AccurateRip database

End of status report

==== Log checksum 6B9CD139F5612F2C2283D7DDD36EB2EF886FEB7D5D629E65B2ED90FE3D5E3AF2 ====
Код:
Код:
-----------------------

DON'T MODIFY THIS FILE

-----------------------

PERFORMER: auCDtect Task Manager, ver. 1.5.1RC4 build 1.5.1.5
Copyright (c) 2008-2010 y-soft. All rights reserved
http:/y-soft.org

ANALYZER: auCDtect: CD records authenticity detector, version 0.8.2
Copyright (c) 2004 Oleg Berngardt. All rights reserved.
Copyright (c) 2004 Alexander Djourik. All rights reserved.

FILE: Fleetwood Mac - Kiln House.flac
  Size: 197949014 Hash: B20EF41C0B36F5461B82D2E38AFA7DEC Accuracy: -m0
  Conclusion: CDDA 100%
  Signature: 7A4CD831EB37446989E3BAA5C34EAA2BAC46969E
#777Треклист:
01. Woman Of 1000 Years (5:29)
02. Morning Rain (5:39)
03. What A Shame (2:20)
04. Future Games (8:18)
05. Sands Of Time (7:24)
06. Sometimea (5:27)
07. Lay It All Down (4:31)
08. Show Me Smile (3:22)

Продолжительноcть: 00:39:07
Код:
Код:
Exact Audio Copy V1.0 beta 3 from 29. August 2011

EAC extraction logfile from 28. October 2013, 20:12

Fleetwood Mac / Future Games

Used drive  : PLEXTOR BD-R  PX-B950SA   Adapter: 6  ID: 0

Read mode               : Secure
Utilize accurate stream : Yes
Defeat audio cache      : Yes
Make use of C2 pointers : No

Read offset correction                      : 6
Overread into Lead-In and Lead-Out          : No
Fill up missing offset samples with silence : Yes
Delete leading and trailing silent blocks   : No
Null samples used in CRC calculations       : Yes
Used interface                              : Native Win32 interface for Win NT & 2000

Used output format : Internal WAV Routines
Sample format      : 44.100 Hz; 16 Bit; Stereo

TOC of the extracted CD

     Track |   Start  |  Length  | Start sector | End sector
    ---------------------------------------------------------
        1  |  0:00.00 |  5:28.72 |         0    |    24671
        2  |  5:28.72 |  5:38.68 |     24672    |    50089
        3  | 11:07.65 |  2:20.00 |     50090    |    60589
        4  | 13:27.65 |  8:18.10 |     60590    |    97949
        5  | 21:46.00 |  7:24.00 |     97950    |   131249
        6  | 29:10.00 |  5:26.53 |    131250    |   155752
        7  | 34:36.53 |  4:30.52 |    155753    |   176054
        8  | 39:07.30 |  3:22.07 |    176055    |   191211

Range status and errors

Selected range

     Filename C:\Users\Meijin\Desktop\Lossless Galaxy ALLexxess\Fleetwood Mac\1971 Future Game (Mini LP SHM-CD Warner Japan 2013)\Fleetwood Mac - Future Games.wav

     Peak level 100.0 %
     Extraction speed 6.8 X
     Range quality 100.0 %
     Test CRC 6C6E614E
     Copy CRC 6C6E614E
     Copy OK

No errors occurred

AccurateRip summary

Track  1  not present in database
Track  2  not present in database
Track  3  not present in database
Track  4  not present in database
Track  5  not present in database
Track  6  not present in database
Track  7  not present in database
Track  8  not present in database

None of the tracks are present in the AccurateRip database

End of status report

==== Log checksum 1F144C0C764F1CB98559ABA3338265A687B4DF0235B374FC1E4E6BF3CCA2867E ====
Код:
Код:
-----------------------

DON'T MODIFY THIS FILE

-----------------------

PERFORMER: auCDtect Task Manager, ver. 1.5.1RC4 build 1.5.1.5
Copyright (c) 2008-2010 y-soft. All rights reserved
http:/y-soft.org

ANALYZER: auCDtect: CD records authenticity detector, version 0.8.2
Copyright (c) 2004 Oleg Berngardt. All rights reserved.
Copyright (c) 2004 Alexander Djourik. All rights reserved.

FILE: Fleetwood Mac - Future Games.flac
  Size: 272731858 Hash: 49C2E9BB85751FD87DABA2F62784DD38 Accuracy: -m0
  Conclusion: MPEG 95%
  Signature: 1F1C912F2DF5BFC80DB7713A2CBAF21A5C43F3C4
#777Треклист:
01. Child Of Mine (5:29)
02. The Ghost (4:02)
03. Homeward Bound (3:24)
04. Sunny Side Of Heaven (3:11)
05. Bare Trees (5:05)
06. Sentimental Lady (4:36)
07. Danny's Chant (3:19)
08. Spare Me A Little Of Your Love (3:48)
09. Dust (2:41)
10. Thoughts On A Grey Day (1:45)

Продолжительноcть: 00:37:19
Код:
Код:
Exact Audio Copy V1.0 beta 3 from 29. August 2011

EAC extraction logfile from 28. October 2013, 16:31

Fleetwood Mac / Bare Trees

Used drive  : PLEXTOR BD-R  PX-B950SA   Adapter: 6  ID: 0

Read mode               : Secure
Utilize accurate stream : Yes
Defeat audio cache      : Yes
Make use of C2 pointers : No

Read offset correction                      : 6
Overread into Lead-In and Lead-Out          : No
Fill up missing offset samples with silence : Yes
Delete leading and trailing silent blocks   : No
Null samples used in CRC calculations       : Yes
Used interface                              : Native Win32 interface for Win NT & 2000

Used output format : Internal WAV Routines
Sample format      : 44.100 Hz; 16 Bit; Stereo

TOC of the extracted CD

     Track |   Start  |  Length  | Start sector | End sector
    ---------------------------------------------------------
        1  |  0:00.00 |  5:28.38 |         0    |    24637
        2  |  5:28.38 |  4:02.12 |     24638    |    42799
        3  |  9:30.50 |  3:24.10 |     42800    |    58109
        4  | 12:54.60 |  3:10.50 |     58110    |    72409
        5  | 16:05.35 |  5:04.65 |     72410    |    95274
        6  | 21:10.25 |  4:35.55 |     95275    |   115954
        7  | 25:46.05 |  3:18.53 |    115955    |   130857
        8  | 29:04.58 |  3:47.40 |    130858    |   147922
        9  | 32:52.23 |  2:41.27 |    147923    |   160024
       10  | 35:33.50 |  1:43.50 |    160025    |   167799

Range status and errors

Selected range

     Filename C:\Users\Meijin\Desktop\Lossless Galaxy ALLexxess\Fleetwood Mac\1972 Bare Trees (Mini LP SHM-CD Warner Japan 2013)\Fleetwood Mac - Bare Trees.wav

     Peak level 100.0 %
     Extraction speed 6.5 X
     Range quality 99.9 %
     Test CRC 71E4DE8D
     Copy CRC 71E4DE8D
     Copy OK

No errors occurred

AccurateRip summary

Track  1  not present in database
Track  2  not present in database
Track  3  not present in database
Track  4  not present in database
Track  5  not present in database
Track  6  not present in database
Track  7  not present in database
Track  8  not present in database
Track  9  not present in database
Track 10  not present in database

None of the tracks are present in the AccurateRip database

End of status report

==== Log checksum F7093521E92162D07E07C0CD6E6F9F96AC07C0A481DF26A1AFF21593D6DC4B3A ====
Код:
Код:
-----------------------

DON'T MODIFY THIS FILE

-----------------------

PERFORMER: auCDtect Task Manager, ver. 1.5.1RC4 build 1.5.1.5
Copyright (c) 2008-2010 y-soft. All rights reserved
http:/y-soft.org

ANALYZER: auCDtect: CD records authenticity detector, version 0.8.2
Copyright (c) 2004 Oleg Berngardt. All rights reserved.
Copyright (c) 2004 Alexander Djourik. All rights reserved.

FILE: Fleetwood Mac - Bare Trees.flac
  Size: 215518636 Hash: E300F70ADE39482F2A581BBBCE9CA0BA Accuracy: -m0
  Conclusion: CDDA 100%
  Signature: AE674E634E106D5A5054249F539A0508B51CE52A
#777Треклист:
01. Emerald Eyes (3:32)
02. Believe Me (4:16)
03. Just Crazy Love (3:28)
04. Hypnotized (4:51)
05. Forever (4:06)
06. Keep On Going (4:04)
07. The City (3:37)
08. Miles Away (3:51)
09. Somebody (5:04)
10. The Way I Feel (2:43)
11. For Your Love (3:46)
12. Why (4:59)

Продолжительноcть: 00:48:17
Код:
Код:
Exact Audio Copy V1.0 beta 3 from 29. August 2011

EAC extraction logfile from 27. October 2013, 20:00

Fleetwood Mac / Mystery To Me

Used drive  : PLEXTOR BD-R  PX-B950SA   Adapter: 6  ID: 0

Read mode               : Secure
Utilize accurate stream : Yes
Defeat audio cache      : Yes
Make use of C2 pointers : No

Read offset correction                      : 6
Overread into Lead-In and Lead-Out          : No
Fill up missing offset samples with silence : Yes
Delete leading and trailing silent blocks   : No
Null samples used in CRC calculations       : Yes
Used interface                              : Native Win32 interface for Win NT & 2000

Used output format : Internal WAV Routines
Sample format      : 44.100 Hz; 16 Bit; Stereo

TOC of the extracted CD

     Track |   Start  |  Length  | Start sector | End sector
    ---------------------------------------------------------
        1  |  0:00.00 |  3:31.57 |         0    |    15881
        2  |  3:31.57 |  4:16.35 |     15882    |    35116
        3  |  7:48.17 |  3:27.48 |     35117    |    50689
        4  | 11:15.65 |  4:50.72 |     50690    |    72511
        5  | 16:06.62 |  4:06.30 |     72512    |    90991
        6  | 20:13.17 |  4:04.03 |     90992    |   109294
        7  | 24:17.20 |  3:36.62 |    109295    |   125556
        8  | 27:54.07 |  3:50.68 |    125557    |   142874
        9  | 31:45.00 |  5:03.72 |    142875    |   165671
       10  | 36:48.72 |  2:43.13 |    165672    |   177909
       11  | 39:32.10 |  3:45.43 |    177910    |   194827
       12  | 43:17.53 |  4:57.14 |    194828    |   217116

Range status and errors

Selected range

     Filename C:\Users\Meijin\Desktop\Lossless Galaxy ALLexxess\Fleetwood Mac\1973 Mystery To Me (Mini LP SHM-CD Warner Japan 2013)\Fleetwood Mac - Mystery To Me.wav

     Peak level 100.0 %
     Extraction speed 7.0 X
     Range quality 100.0 %
     Test CRC 3A16DEBC
     Copy CRC 3A16DEBC
     Copy OK

No errors occurred

AccurateRip summary

Track  1  not present in database
Track  2  not present in database
Track  3  not present in database
Track  4  not present in database
Track  5  not present in database
Track  6  not present in database
Track  7  not present in database
Track  8  not present in database
Track  9  not present in database
Track 10  not present in database
Track 11  not present in database
Track 12  not present in database

None of the tracks are present in the AccurateRip database

End of status report

==== Log checksum 6C9CBB80B014DF67E21D1500DA3CFF7D91A450E9F16A7B7A3DB458A9862C17A3 ====
Код:
Код:
-----------------------

DON'T MODIFY THIS FILE

-----------------------

PERFORMER: auCDtect Task Manager, ver. 1.5.1RC4 build 1.5.1.5
Copyright (c) 2008-2010 y-soft. All rights reserved
http:/y-soft.org

ANALYZER: auCDtect: CD records authenticity detector, version 0.8.2
Copyright (c) 2004 Oleg Berngardt. All rights reserved.
Copyright (c) 2004 Alexander Djourik. All rights reserved.

FILE: Fleetwood Mac - Mystery To Me.flac
  Size: 320187215 Hash: 83C00849A8EB8E3126D54832B29A0F1C Accuracy: -m0
  Conclusion: MPEG 95%
  Signature: 52541116978AE21A936B24133E016FD77F7856C1
#777Треклист:
01. Remember Me (2:44)
02. Bright Fire (4:33)
03. Dissatisfied (3:43)
04. (I'm A) Road Runner (4:52)
05. The Derelict (2:47)
06. Revelation (4:58)
07. Did You Ever Love Me (3:43)
08. Night Watch (6:16)
09. Caught In The Rain (2:46)

Продолжительноcть: 00:36:22
Код:
Код:
Exact Audio Copy V1.0 beta 3 from 29. August 2011

EAC extraction logfile from 27. October 2013, 19:27

Fleetwood Mac / Penguin

Used drive  : PLEXTOR BD-R  PX-B950SA   Adapter: 6  ID: 0

Read mode               : Secure
Utilize accurate stream : Yes
Defeat audio cache      : Yes
Make use of C2 pointers : No

Read offset correction                      : 6
Overread into Lead-In and Lead-Out          : No
Fill up missing offset samples with silence : Yes
Delete leading and trailing silent blocks   : No
Null samples used in CRC calculations       : Yes
Used interface                              : Native Win32 interface for Win NT & 2000

Used output format : Internal WAV Routines
Sample format      : 44.100 Hz; 16 Bit; Stereo

TOC of the extracted CD

     Track |   Start  |  Length  | Start sector | End sector
    ---------------------------------------------------------
        1  |  0:00.00 |  2:43.58 |         0    |    12282
        2  |  2:43.58 |  4:33.00 |     12283    |    32757
        3  |  7:16.58 |  3:42.42 |     32758    |    49449
        4  | 10:59.25 |  4:52.13 |     49450    |    71362
        5  | 15:51.38 |  2:46.60 |     71363    |    83872
        6  | 18:38.23 |  4:58.02 |     83873    |   106224
        7  | 23:36.25 |  3:43.35 |    106225    |   122984
        8  | 27:19.60 |  6:15.70 |    122985    |   151179
        9  | 33:35.55 |  2:44.23 |    151180    |   163502

Range status and errors

Selected range

     Filename C:\Users\Meijin\Desktop\Lossless Galaxy ALLexxess\Fleetwood Mac\1973 Penguin (Mini LP SHM-CD Warner Japan 2013)\Fleetwood Mac - Penguin.wav

     Peak level 100.0 %
     Extraction speed 6.6 X
     Range quality 100.0 %
     Test CRC F6FD8BC3
     Copy CRC F6FD8BC3
     Copy OK

No errors occurred

AccurateRip summary

Track  1  not present in database
Track  2  not present in database
Track  3  not present in database
Track  4  not present in database
Track  5  not present in database
Track  6  not present in database
Track  7  not present in database
Track  8  not present in database
Track  9  not present in database

None of the tracks are present in the AccurateRip database

End of status report

==== Log checksum F5F7B448886B1E0B14CE3EAA35006943994F632531F3A9F5F46D68338CFBA392 ====
Код:
Код:
-----------------------

DON'T MODIFY THIS FILE

-----------------------

PERFORMER: auCDtect Task Manager, ver. 1.5.1RC4 build 1.5.1.5
Copyright (c) 2008-2010 y-soft. All rights reserved
http:/y-soft.org

ANALYZER: auCDtect: CD records authenticity detector, version 0.8.2
Copyright (c) 2004 Oleg Berngardt. All rights reserved.
Copyright (c) 2004 Alexander Djourik. All rights reserved.

FILE: Fleetwood Mac - Penguin.flac
  Size: 242404266 Hash: 41CA0C81156CD314813FC2E8B7794721 Accuracy: -m0
  Conclusion: CDDA 100%
  Signature: 7911DDAFF6C88B13B6BEE80F7CB8FD7CC6E5FD69
#777Треклист:
01. Heroes Are Hard To Find (3:36)
02. Coming Home (3:55)
03. Angel (3:55)
04. Bermuda Triangle (4:08)
05. Come A Little Bit Closer (4:48)
06. She's Changing Me (3:00)
07. Bad Loser (3:26)
08. Silver Heels (3:28)
09. Prove Your Love (3:58)
10. Born Enchanter (2:55)
11. Safe Harbour (2:34)

Продолжительноcть: 00:39:42
Код:
Код:
Exact Audio Copy V1.0 beta 3 from 29. August 2011

EAC extraction logfile from 27. October 2013, 18:56

Fleetwood Mac / Heroes Are Hard To Find

Used drive  : PLEXTOR BD-R  PX-B950SA   Adapter: 6  ID: 0

Read mode               : Secure
Utilize accurate stream : Yes
Defeat audio cache      : Yes
Make use of C2 pointers : No

Read offset correction                      : 6
Overread into Lead-In and Lead-Out          : No
Fill up missing offset samples with silence : Yes
Delete leading and trailing silent blocks   : No
Null samples used in CRC calculations       : Yes
Used interface                              : Native Win32 interface for Win NT & 2000

Used output format : Internal WAV Routines
Sample format      : 44.100 Hz; 16 Bit; Stereo

TOC of the extracted CD

     Track |   Start  |  Length  | Start sector | End sector
    ---------------------------------------------------------
        1  |  0:00.00 |  3:36.17 |         0    |    16216
        2  |  3:36.17 |  3:54.58 |     16217    |    33824
        3  |  7:31.00 |  3:54.41 |     33825    |    51415
        4  | 11:25.41 |  4:08.21 |     51416    |    70036
        5  | 15:33.62 |  4:48.08 |     70037    |    91644
        6  | 20:21.70 |  2:59.60 |     91645    |   105129
        7  | 23:21.55 |  3:25.52 |    105130    |   120556
        8  | 26:47.32 |  3:27.53 |    120557    |   136134
        9  | 30:15.10 |  3:58.30 |    136135    |   154014
       10  | 34:13.40 |  2:54.67 |    154015    |   167131
       11  | 37:08.32 |  2:32.03 |    167132    |   178534

Range status and errors

Selected range

     Filename C:\Users\Meijin\Desktop\Lossless Galaxy ALLexxess\Fleetwood Mac\1974 Heroes Are Hard To Find (Mini LP SHM-CD Warner Japan 2013)\Fleetwood Mac - Heroes Are Hard To Find.wav

     Peak level 100.0 %
     Extraction speed 6.6 X
     Range quality 99.9 %
     Test CRC 575FB353
     Copy CRC 575FB353
     Copy OK

No errors occurred

AccurateRip summary

Track  1  not present in database
Track  2  not present in database
Track  3  not present in database
Track  4  not present in database
Track  5  not present in database
Track  6  not present in database
Track  7  not present in database
Track  8  not present in database
Track  9  not present in database
Track 10  not present in database
Track 11  not present in database

None of the tracks are present in the AccurateRip database

End of status report

==== Log checksum 10E7BF55BA444E69B976DC4EF6A91761E75F9643BCCB1C513D024BFEB3EAD7C9 ====
Код:
Код:
-----------------------

DON'T MODIFY THIS FILE

-----------------------

PERFORMER: auCDtect Task Manager, ver. 1.5.1RC4 build 1.5.1.5
Copyright (c) 2008-2010 y-soft. All rights reserved
http:/y-soft.org

ANALYZER: auCDtect: CD records authenticity detector, version 0.8.2
Copyright (c) 2004 Oleg Berngardt. All rights reserved.
Copyright (c) 2004 Alexander Djourik. All rights reserved.

FILE: Fleetwood Mac - Heroes Are Hard To Find.flac
  Size: 242971917 Hash: 3D9EE208D9C76D78E5D4BAF677099F38 Accuracy: -m0
  Conclusion: CDDA 100%
  Signature: D7CFA3403161978AB062EAA9EF36F568CB00659B
Правила, инструкции, FAQ!!!
Торрент  Добавлен [05 дек 2013, 10:38] Скачать торрент Магнет ссылка
Скачать торрент
[ Размер 35.17 КБ / Просмотров 36 ]

Статус  
 
Размер  2.92 ГБ
Приватный: Нет (DHT включён)
.torrent скачан  0
 


     Отправить личное сообщение
   
Страница 1 из 1
Показать сообщения за:  Поле сортировки  
Начать новую тему Ответить на тему


Сейчас этот форум просматривают: нет зарегистрированных пользователей и гости: 0


Вы не можете начинать темы
Вы не можете отвечать на сообщения
Вы не можете редактировать свои сообщения
Вы не можете удалять свои сообщения
Вы не можете добавлять вложения

Перейти:  
cron