Начать новую тему Ответить на тему
Статистика раздачи
Размер: 2.4 ГБ | Добавлен: 16 мар 2014, 00:18 | Скачали: 0
Сидеров: 1  [0 байт/сек]    Личеров: 1  [0 байт/сек]
Пред. тема | След. тема 

Автор
Сообщение

СообщениеДобавлено: 16 мар 2014, 00:18 

Ответить с цитатой 

Fergie Frederiksen - 5 Альбомов (1995-2013)

Год: 1995-2013
Страна-производитель диска: Japan
Издатель: Brunette, Avex Group, King Records, Rubicon Music.
Каталог: much
Жанр: Melodic Rock,AOR
Продолжительность: 04:44:00

Кодек: FLAC
Битрейт: Lossless
Тип рипа: image +.cue +.log
Наличие сканов: да
rip by kolushew спасибо

Треклист:
#777
Издатель:
Brunette
Каталог: ALCB-3095
Продолжительность: 00:53:41
Треклист:
01. Shot Down
02. Oh Diane
03. How Much Longer
04. Name Of Love
05. You Must Be A Liar ('Cause Your Unbelievable)
06. Baby Blue
07. Captured
08. Queen Bee
09. Hopelessly Lost
10. Do You Love Her
11. Long Way Around The World
Код:
Код:
Exact Audio Copy V1.0 beta 3 from 29. August 2011

EAC extraction logfile from 21. October 2013, 21:26

Frederiksen/Phillips / Frederiksen/Phillips

Used drive  : SlimtypeDVD A  DS8A5SH   Adapter: 0  ID: 1

Read mode               : Secure
Utilize accurate stream : Yes
Defeat audio cache      : Yes
Make use of C2 pointers : No

Read offset correction                      : 6
Overread into Lead-In and Lead-Out          : No
Fill up missing offset samples with silence : Yes
Delete leading and trailing silent blocks   : No
Null samples used in CRC calculations       : Yes
Used interface                              : Native Win32 interface for Win NT & 2000

Used output format              : User Defined Encoder
Selected bitrate                : 320 kBit/s
Quality                         : High
Add ID3 tag                     : No
Command line compressor         : C:\Program Files (x86)\Exact Audio Copy\Flac\flac.exe
Additional command line options : -V -8 -T "Date=%year%" -T "Genre=%genre%" %source%

TOC of the extracted CD

     Track |   Start  |  Length  | Start sector | End sector
    ---------------------------------------------------------
        1  |  0:00.00 |  4:19.00 |         0    |    19424
        2  |  4:19.00 |  4:46.72 |     19425    |    40946
        3  |  9:05.72 |  4:34.18 |     40947    |    61514
        4  | 13:40.15 |  5:11.32 |     61515    |    84871
        5  | 18:51.47 |  4:12.70 |     84872    |   103841
        6  | 23:04.42 |  3:48.10 |    103842    |   120951
        7  | 26:52.52 |  7:13.05 |    120952    |   153431
        8  | 34:05.57 |  4:52.00 |    153432    |   175331
        9  | 38:57.57 |  4:50.38 |    175332    |   197119
       10  | 43:48.20 |  4:30.40 |    197120    |   217409
       11  | 48:18.60 |  5:22.30 |    217410    |   241589

Range status and errors

Selected range

     Filename D:\My Music\Frederiksen-Phillips - 1995 Frederiksen-Phillips\Frederiksen-Phillips - Frederiksen-Phillips.wav

     Peak level 99.2 %
     Extraction speed 4.4 X
     Range quality 100.0 %
     Test CRC 408A077D
     Copy CRC 408A077D
     Copy OK

No errors occurred

AccurateRip summary

Track  1  accurately ripped (confidence 1)  [5CDEF131]  (AR v1)
Track  2  accurately ripped (confidence 1)  [BFDE688B]  (AR v1)
Track  3  accurately ripped (confidence 1)  [6647E580]  (AR v1)
Track  4  accurately ripped (confidence 1)  [96A91E8F]  (AR v1)
Track  5  accurately ripped (confidence 1)  [64B17FEA]  (AR v1)
Track  6  accurately ripped (confidence 1)  [5AE8C436]  (AR v1)
Track  7  accurately ripped (confidence 1)  [D6C896E5]  (AR v1)
Track  8  accurately ripped (confidence 1)  [24F1C57E]  (AR v1)
Track  9  accurately ripped (confidence 1)  [9FCC7C24]  (AR v1)
Track 10  accurately ripped (confidence 1)  [AD091A1C]  (AR v1)
Track 11  accurately ripped (confidence 1)  [37DCC44A]  (AR v1)

All tracks accurately ripped

End of status report

==== Log checksum BC7D721FEA0E7BEF75A3BEC4CCA2D89832F2789AE65F1A1DA4E9C58FFAC164E2 ====
Код:
Код:
-----------------------

DON'T MODIFY THIS FILE

-----------------------

PERFORMER: auCDtect Task Manager, ver. 1.6.0 RC1 build 1.6.0.1
Copyright (c) 2008-2010 y-soft. All rights reserved
http:/y-soft.org

ANALYZER: auCDtect: CD records authenticity detector, version 0.8.2
Copyright (c) 2004 Oleg Berngardt. All rights reserved.
Copyright (c) 2004 Alexander Djourik. All rights reserved.

FILE: Frederiksen-Phillips - Frederiksen-Phillips.flac
  Size: 397242518 Hash: 76CED4213CD265793210079E68D2E528 Accuracy: -m0
  Conclusion: CDDA 100%
  Signature: 816F7E5C617358CFA803C0DB61650D010B8B801A
Fergie Frederiksen - lead vocals
Ricky Phillips - bass, keyboards, backing vocals, producer
Steve Grove - saxophone
Darrell Leonard - trumpet
keyboards & Hammond organ: Jesse Harms, Guy Allison, Mike Finnigan.
guitars: Neal Schon, Bruce Gowdy, Tim Pierce, Marcus Nand, Steve Farris.
drums: Pat Torpey, Bobby Blotzer, Brian Kilgore, Alan White, Deen Castronovo.
backing vocals: Marcie Free, David Glen Eisley, Robin McAuley, John Purdell, Jason Scheff.
#777
Издатель:
Avex Group,
Каталог: AVCB-66062
Продолжительность: 00: 45:52
Треклист:
01. Blaze Of Love
02. Mata Hari
03. Equilibrium
04. All For Love
05. Best I Can Be
06. Crazy
07. Tell Me Diana
08. Falling Into Place
09. Died In The Midst Of A Dream
10. The Truth Is Good Enough
11. Language Of Love
Код:
Код:
Exact Audio Copy V1.0 beta 3 from 29. August 2011

EAC extraction logfile from 21. October 2013, 23:15

Fergie Frederiksen / Equilibrium

Used drive  : SlimtypeDVD A  DS8A5SH   Adapter: 0  ID: 1

Read mode               : Secure
Utilize accurate stream : Yes
Defeat audio cache      : Yes
Make use of C2 pointers : No

Read offset correction                      : 6
Overread into Lead-In and Lead-Out          : No
Fill up missing offset samples with silence : Yes
Delete leading and trailing silent blocks   : No
Null samples used in CRC calculations       : Yes
Used interface                              : Native Win32 interface for Win NT & 2000

Used output format              : User Defined Encoder
Selected bitrate                : 320 kBit/s
Quality                         : High
Add ID3 tag                     : No
Command line compressor         : C:\Program Files (x86)\Exact Audio Copy\Flac\flac.exe
Additional command line options : -V -8 -T "Date=%year%" -T "Genre=%genre%" %source%

TOC of the extracted CD

     Track |   Start  |  Length  | Start sector | End sector
    ---------------------------------------------------------
        1  |  0:00.00 |  3:55.35 |         0    |    17659
        2  |  3:55.35 |  4:13.02 |     17660    |    36636
        3  |  8:08.37 |  4:22.50 |     36637    |    56336
        4  | 12:31.12 |  4:07.68 |     56337    |    74929
        5  | 16:39.05 |  4:07.47 |     74930    |    93501
        6  | 20:46.52 |  4:15.68 |     93502    |   112694
        7  | 25:02.45 |  3:33.32 |    112695    |   128701
        8  | 28:36.02 |  4:31.70 |    128702    |   149096
        9  | 33:07.72 |  4:17.00 |    149097    |   168371
       10  | 37:24.72 |  3:52.53 |    168372    |   185824
       11  | 41:17.50 |  4:34.47 |    185825    |   206421
       12  | 48:24.22 |  3:06.11 |    217822    |   231782

Range status and errors

Selected range

     Filename D:\My Music\Fergie Frederiksen - 1999 Equilibrium\Fergie Frederiksen - Equilibrium.wav

     Peak level 100.0 %
     Extraction speed 1.8 X
     Range quality 99.9 %
     Test CRC 7997151B
     Copy CRC 7997151B
     Copy OK

No errors occurred

AccurateRip summary

Track  1  accurately ripped (confidence 2)  [0102BB37]  (AR v1)
Track  2  accurately ripped (confidence 2)  [FEE7E9E0]  (AR v1)
Track  3  accurately ripped (confidence 2)  [38455DEF]  (AR v1)
Track  4  accurately ripped (confidence 2)  [70F81F08]  (AR v1)
Track  5  accurately ripped (confidence 2)  [38388BC5]  (AR v1)
Track  6  accurately ripped (confidence 2)  [0F30212A]  (AR v1)
Track  7  accurately ripped (confidence 2)  [0044A1FF]  (AR v1)
Track  8  accurately ripped (confidence 2)  [00C6F0B5]  (AR v1)
Track  9  accurately ripped (confidence 2)  [FC70DDD2]  (AR v1)
Track 10  accurately ripped (confidence 2)  [219116B8]  (AR v1)
Track 11  accurately ripped (confidence 2)  [3B170F8C]  (AR v1)

All tracks accurately ripped

End of status report

==== Log checksum F4AE407AA4167DBBF143D2BA5AA78BE1CE367E92AE27D248B7754328C8C624BA ====

Код:
Код:
-----------------------

DON'T MODIFY THIS FILE

-----------------------

PERFORMER: auCDtect Task Manager, ver. 1.6.0 RC1 build 1.6.0.1
Copyright (c) 2008-2010 y-soft. All rights reserved
http:/y-soft.org

ANALYZER: auCDtect: CD records authenticity detector, version 0.8.2
Copyright (c) 2004 Oleg Berngardt. All rights reserved.
Copyright (c) 2004 Alexander Djourik. All rights reserved.

FILE: Fergie Frederiksen - Equilibrium.flac
  Size: 324387828 Hash: 8D4EA6FFB41C6E54BAB7E4898BE2872B Accuracy: -m0
  Conclusion: CDDA 100%
  Signature: 47086FF8AD0852A2D6675560EBDE11897B015660
Fergie Frederiksen - lead and backing vocals
Ron Wikso - drums
Ricky Phillips - bass, backing vocals
keyboards: Bruce Gowdy, Steve Porcaro.
guitar: Neal Schon, Tim Pierce, Marcus Nand, Michael Monarch, Danny Laine.
backing vocals: Dave Amato, Jason Scheff, Jeff Scott Soto, Kelly Hansen.
#777
Издатель:
King Records
Каталог: KICP-1249
Продолжительность: 00:57:51
Треклист:
01. Let Him Go
02. Right Heart, Wrong Time
03. Silver Lining
04. Crossing Over
05. Written In Stone
06. My Saving Grace
07. Baptism By Fire
08. Can't Get Enough
09. Never Try To Love Again
10. Dead End
11. Keep A Light On
12. Left With Nothing
bonus track for Japan
13. Night Of Nights
Код:
Код:
Exact Audio Copy V1.0 beta 3 from 29. August 2011

EAC extraction logfile from 21. October 2013, 22:18

Frederiksen-Denander / Baptism By Fire

Used drive  : SlimtypeDVD A  DS8A5SH   Adapter: 0  ID: 1

Read mode               : Secure
Utilize accurate stream : Yes
Defeat audio cache      : Yes
Make use of C2 pointers : No

Read offset correction                      : 6
Overread into Lead-In and Lead-Out          : No
Fill up missing offset samples with silence : Yes
Delete leading and trailing silent blocks   : No
Null samples used in CRC calculations       : Yes
Used interface                              : Native Win32 interface for Win NT & 2000

Used output format              : User Defined Encoder
Selected bitrate                : 320 kBit/s
Quality                         : High
Add ID3 tag                     : No
Command line compressor         : C:\Program Files (x86)\Exact Audio Copy\Flac\flac.exe
Additional command line options : -V -8 -T "Date=%year%" -T "Genre=%genre%" %source%

TOC of the extracted CD

     Track |   Start  |  Length  | Start sector | End sector
    ---------------------------------------------------------
        1  |  0:00.00 |  5:23.25 |         0    |    24249
        2  |  5:23.25 |  3:57.05 |     24250    |    42029
        3  |  9:20.30 |  4:35.45 |     42030    |    62699
        4  | 13:56.00 |  4:04.50 |     62700    |    81049
        5  | 18:00.50 |  4:41.62 |     81050    |   102186
        6  | 22:42.37 |  3:53.30 |    102187    |   119691
        7  | 26:35.67 |  5:03.33 |    119692    |   142449
        8  | 31:39.25 |  4:27.52 |    142450    |   162526
        9  | 36:07.02 |  4:47.35 |    162527    |   184086
       10  | 40:54.37 |  4:52.45 |    184087    |   206031
       11  | 45:47.07 |  3:30.43 |    206032    |   221824
       12  | 49:17.50 |  4:23.45 |    221825    |   241594
       13  | 53:41.20 |  4:09.30 |    241595    |   260299

Range status and errors

Selected range

     Filename D:\My Music\Frederiksen-Denander - 2007 Baptism By Fire\Frederiksen-Denander - Baptism By Fire.wav

     Peak level 98.7 %
     Extraction speed 1.8 X
     Range quality 100.0 %
     Test CRC 1A9F2D2D
     Copy CRC 1A9F2D2D
     Copy OK

No errors occurred

AccurateRip summary

Track  1  accurately ripped (confidence 1)  [765D5B45]  (AR v1)
Track  2  accurately ripped (confidence 1)  [AADD6DD9]  (AR v1)
Track  3  accurately ripped (confidence 1)  [9E437894]  (AR v1)
Track  4  accurately ripped (confidence 1)  [09FBC9B1]  (AR v1)
Track  5  accurately ripped (confidence 1)  [E0965DA4]  (AR v1)
Track  6  accurately ripped (confidence 1)  [FCC6CA3A]  (AR v1)
Track  7  accurately ripped (confidence 1)  [D3E3E34A]  (AR v1)
Track  8  accurately ripped (confidence 1)  [9E2A574A]  (AR v1)
Track  9  accurately ripped (confidence 1)  [C6CB28DD]  (AR v1)
Track 10  accurately ripped (confidence 1)  [0898DFEC]  (AR v1)
Track 11  accurately ripped (confidence 1)  [92953183]  (AR v1)
Track 12  accurately ripped (confidence 1)  [9AE6D2FA]  (AR v1)
Track 13  accurately ripped (confidence 1)  [2070E8C0]  (AR v1)

All tracks accurately ripped

End of status report

==== Log checksum 7B76528D4B14EBCFAA323F2C5BD92AF01C13782BABA6207430BEEA234B3F69F3 ====
Код:
Код:
-----------------------

DON'T MODIFY THIS FILE

-----------------------

PERFORMER: auCDtect Task Manager, ver. 1.6.0 RC1 build 1.6.0.1
Copyright (c) 2008-2010 y-soft. All rights reserved
http:/y-soft.org

ANALYZER: auCDtect: CD records authenticity detector, version 0.8.2
Copyright (c) 2004 Oleg Berngardt. All rights reserved.
Copyright (c) 2004 Alexander Djourik. All rights reserved.

FILE: Frederiksen-Denander - Baptism By Fire.flac
  Size: 446461644 Hash: 2F886379B6F3DAF4E36FE46D05A43E13 Accuracy: -m0
  Conclusion: CDDA 100%
  Signature: 34C4B32813E5DF17222C9A1E22DA5185CF212C7F
Fergie Frederiksen - lead & backing vocals
Tommy Denander - guitars, keyboards, bass
Eric Z Daniel - drums
Michael Thompson - 1st guitar solo on "Silver Lining"
Steve Porcaro - Hammond organ on "Can't Get Enough"
Thomas Vikstrom - backing vocals
Jan Johansen - backing vocals on "My Saving Grace"
#777
Издатель:
Rubicon Music
Каталог: RBNCD-1070
Продолжительность: 00:57:10
Треклист:
01. Angel (Mirror To Your Soul)
02. Elaine
03. First To Cry
04. Follow Your Heart
05. Happiness Is The Road
06. I Still Believe
07. Lyin Eyes
08. Love Waits For No One
09. Writing On The Wall
10. The Future Ain't What It Used To Be
11. The One
12. The Saver
bonus track for Japan:
13. Follow Your Heart (Acoustic)
Код:
Код:
Exact Audio Copy V1.0 beta 3 from 29. August 2011

EAC extraction logfile from 22. October 2013, 0:15

Fergie Frederiksen / Happiness Is The Road

Used drive  : SlimtypeDVD A  DS8A5SH   Adapter: 0  ID: 1

Read mode               : Secure
Utilize accurate stream : Yes
Defeat audio cache      : Yes
Make use of C2 pointers : No

Read offset correction                      : 6
Overread into Lead-In and Lead-Out          : No
Fill up missing offset samples with silence : Yes
Delete leading and trailing silent blocks   : No
Null samples used in CRC calculations       : Yes
Used interface                              : Native Win32 interface for Win NT & 2000

Used output format              : User Defined Encoder
Selected bitrate                : 320 kBit/s
Quality                         : High
Add ID3 tag                     : No
Command line compressor         : C:\Program Files (x86)\Exact Audio Copy\Flac\flac.exe
Additional command line options : -V -8 -T "Date=%year%" -T "Genre=%genre%" %source%

TOC of the extracted CD

     Track |   Start  |  Length  | Start sector | End sector
    ---------------------------------------------------------
        1  |  0:00.00 |  4:15.30 |         0    |    19154
        2  |  4:15.30 |  4:05.32 |     19155    |    37561
        3  |  8:20.62 |  3:46.26 |     37562    |    54537
        4  | 12:07.13 |  5:09.45 |     54538    |    77757
        5  | 17:16.58 |  4:02.18 |     77758    |    95925
        6  | 21:19.01 |  4:18.67 |     95926    |   115342
        7  | 25:37.68 |  5:22.47 |    115343    |   139539
        8  | 31:00.40 |  4:17.12 |    139540    |   158826
        9  | 35:17.52 |  5:06.12 |    158827    |   181788
       10  | 40:23.64 |  4:24.17 |    181789    |   201605
       11  | 44:48.06 |  5:13.11 |    201606    |   225091
       12  | 50:01.17 |  3:37.16 |    225092    |   241382
       13  | 53:38.33 |  3:31.36 |    241383    |   257243

Range status and errors

Selected range

     Filename D:\My Music\Fergie Frederiksen - 2011 Happiness Is The Road\Fergie Frederiksen - Happiness Is The Road.wav

     Peak level 100.0 %
     Extraction speed 1.8 X
     Range quality 99.9 %
     Test CRC F4E59B2D
     Copy CRC F4E59B2D
     Copy OK

No errors occurred

AccurateRip summary

Track  1  accurately ripped (confidence 1)  [3573F81D]  (AR v2)
Track  2  accurately ripped (confidence 1)  [EF1C9D8A]  (AR v2)
Track  3  accurately ripped (confidence 1)  [B857C115]  (AR v2)
Track  4  accurately ripped (confidence 1)  [BF47B8A3]  (AR v2)
Track  5  accurately ripped (confidence 1)  [7FC8E556]  (AR v2)
Track  6  accurately ripped (confidence 1)  [86FBC0AB]  (AR v2)
Track  7  accurately ripped (confidence 1)  [25559B08]  (AR v2)
Track  8  accurately ripped (confidence 1)  [E739DCD3]  (AR v2)
Track  9  accurately ripped (confidence 1)  [6D892642]  (AR v2)
Track 10  accurately ripped (confidence 1)  [2692355F]  (AR v2)
Track 11  accurately ripped (confidence 1)  [AAFDBE4E]  (AR v2)
Track 12  accurately ripped (confidence 1)  [9A6370AC]  (AR v2)
Track 13  accurately ripped (confidence 1)  [9E3BAD97]  (AR v2)

All tracks accurately ripped

End of status report

==== Log checksum F2F0D7813028F9D62D4EA94D835EB43BC3BBC8B0F539416578FDE8272DAB3AC2 ====
Код:
Код:
-----------------------

DON'T MODIFY THIS FILE

-----------------------

PERFORMER: auCDtect Task Manager, ver. 1.6.0 RC1 build 1.6.0.1
Copyright (c) 2008-2010 y-soft. All rights reserved
http:/y-soft.org

ANALYZER: auCDtect: CD records authenticity detector, version 0.8.2
Copyright (c) 2004 Oleg Berngardt. All rights reserved.
Copyright (c) 2004 Alexander Djourik. All rights reserved.

FILE: Fergie Frederiksen - Happiness Is The Road.flac
  Size: 456076437 Hash: 5CD55EEA7C3ECB1EBE5C6E38938B40C6 Accuracy: -m0
  Conclusion: CDDA 100%
  Signature: 5A28A37ADEEA5D53599E548115D3E0505C1FAD8C
Fergie Frederiksen - lead & backing vocals
Dennis Ward - bass, guitars, keyboards, background vocals
Dirk Bruinenberg - drums
Nathan Eshman - guitars
Eric Ragno - keyboards
#777
Издатель:
Rubicon Music
Каталог: RBNCD-1147
Продолжительность: 01:01:27
Треклист:
01. Last Battle Of My War
02. Let Go
03. Price For Loving You
04. I'll Be The One
05. Times Will Change
06. How Many Roads
07. Candles In the Dark
08. Any Given Moment - 4:53
09. Not Alone (duet with Issa)
10. When the Battle Is Over
11. Angel Don't Cry (Toto cover)
bonus track for Japan
12. How Many Roads (Acoustic)
Код:
Код:
Exact Audio Copy V1.0 beta 3 from 29. August 2011

EAC extraction logfile from 5. November 2013, 16:00

Fergie Frederiksen / Any Given Moment

Used drive  : SlimtypeDVD A  DS8A5SH   Adapter: 0  ID: 1

Read mode               : Secure
Utilize accurate stream : Yes
Defeat audio cache      : Yes
Make use of C2 pointers : No

Read offset correction                      : 6
Overread into Lead-In and Lead-Out          : No
Fill up missing offset samples with silence : Yes
Delete leading and trailing silent blocks   : No
Null samples used in CRC calculations       : Yes
Used interface                              : Native Win32 interface for Win NT & 2000

Used output format              : User Defined Encoder
Selected bitrate                : 320 kBit/s
Quality                         : High
Add ID3 tag                     : No
Command line compressor         : C:\Program Files (x86)\Exact Audio Copy\Flac\flac.exe
Additional command line options : -V -8 -T "Date=%year%" -T "Genre=%genre%" %source%

TOC of the extracted CD

     Track |   Start  |  Length  | Start sector | End sector
    ---------------------------------------------------------
        1  |  0:00.00 |  5:07.49 |         0    |    23073
        2  |  5:07.49 |  4:12.51 |     23074    |    42024
        3  |  9:20.25 |  6:33.08 |     42025    |    71507
        4  | 15:53.33 |  5:16.43 |     71508    |    95250
        5  | 21:10.01 |  4:17.66 |     95251    |   114591
        6  | 25:27.67 |  5:20.22 |    114592    |   138613
        7  | 30:48.14 |  4:52.60 |    138614    |   160573
        8  | 35:40.74 |  4:53.41 |    160574    |   182589
        9  | 40:34.40 |  5:12.64 |    182590    |   206053
       10  | 45:47.29 |  4:26.59 |    206054    |   226062
       11  | 50:14.13 |  5:52.74 |    226063    |   252536
       12  | 56:07.12 |  5:19.41 |    252537    |   276502

Range status and errors

Selected range

     Filename D:\My Music\Fergie Frederiksen - 2013 Any Given Moment\Fergie Frederiksen - Any Given Moment.wav

     Peak level 98.9 %
     Extraction speed 2.0 X
     Range quality 100.0 %
     Test CRC C59F214A
     Copy CRC C59F214A
     Copy OK

No errors occurred

AccurateRip summary

Track  1  not present in database
Track  2  not present in database
Track  3  not present in database
Track  4  not present in database
Track  5  not present in database
Track  6  not present in database
Track  7  not present in database
Track  8  not present in database
Track  9  not present in database
Track 10  not present in database
Track 11  not present in database
Track 12  not present in database

None of the tracks are present in the AccurateRip database

End of status report

==== Log checksum E9FC9C2173D7FBA18C2B491D435BA2D49F2C7046B2C4C2777C8FFBFCFC8FF52C ====
Код:
Код:
-----------------------

DON'T MODIFY THIS FILE

-----------------------

PERFORMER: auCDtect Task Manager, ver. 1.6.0 RC1 build 1.6.0.1
Copyright (c) 2008-2010 y-soft. All rights reserved
http:/y-soft.org

ANALYZER: auCDtect: CD records authenticity detector, version 0.8.2
Copyright (c) 2004 Oleg Berngardt. All rights reserved.
Copyright (c) 2004 Alexander Djourik. All rights reserved.

FILE: Fergie Frederiksen - Any Given Moment.flac
  Size: 450875097 Hash: ABA237B7274C4C7DBE7568E4CC08E46E Accuracy: -m0
  Conclusion: CDDA 100%
  Signature: 2C9AF6579083A208FE04DEC77A106AB48E810060
Fergie Frederiksen - lead & backing vocals
Alessandro Del Vecchio - keyboards, backing vocals
Nik Mazzucconi - bass, fretless bass
Herman Furin - drums
Roberto Tirrani - background vocals
Bruce Gaitsch - guitars (6,7,8,12)
Walter Caliaro - guitars (2,3,6,8,9)
Sven Larsson - guitars (5,7,9,10)
Robert Sall - guitars (1,4)
Peter Friestedt - guitars (4)
Alessio Berlaffa - guitars (7)
David Coyle - guitars (11)
Правила, инструкции, FAQ!!!
Торрент  Добавлен [16 мар 2014, 00:18] Скачать торрент Магнет ссылка
Скачать торрент
[ Размер 21.84 КБ / Просмотров 37 ]

Статус  
 
Размер  2.4 ГБ
Приватный: Нет (DHT включён)
.torrent скачан  0
 


     Отправить личное сообщение
   
Страница 1 из 1
Показать сообщения за:  Поле сортировки  
Начать новую тему Ответить на тему


Сейчас этот форум просматривают: нет зарегистрированных пользователей и гости: 0


Вы не можете начинать темы
Вы не можете отвечать на сообщения
Вы не можете редактировать свои сообщения
Вы не можете удалять свои сообщения
Вы не можете добавлять вложения

Перейти:  
cron