Начать новую тему Ответить на тему
Статистика раздачи
Размер: 617.36 МБ | Добавлен: 16 мар 2014, 00:14 | Скачали: 0
Сидеров: 1  [0 байт/сек]    Личеров: 1  [0 байт/сек]
Пред. тема | След. тема 

Автор
Сообщение

СообщениеДобавлено: 16 мар 2014, 00:14 

Ответить с цитатой 

FAR CORPORATION - Division One (1985) / Solitude (1994)

Год: 1985, 1994
Жанр: Pop Rock / Melodic Hard Rock/ AOR
Продолжительность: 01:38:09
Формат: APE (image+.cue)
Битрейт: Lossless





#777[font:7e592c4563="Times New Roman"]Трек лист:

1.Stairway To Heaven (Special Long Version) (9:33)
2.You Are The Woman (4:33)
3.One Of Your Lovers (3:45)
4.Live Inside Your Dreams (3:32)
5.Johnny Don't Go The Distance (6:34)
6.Fire And Water (3:56)
7.If You Could See You Through My Eyes (3:48)
8.No One Else Will Do (3:31)
9.Rock'n'Roll Connection (3:36)
Exact Audio Copy V0.99 prebeta 4 from 23. January 2008

Отчёт EAC об извлечении, выполненном 4. августа 2008, 17:54

Far Corporation / Division One

Дисковод: Optiarc DVD RW AD-7170S Adapter: 2 ID: 0

Режим чтения : Достоверность
Использование точного потока : Да
Отключение кэша аудио : Да
Использование указателей C2 : Нет

Коррекция смещения при чтении : 48
Способность читать области Lead-in и Lead-out : Нет
Заполнение пропущенных сэмплов тишиной : Да
Удаление блоков с тишиной в начале и конце : Нет
При вычислениях CRC использовались нулевые сэмплы : Да
Интерфейс : Установленный внешний ASPI-интерфейс

Выходной формат : Monkey's Audio Lossless Encoder v3.99 DLL
Формат сэмплов : High Lossless Compression

TOC извлечённого CD

Трек | Старт | Длительность | Начальный сектор | Конечный сектор
---------------------------------------------------------------------
1 | 0:00.33 | 9:33.67 | 33 | 43074
2 | 9:34.25 | 4:33.60 | 43075 | 63609
3 | 14:08.10 | 3:45.00 | 63610 | 80484
4 | 17:53.10 | 3:32.23 | 80485 | 96407
5 | 21:25.33 | 6:34.57 | 96408 | 126014
6 | 28:00.15 | 3:56.05 | 126015 | 143719
7 | 31:56.20 | 3:48.73 | 143720 | 160892
8 | 35:45.18 | 3:31.15 | 160893 | 176732
9 | 39:16.33 | 3:36.50 | 176733 | 192982

Характеристики диапазона извлечения и сообщения об ошибках

Выбранный диапазон

Имя файла C:\Documents and Settings\Администратор\Рабочий стол\Far Corporation - Division One\Far Corporation - Division One.ape

Пиковый уровень 99.9 %
Качество диапазона 99.9 %
CRC копии 82F37D3A
Копирование... OK

Ошибок не произошло

AccurateRip: сводка

Трек 1 точность не определена (достоверность 8) [3259ECF6], AccurateRip вернул [C0227870]
Трек 2 точность не определена (достоверность 8) [C8D9B245], AccurateRip вернул [DB1C89AF]
Трек 3 точность не определена (достоверность 8) [3C1A286A], AccurateRip вернул [5F0C4FAD]
Трек 4 точность не определена (достоверность 8) [2C7EB22A], AccurateRip вернул [5DC5373C]
Трек 5 точность не определена (достоверность 8) [E065B959], AccurateRip вернул [ACA52514]
Трек 6 точность не определена (достоверность 8) [44A9D60D], AccurateRip вернул [452FA35D]
Трек 7 точность не определена (достоверность 8) [1C79C20C], AccurateRip вернул [252EA14F]
Трек 8 точность не определена (достоверность 8) [5606F7A0], AccurateRip вернул [DB2F163E]
Трек 9 точность не определена (достоверность 8) [A48B8295], AccurateRip вернул [9C4641F2]

Ни один трек не прошёл проверки на точность
В вашей базе может быть иной вариант штамповки диска

Конец отчёта
AUDIOCHECKER v2.0 beta (build 457) - by Dester -
~~~~~~~~~~~~~~~~~~~~~~~~~~~~~~~~~~

Started at: воскресенье, 31. 01. 2010. - 14:10.05
1 file found

1 -===- I:\NNM-Club.ru\Far Corporation\Far Corporation - Division One 1985\Far Corporation - Division One.ape
Extracted successfully
Conclusion: this track is MPEG with probability 95%
Tempfile successfully deleted.

Finished at: воскресенье, 31. 01. 2010. - 14:16.59 (operation time: 0:06.53)

1 track:

#777[font:7e592c4563="Times New Roman"]Трек лист:

[font:7e592c4563="Times New Roman"]1. Rainy Days (4:40)
2. She's Back Again (04:18)
3. Solitude (4:53)
4. You Never Have To Say You Love Me (3:21)
5. Full Moon [0:04:05.05]
6. Rikki Don't Loose That Number (4:10)
7. Just A Wish (4:15)
8. Hole In The Air (3:38)
9. Sebastian (6:03)
10. You Change My Life (3:55)
11. One Of Your Lovers (Remix '94) (3:49)
12. Stairway To Heaven (Remix '94) (8:46)
Exact Audio Copy V0.99 prebeta 4 from 23. January 2008

Отчёт EAC об извлечении, выполненном 12. сентября 2009, 18:54

Far Corporation / Solitude

Дисковод: _NEC DVD_RW ND-3550A Adapter: 1 ID: 2

Режим чтения : Достоверность
Использование точного потока : Да
Отключение кэша аудио : Да
Использование указателей C2 : Нет

Коррекция смещения при чтении : 48
Способность читать области Lead-in и Lead-out : Нет
Заполнение пропущенных сэмплов тишиной : Да
Удаление блоков с тишиной в начале и конце : Нет
При вычислениях CRC использовались нулевые сэмплы : Да
Интерфейс : Встроенный Win32-интерфейс для Win NT/2000

Выходной формат : Внутренние WAV-операции
Формат сэмплов : 44.100 Гц; 16 бит; стерео

TOC извлечённого CD

Трек | Старт | Длительность | Начальный сектор | Конечный сектор
---------------------------------------------------------------------
1 | 0:00.32 | 4:40.03 | 32 | 21034
2 | 4:40.35 | 4:18.22 | 21035 | 40406
3 | 8:58.57 | 4:52.50 | 40407 | 62356
4 | 13:51.32 | 3:21.55 | 62357 | 77486
5 | 17:13.12 | 4:05.05 | 77487 | 95866
6 | 21:18.17 | 4:10.10 | 95867 | 114626
7 | 25:28.27 | 4:15.05 | 114627 | 133756
8 | 29:43.32 | 3:38.30 | 133757 | 150136
9 | 33:21.62 | 6:03.35 | 150137 | 177396
10 | 39:25.22 | 3:55.33 | 177397 | 195054
11 | 43:20.55 | 3:49.05 | 195055 | 212234
12 | 47:09.60 | 8:46.72 | 212235 | 251756

Характеристики диапазона извлечения и сообщения об ошибках

Выбранный диапазон

Имя файла C:\Documents and Settings\Бодом\Рабочий стол\Новая папка\Far Corporation - Solitude.wav

Пиковый уровень 100.0 %
Качество диапазона 100.0 %
CRC копии 3D5C6B03
Копирование... OK

Ошибок не произошло

AccurateRip: сводка

Трек 1 точное извлечение (доверие 6) [1915D8AA]
Трек 2 точное извлечение (доверие 6) [FCD8FF5D]
Трек 3 точное извлечение (доверие 6) [C3625442]
Трек 4 точное извлечение (доверие 6) [F2FF1194]
Трек 5 точное извлечение (доверие 6) [8AE480F9]
Трек 6 точное извлечение (доверие 6) [97A94977]
Трек 7 точное извлечение (доверие 6) [42FF2C20]
Трек 8 точное извлечение (доверие 6) [80EB2E4A]
Трек 9 точное извлечение (доверие 6) [C83198DD]
Трек 10 точное извлечение (доверие 6) [804BE6DE]
Трек 11 точное извлечение (доверие 6) [A9D422F3]
Трек 12 точное извлечение (доверие 6) [4928A56E]

Все треки извлечены точно

Конец отчёта
AUDIOCHECKER v2.0 beta (build 457) - by Dester -
~~~~~~~~~~~~~~~~~~~~~~~~~~~~~~~~~~

Started at: воскресенье, 31. 01. 2010. - 14:19.49
1 file found

1 -===- I:\NNM-Club.ru\Far Corporation\Far Corporation - Solitude 1994\Far Corporation - Solitude.ape
Extracted successfully
Conclusion: this track is MPEG with probability 95%
Tempfile successfully deleted.

Finished at: воскресенье, 31. 01. 2010. - 14:29.10 (operation time: 0:09.21)

1 Track:
[font:7e592c4563="Times New Roman"]Давней мечтой продюсера Фрэнка Фариана являлось создание интернациональной рок-группы мирового уровня, куда были бы привлечены известные музыканты, желающие раздвинуть достаточно узкие рамки рок-культуры и не боящиеся эксперементировать в смежных направлениях. Такая возможность появилась у ставшего известнейшим во всём мире продюсера к середине 80-х, когда он сосредоточил в своих руках мощные финансовые ресурсы. Гигантские тиражи BONEY M (150 миллионов проданных к тому времени альбомов и синглов), ERUPTION (60 миллионов копий), а также Gilla, Benny и некоторых других, заставили говорить весь музыкальный бомонд о практически неограниченных возможностях немецкого хитмэйкера.
FAR CORPORATION - сокращённое название группы Frank Farian CORPORATION представляли из себя супергруппу, в которой объединились известные рок-вокалисты и музыканты - BOBBY KIMBALL ( экс-вокалист знаменитой американской рок-группы TOTO), DAVID BARRETO (ex- FOREIGNER) , ROBIN McAULEY (превосходный вокалист из Лондона ) HENRY GORMAN (вокалист из Нью-Йорка ) STEVE LUKATHER (вокалист из Лос-Анджелеса )
А также: DAVID PATCH (TOTO), SIMON PHILLIPS (ударник , работавший с Jeff Beck, Bachman Turner и другими), MEL COLLINS (саксафонист, проработавший 10 лет с KING CRIMSON )
Для записи дебютного альбома был приглашён знаменитый госпел-хор THE JACKSON SINGERS, а также использованы живые классические инструменты. Работа над одной лишь заглавной композицией (её полная версия длится более 11 минут) заняла целый год. Запись, в которую Фариан вложил большие средства, производилась в нескольких студиях США и Германии.
Их дебютный альбом "Division One" появился в 1985 году. Настоящей сенсацией стал заглавный трэк "Stairway To Heaven" ("Лестница в небо" - кавер знаменитой композиции легендарных LED ZEPPELIN), который был также опубликован отдельным синглом. Песня стремительно ворвалась в TOP 10 британского сингл-чарта, после чего о Фариане стали говорить и поклонники рок-музыки, не обращавшие ранее особого внимания на поп-проекты продюсера. Рок-звезда Meat Loaf после прослушивания "Лестницы..." в интерпретации FAR CORPORATION был в восторге от свежего прочтения легендарной песни и попросил Фариана стать продюсером его нового альбома. Более того, сами авторы "Stairway To Heaven", участники LED ZEPPELIN, были поражены великолепной аранжировкой и исполнением своего хита.
За свою карьеру этот коллектив выпустил несколько синглов, 2 альбома и сборник лучших композиций.
Большое спасибо за рипы - wolfman69 и booddoom
Правила, инструкции, FAQ!!!
Торрент  Добавлен [16 мар 2014, 00:14] Скачать торрент Магнет ссылка
Скачать торрент
[ Размер 14.05 КБ / Просмотров 171 ]

Статус  
 
Размер  617.36 МБ
Приватный: Нет (DHT включён)
.torrent скачан  0
 


     Отправить личное сообщение
   
Страница 1 из 1
Показать сообщения за:  Поле сортировки  
Начать новую тему Ответить на тему


Сейчас этот форум просматривают: нет зарегистрированных пользователей и гости: 0


Вы не можете начинать темы
Вы не можете отвечать на сообщения
Вы не можете редактировать свои сообщения
Вы не можете удалять свои сообщения
Вы не можете добавлять вложения

Перейти:  
cron
cron