Начать новую тему Ответить на тему
Статистика раздачи
Размер: 1.44 ГБ | Добавлен: 16 мар 2014, 00:48 | Скачали: 0
Сидеров: 4  [0 байт/сек]    Личеров: 1  [0 байт/сек]
Пред. тема | След. тема 

Автор
Сообщение

СообщениеДобавлено: 16 мар 2014, 00:48 

Ответить с цитатой 


Eyes Set To Kill
- Дискография





Год выпуска: 2008-2013
Жанр: Post-Hardcore | Alt. Rock | Male & Female Vocal
Продолжительность: 03:18:25
Тип издания: Дискография
Страна: США



Треклист:

01. Intro
02. Sketch in Black & White
03. Reach
04. Darling
05. Violent Kiss
06. Young Blood Spills Tonight
07. Where We Started
08. Into the Night
09. Give You My All
10. Liar in the Glass
11. Only Holding On
12. Behind These Eyes

Продолжительность: 00:44:48

Код:
Код:
X Lossless Decoder version 20101212 (126.2)

XLD extraction logfile from 2010-12-15 00:23:33 -0500

Eyes Set to Kill / Reach

Used drive : MATSHITA DVD-R   UJ-898 (revision HC10)

Ripper mode             : CDParanoia III 10.2
Disable audio cache     : OK for the drive with a cache less than 2750KiB
Make use of C2 pointers : NO
Read offset correction  : 102
Max retry count         : 100
Gap status              : Analyzed, Appended

TOC of the extracted CD
     Track |   Start  |  Length  | Start sector | End sector
    ---------------------------------------------------------
        1  | 00:00:00 | 01:51:13 |         0    |     8337
        2  | 01:51:13 | 03:59:74 |      8338    |    26336
        3  | 05:51:12 | 04:21:08 |     26337    |    45919
        4  | 10:12:20 | 04:04:59 |     45920    |    64278
        5  | 14:17:04 | 03:38:72 |     64279    |    80700
        6  | 17:56:01 | 04:28:28 |     80701    |   100828
        7  | 22:24:29 | 04:28:37 |    100829    |   120965
        8  | 26:52:66 | 03:18:14 |    120966    |   135829
        9  | 30:11:05 | 02:35:49 |    135830    |   147503
       10  | 32:46:54 | 03:58:05 |    147504    |   165358
       11  | 36:44:59 | 04:19:16 |    165359    |   184799
       12  | 41:04:00 | 03:44:34 |    184800    |   201633

AccurateRip Summary
    Track 01 : OK (confidence 3)
    Track 02 : OK (confidence 3)
    Track 03 : OK (confidence 3)
    Track 04 : OK (confidence 3)
    Track 05 : OK (confidence 3)
    Track 06 : OK (confidence 3)
    Track 07 : OK (confidence 3)
    Track 08 : OK (confidence 3)
    Track 09 : OK (confidence 3)
    Track 10 : OK (confidence 3)
    Track 11 : OK (confidence 3)
    Track 12 : OK (confidence 3)
        ->All tracks accurately ripped.

All Tracks
    Album gain             : -10.87 dB
    Peak                   : 1.000000
    Statistics
        Read error                           : 0
        Skipped (treated as error)           : 0
        Edge jitter error (maybe fixed)      : 0
        Atom jitter error (maybe fixed)      : 0
        Drift error (maybe fixed)            : 0
        Dropped bytes error (maybe fixed)    : 0
        Duplicated bytes error (maybe fixed) : 0

Track 01
    Filename : /Volumes/Teh WinRAR/Some FLACness/Eyes Set to Kill/Reach/01 Intro.flac
    Pre-gap length : 00:02:00

    Track gain             : -5.81 dB
    Peak                   : 0.597107
    CRC32 hash (test run)  : FD41D126
    CRC32 hash             : FD41D126
    CRC32 hash (skip zero) : 7EFFBB49
    AccurateRip signature  : 51215296
        ->Accurately ripped! (confidence 3)
    Statistics
        Read error                           : 0
        Skipped (treated as error)           : 0
        Edge jitter error (maybe fixed)      : 0
        Atom jitter error (maybe fixed)      : 0
        Drift error (maybe fixed)            : 0
        Dropped bytes error (maybe fixed)    : 0
        Duplicated bytes error (maybe fixed) : 0
        Inconsistency in error sectors       : 0

Track 02
    Filename : /Volumes/Teh WinRAR/Some FLACness/Eyes Set to Kill/Reach/02 Sketch in Black & White.flac

    Track gain             : -10.79 dB
    Peak                   : 1.000000
    CRC32 hash (test run)  : 7D6B8AAE
    CRC32 hash             : 7D6B8AAE
    CRC32 hash (skip zero) : DBC6903A
    AccurateRip signature  : D0815E23
        ->Accurately ripped! (confidence 3)
    Statistics
        Read error                           : 0
        Skipped (treated as error)           : 0
        Edge jitter error (maybe fixed)      : 0
        Atom jitter error (maybe fixed)      : 0
        Drift error (maybe fixed)            : 0
        Dropped bytes error (maybe fixed)    : 0
        Duplicated bytes error (maybe fixed) : 0
        Inconsistency in error sectors       : 0

Track 03
    Filename : /Volumes/Teh WinRAR/Some FLACness/Eyes Set to Kill/Reach/03 Reach.flac

    Track gain             : -10.93 dB
    Peak                   : 1.000000
    CRC32 hash (test run)  : F520CCF5
    CRC32 hash             : F520CCF5
    CRC32 hash (skip zero) : 0B16F229
    AccurateRip signature  : AAD6C580
        ->Accurately ripped! (confidence 3)
    Statistics
        Read error                           : 0
        Skipped (treated as error)           : 0
        Edge jitter error (maybe fixed)      : 0
        Atom jitter error (maybe fixed)      : 0
        Drift error (maybe fixed)            : 0
        Dropped bytes error (maybe fixed)    : 0
        Duplicated bytes error (maybe fixed) : 0
        Inconsistency in error sectors       : 0

Track 04
    Filename : /Volumes/Teh WinRAR/Some FLACness/Eyes Set to Kill/Reach/04 Darling.flac

    Track gain             : -11.17 dB
    Peak                   : 1.000000
    CRC32 hash (test run)  : 6BE90824
    CRC32 hash             : 6BE90824
    CRC32 hash (skip zero) : 3141D73D
    AccurateRip signature  : 0C02433A
        ->Accurately ripped! (confidence 3)
    Statistics
        Read error                           : 0
        Skipped (treated as error)           : 0
        Edge jitter error (maybe fixed)      : 0
        Atom jitter error (maybe fixed)      : 0
        Drift error (maybe fixed)            : 0
        Dropped bytes error (maybe fixed)    : 0
        Duplicated bytes error (maybe fixed) : 0
        Inconsistency in error sectors       : 0

Track 05
    Filename : /Volumes/Teh WinRAR/Some FLACness/Eyes Set to Kill/Reach/05 Violent Kiss.flac

    Track gain             : -10.80 dB
    Peak                   : 1.000000
    CRC32 hash (test run)  : 22720B32
    CRC32 hash             : 22720B32
    CRC32 hash (skip zero) : F16BB20E
    AccurateRip signature  : 8A3025FA
        ->Accurately ripped! (confidence 3)
    Statistics
        Read error                           : 0
        Skipped (treated as error)           : 0
        Edge jitter error (maybe fixed)      : 0
        Atom jitter error (maybe fixed)      : 0
        Drift error (maybe fixed)            : 0
        Dropped bytes error (maybe fixed)    : 0
        Duplicated bytes error (maybe fixed) : 0
        Inconsistency in error sectors       : 0

Track 06
    Filename : /Volumes/Teh WinRAR/Some FLACness/Eyes Set to Kill/Reach/06 Young Blood Spills Tonight.flac

    Track gain             : -10.45 dB
    Peak                   : 1.000000
    CRC32 hash (test run)  : 4B1A81C0
    CRC32 hash             : 4B1A81C0
    CRC32 hash (skip zero) : F9FCCF6E
    AccurateRip signature  : BDD5AF67
        ->Accurately ripped! (confidence 3)
    Statistics
        Read error                           : 0
        Skipped (treated as error)           : 0
        Edge jitter error (maybe fixed)      : 0
        Atom jitter error (maybe fixed)      : 0
        Drift error (maybe fixed)            : 0
        Dropped bytes error (maybe fixed)    : 0
        Duplicated bytes error (maybe fixed) : 0
        Inconsistency in error sectors       : 0

Track 07
    Filename : /Volumes/Teh WinRAR/Some FLACness/Eyes Set to Kill/Reach/07 Where We Started.flac

    Track gain             : -7.32 dB
    Peak                   : 0.962372
    CRC32 hash (test run)  : E730EFDF
    CRC32 hash             : E730EFDF
    CRC32 hash (skip zero) : 205793C0
    AccurateRip signature  : A751FE15
        ->Accurately ripped! (confidence 3)
    Statistics
        Read error                           : 0
        Skipped (treated as error)           : 0
        Edge jitter error (maybe fixed)      : 0
        Atom jitter error (maybe fixed)      : 0
        Drift error (maybe fixed)            : 0
        Dropped bytes error (maybe fixed)    : 0
        Duplicated bytes error (maybe fixed) : 0
        Inconsistency in error sectors       : 0

Track 08
    Filename : /Volumes/Teh WinRAR/Some FLACness/Eyes Set to Kill/Reach/08 Into the Night.flac

    Track gain             : -11.63 dB
    Peak                   : 1.000000
    CRC32 hash (test run)  : ECB48AAF
    CRC32 hash             : ECB48AAF
    CRC32 hash (skip zero) : 67A57083
    AccurateRip signature  : 8DB47C82
        ->Accurately ripped! (confidence 3)
    Statistics
        Read error                           : 0
        Skipped (treated as error)           : 0
        Edge jitter error (maybe fixed)      : 0
        Atom jitter error (maybe fixed)      : 0
        Drift error (maybe fixed)            : 0
        Dropped bytes error (maybe fixed)    : 0
        Duplicated bytes error (maybe fixed) : 0
        Inconsistency in error sectors       : 0

Track 09
    Filename : /Volumes/Teh WinRAR/Some FLACness/Eyes Set to Kill/Reach/09 Give You My All.flac

    Track gain             : -8.82 dB
    Peak                   : 1.000000
    CRC32 hash (test run)  : F2DFC468
    CRC32 hash             : F2DFC468
    CRC32 hash (skip zero) : 0E5A5769
    AccurateRip signature  : BB4718B0
        ->Accurately ripped! (confidence 3)
    Statistics
        Read error                           : 0
        Skipped (treated as error)           : 0
        Edge jitter error (maybe fixed)      : 0
        Atom jitter error (maybe fixed)      : 0
        Drift error (maybe fixed)            : 0
        Dropped bytes error (maybe fixed)    : 0
        Duplicated bytes error (maybe fixed) : 0
        Inconsistency in error sectors       : 0

Track 10
    Filename : /Volumes/Teh WinRAR/Some FLACness/Eyes Set to Kill/Reach/10 Liar in the Glass.flac

    Track gain             : -10.42 dB
    Peak                   : 1.000000
    CRC32 hash (test run)  : 4815CAD2
    CRC32 hash             : 4815CAD2
    CRC32 hash (skip zero) : 12984B65
    AccurateRip signature  : D3A9B07F
        ->Accurately ripped! (confidence 3)
    Statistics
        Read error                           : 0
        Skipped (treated as error)           : 0
        Edge jitter error (maybe fixed)      : 0
        Atom jitter error (maybe fixed)      : 0
        Drift error (maybe fixed)            : 0
        Dropped bytes error (maybe fixed)    : 0
        Duplicated bytes error (maybe fixed) : 0
        Inconsistency in error sectors       : 0

Track 11
    Filename : /Volumes/Teh WinRAR/Some FLACness/Eyes Set to Kill/Reach/11 Only Holding On.flac

    Track gain             : -11.10 dB
    Peak                   : 1.000000
    CRC32 hash (test run)  : FB9D2F4B
    CRC32 hash             : FB9D2F4B
    CRC32 hash (skip zero) : 863039E5
    AccurateRip signature  : 995ED94E
        ->Accurately ripped! (confidence 3)
    Statistics
        Read error                           : 0
        Skipped (treated as error)           : 0
        Edge jitter error (maybe fixed)      : 0
        Atom jitter error (maybe fixed)      : 0
        Drift error (maybe fixed)            : 0
        Dropped bytes error (maybe fixed)    : 0
        Duplicated bytes error (maybe fixed) : 0
        Inconsistency in error sectors       : 0

Track 12
    Filename : /Volumes/Teh WinRAR/Some FLACness/Eyes Set to Kill/Reach/12 Behind These Eyes.flac

    Track gain             : -10.77 dB
    Peak                   : 1.000000
    CRC32 hash (test run)  : 809D6D31
    CRC32 hash             : 809D6D31
    CRC32 hash (skip zero) : FA54E9BD
    AccurateRip signature  : 40EEA1E3
        ->Accurately ripped! (confidence 3)
    Statistics
        Read error                           : 0
        Skipped (treated as error)           : 0
        Edge jitter error (maybe fixed)      : 0
        Atom jitter error (maybe fixed)      : 0
        Drift error (maybe fixed)            : 0
        Dropped bytes error (maybe fixed)    : 0
        Duplicated bytes error (maybe fixed) : 0
        Inconsistency in error sectors       : 0

No errors occurred

End of status report

Код:
Код:
-----------------------

DON'T MODIFY THIS FILE

-----------------------

PERFORMER: auCDtect Task Manager, ver. 1.5.1RC6 build 1.5.1.7
Copyright (c) 2008-2010 y-soft. All rights reserved
http:/y-soft.org

ANALYZER: auCDtect: CD records authenticity detector, version 0.8.2
Copyright (c) 2004 Oleg Berngardt. All rights reserved.
Copyright (c) 2004 Alexander Djourik. All rights reserved.

FILE: 12. Eyes Set to Kill - Behind These Eyes.flac
  Size: 30557848 Hash: 3377BA2CDE5BBB679470F51F3716E2FC Accuracy: -m0
  Conclusion: CDDA 100%
  Signature: D0DDEFE4D589D50841F75824A95F102574CC462B
FILE: 11. Eyes Set to Kill - Only Holding On.flac
  Size: 36524028 Hash: A096ED4A37F36741EDC0AF0526A2FA42 Accuracy: -m0
  Conclusion: CDDA 100%
  Signature: 9E20FC3C8CFD56357D2DADA07E7C4829D45CEA7B
FILE: 10. Eyes Set to Kill - Liar in the Glass.flac
  Size: 31195572 Hash: 0925FF653C05B6BC1751B1755F5AB3FF Accuracy: -m0
  Conclusion: CDDA 100%
  Signature: 666631F722008DF79A077EE17B5D9C0DD56087C3
FILE: 09. Eyes Set to Kill - Give You My All.flac
  Size: 18464289 Hash: 5384D95A98FC06356748B0FAA925CD7D Accuracy: -m0
  Conclusion: MPEG 95%
  Signature: 0AE9ACF06220143047B1C8C2BA0AB8D351792C55
FILE: 08. Eyes Set to Kill - Into the Night.flac
  Size: 25277170 Hash: DEC6A1BCF35287A19CBF6FED30CC27A8 Accuracy: -m0
  Conclusion: CDDA 100%
  Signature: 93D77ECDA87F89451026D3126A65A43180E7E851
FILE: 07. Eyes Set to Kill - Where We Started.flac
  Size: 36135740 Hash: 0916C4613D82A555CFAE581FF18614F9 Accuracy: -m0
  Conclusion: CDDA 100%
  Signature: 9F849605D410417AD83F746E2C8D8A3F1D37D5F1
FILE: 06. Eyes Set to Kill - Young Blood Spills Tonight.flac
  Size: 32713719 Hash: 73F8DD45DA6FDFBD2F90647BF9C1B11C Accuracy: -m0
  Conclusion: CDDA 100%
  Signature: 911E290CAF5C103104D037B435403A2237822204
FILE: 05. Eyes Set to Kill - Violent Kiss.flac
  Size: 30581218 Hash: F04D4F338EC0F96824EB4D1D1303B240 Accuracy: -m0
  Conclusion: CDDA 100%
  Signature: FBC55D90493D50526153F322B1E225714180CC12
FILE: 04. Eyes Set to Kill - Darling.flac
  Size: 30931424 Hash: 1B0F7168E0A0856CEED362F295D7AE52 Accuracy: -m0
  Conclusion: CDDA 100%
  Signature: 2F00602938287D6C97CA4141CC84A037CA646AC7
FILE: 03. Eyes Set to Kill - Reach.flac
  Size: 34778108 Hash: E8756C62F2E7874A9573CA3C5723FED2 Accuracy: -m0
  Conclusion: CDDA 100%
  Signature: BDBBEC8CB5DEF9EAD942E9EBD139AB4101698A04
FILE: 02. Eyes Set to Kill - Sketch in Black & White.flac
  Size: 31599928 Hash: CE25ED4781D1596A66117CF4F28A087A Accuracy: -m0
  Conclusion: CDDA 100%
  Signature: 32FCFAF44BAC317E2E81FBBD70EB5DE5F2D1CD42
FILE: 01. Eyes Set to Kill - Intro.flac
  Size: 10661229 Hash: C3C62D583B237C71D5E555833947BD9C Accuracy: -m0
  Conclusion: CDDA 99%
  Signature: 4B391CEDB99D2B0C64FE98E138B3FFD3BAD98B4B


#777Треклист:

01. Heights
02. Hourglass
03. Deadly Weapons
04. Interlude
05. The World Outside
06. March of the Dead
07. Wake Me Up
08. The Hollow Pt. 1
09. The Hollow
10. Risen
11. Her Eyes Hold the Apocalypse
12. Come Home

Продолжительность: 00:38:01


Код:
Код:
Exact Audio Copy V0.99 prebeta 5 from 4. May 2009

EAC extraction logfile from 5. June 2009, 19:55

Eyes Set to Kill / The World Outside

Used drive  : PIONEER DVD-RW  DVR-215D   Adapter: 4  ID: 0

Read mode               : Secure
Utilize accurate stream : Yes
Defeat audio cache      : Yes
Make use of C2 pointers : No

Combined read/write offset correction       : 0
Overread into Lead-In and Lead-Out          : No
Fill up missing offset samples with silence : Yes
Delete leading and trailing silent blocks   : No
Null samples used in CRC calculations       : No
Used interface                              : Native Win32 interface for Win NT & 2000
Gap handling                                : Appended to previous track

Used output format              : User Defined Encoder
Selected bitrate                : 768 kBit/s
Quality                         : High
Add ID3 tag                     : No
Command line compressor         : C:\Program Files (x86)\Exact Audio Copy\FLAC\FLAC.EXE
Additional command line options : -6 -V -T "ARTIST=%a" -T "TITLE=%t" -T "ALBUM=%g" -T "DATE=%y" -T "TRACKNUMBER=%n" -T "GENRE=%m" -T "COMMENT=%e" %s -o %d

TOC of the extracted CD

     Track |   Start  |  Length  | Start sector | End sector
    ---------------------------------------------------------
        1  |  0:00.00 |  3:25.60 |         0    |    15434
        2  |  3:25.60 |  3:26.17 |     15435    |    30901
        3  |  6:52.02 |  3:35.60 |     30902    |    47086
        4  | 10:27.62 |  0:59.63 |     47087    |    51574
        5  | 11:27.50 |  3:46.45 |     51575    |    68569
        6  | 15:14.20 |  4:19.53 |     68570    |    88047
        7  | 19:33.73 |  4:07.56 |     88048    |   106628
        8  | 23:41.54 |  0:55.30 |    106629    |   110783
        9  | 24:37.09 |  3:19.42 |    110784    |   125750
       10  | 27:56.51 |  2:48.74 |    125751    |   138424
       11  | 30:45.50 |  3:00.26 |    138425    |   151950
       12  | 33:46.01 |  4:15.07 |    151951    |   171082

Track  1

     Filename E:\The World Outside\01 Heights.wav

     Pre-gap length  0:00:02.00

     Peak level 99.1 %
     Track quality 100.0 %
     Test CRC F9AF2090
     Copy CRC F9AF2090
     Copy OK

Track  2

     Filename E:\The World Outside\02 Hourglass.wav

     Peak level 98.8 %
     Track quality 99.9 %
     Test CRC 12C5372A
     Copy CRC 12C5372A
     Copy OK

Track  3

     Filename E:\The World Outside\03 Deadly Weapons.wav

     Peak level 98.8 %
     Track quality 100.0 %
     Test CRC E2EF062A
     Copy CRC E2EF062A
     Copy OK

Track  4

     Filename E:\The World Outside\04 Interlude.wav

     Peak level 97.6 %
     Track quality 100.0 %
     Test CRC 803EC2A9
     Copy CRC 803EC2A9
     Copy OK

Track  5

     Filename E:\The World Outside\05 The World Outside.wav

     Peak level 98.8 %
     Track quality 100.0 %
     Test CRC 27450AFA
     Copy CRC 27450AFA
     Copy OK

Track  6

     Filename E:\The World Outside\06 March of the Dead.wav

     Peak level 98.8 %
     Track quality 100.0 %
     Test CRC 39821D45
     Copy CRC 39821D45
     Copy OK

Track  7

     Filename E:\The World Outside\07 Wake Me Up.wav

     Peak level 98.8 %
     Track quality 99.9 %
     Test CRC F620C3A0
     Copy CRC F620C3A0
     Copy OK

Track  8

     Filename E:\The World Outside\08 The Hollow Pt. 1.wav

     Peak level 98.8 %
     Track quality 100.0 %
     Test CRC 29C236FF
     Copy CRC 29C236FF
     Copy OK

Track  9

     Filename E:\The World Outside\09 The Hollow.wav

     Peak level 98.8 %
     Track quality 99.9 %
     Test CRC 0C6B5D70
     Copy CRC 0C6B5D70
     Copy OK

Track 10

     Filename E:\The World Outside\10 Risen.wav

     Peak level 98.8 %
     Track quality 100.0 %
     Test CRC 28642D35
     Copy CRC 28642D35
     Copy OK

Track 11

     Filename E:\The World Outside\11 Her Eyes Hold the Apocalypse.wav

     Peak level 98.8 %
     Track quality 99.9 %
     Test CRC F03E8A2F
     Copy CRC F03E8A2F
     Copy OK

Track 12

     Filename E:\The World Outside\12 Come Home.wav

     Peak level 98.8 %
     Track quality 100.0 %
     Test CRC 990E273F
     Copy CRC 990E273F
     Copy OK

No errors occurred

End of status report

Код:
Код:
-----------------------

DON'T MODIFY THIS FILE

-----------------------

PERFORMER: auCDtect Task Manager, ver. 1.5.1RC6 build 1.5.1.7
Copyright (c) 2008-2010 y-soft. All rights reserved
http:/y-soft.org

ANALYZER: auCDtect: CD records authenticity detector, version 0.8.2
Copyright (c) 2004 Oleg Berngardt. All rights reserved.
Copyright (c) 2004 Alexander Djourik. All rights reserved.

FILE: 12. Eyes Set to Kill - Come Home.flac
  Size: 28876932 Hash: EB34CD220BEDB44079120573CE66EBFC Accuracy: -m0
  Conclusion: CDDA 100%
  Signature: 1BAC67F92A5A5D003B04A1F4E68B530D9B89FB98
FILE: 11. Eyes Set to Kill - Her Eyes Hold the Apocalypse.flac
  Size: 23731498 Hash: A49B579EEF44BCF83183F130DE69890F Accuracy: -m0
  Conclusion: CDDA 100%
  Signature: E584EC5CA2988B25922694C693C8A8DBC3D36ADB
FILE: 10. Eyes Set to Kill - Risen.flac
  Size: 23032355 Hash: 726A50C3AC7790BA55CC384C36D3AE67 Accuracy: -m0
  Conclusion: CDDA 99%
  Signature: 1E11629527733A287D1756D99603559F6DA4E141
FILE: 09. Eyes Set to Kill - The Hollow.flac
  Size: 27208433 Hash: 6163FF4A07CF5C0148D093297C4AB8FA Accuracy: -m0
  Conclusion: CDDA 100%
  Signature: 91E6263FC106162A49A4C9CE37A504BDD52B377C
FILE: 08. Eyes Set to Kill - The Hollow Pt. 1.flac
  Size: 5341879 Hash: 44F68526BFDAE07931F103959000C9E9 Accuracy: -m0
  Conclusion: CDDA 100%
  Signature: B7525A5ADF883300BB01EED920508359ADC6977C
FILE: 07. Eyes Set to Kill - Wake Me Up.flac
  Size: 33002474 Hash: EF9C443479FB34D3C73029051E26B432 Accuracy: -m0
  Conclusion: CDDA 100%
  Signature: BF342E23E0CF4F4F785BEE040CB14D8EBFE60483
FILE: 06. Eyes Set to Kill - March of the Dead.flac
  Size: 33978847 Hash: 74E9BE8CEE79555E37A8E7625A75E363 Accuracy: -m0
  Conclusion: CDDA 100%
  Signature: A9165C2702CF4759BC04AD0D9967499881F49019
FILE: 05. Eyes Set to Kill - The World Outside.flac
  Size: 28026672 Hash: 9F11302DC78F514A62A4BD3F04D2395A Accuracy: -m0
  Conclusion: CDDA 100%
  Signature: 0342B54B7ED10212D3F4AB21BB45F8A21AC1952C
FILE: 04. Eyes Set to Kill - Interlude.flac
  Size: 5653866 Hash: EDBC588D41AB56E3241A1FA526A5185C Accuracy: -m0
  Conclusion: CDDA 100%
  Signature: 947D241608AA54790C1229E8CFF7DFE488E602AE
FILE: 03. Eyes Set to Kill - Deadly Weapons.flac
  Size: 28070942 Hash: CBDFEF77C8DD0796ED2A19F25A754A7A Accuracy: -m0
  Conclusion: CDDA 100%
  Signature: 2AB0ABF4C1B3D4BA21A415311AC354564C3AA922
FILE: 02. Eyes Set to Kill - Hourglass.flac
  Size: 27603623 Hash: 8D3AF81FE2896D3D26AB24C83B2355FB Accuracy: -m0
  Conclusion: CDDA 100%
  Signature: 453E9F8D309494725AA33E32A92376ACB93F992B
FILE: 01. Eyes Set to Kill - Heights.flac
  Size: 26701629 Hash: 500CEF894FE41C204285B7A5B8C04B48 Accuracy: -m0
  Conclusion: CDDA 100%
  Signature: DF1B09CDC9DEF441B04797BDB7317F09499CB5BC


#777Треклист:

01. All You Ever Knew
02. Broken Frames
03. The Listening
04. Ticking Bombs
05. Play The Part
06. Falling Fast
07. Catch Your Breath
08. Ryan
09. Inside The Eye
10. Two Letter Sins
11. Escape
12. Let Me In

Продолжительность: 00:38:06


Код:
Код:
Exact Audio Copy V0.99 prebeta 5 from 4. May 2009

EAC extraction logfile from 12. July 2010, 23:21

Eyes Set to Kill / Broken Frames

Used drive  : HL-DT-STDVD-ROM DU10N   Adapter: 1  ID: 0

Read mode               : Secure
Utilize accurate stream : Yes
Defeat audio cache      : No
Make use of C2 pointers : No

Read offset correction                      : 102
Overread into Lead-In and Lead-Out          : No
Fill up missing offset samples with silence : Yes
Delete leading and trailing silent blocks   : No
Null samples used in CRC calculations       : No
Used interface                              : Native Win32 interface for Win NT & 2000
Gap handling                                : Not detected, thus appended to previous track

Used output format              : User Defined Encoder
Selected bitrate                : 768 kBit/s
Quality                         : High
Add ID3 tag                     : No
Command line compressor         : C:\Program Files (x86)\Exact Audio Copy\FLAC\FLAC.EXE
Additional command line options : -8 -V -T "ARTIST=%a" -T "TITLE=%t" -T "ALBUM=%g" -T "DATE=%y" -T "TRACKNUMBER=%n" -T "GENRE=%m" -T "COMMENT=%e" %s -o %d

TOC of the extracted CD

     Track |   Start  |  Length  | Start sector | End sector
    ---------------------------------------------------------
        1  |  0:00.00 |  3:10.57 |         0    |    14306
        2  |  3:10.57 |  2:53.20 |     14307    |    27301
        3  |  6:04.02 |  3:33.66 |     27302    |    43342
        4  |  9:37.68 |  3:34.03 |     43343    |    59395
        5  | 13:11.71 |  2:39.04 |     59396    |    71324
        6  | 15:51.00 |  3:34.39 |     71325    |    87413
        7  | 19:25.39 |  0:27.17 |     87414    |    89455
        8  | 19:52.56 |  3:10.01 |     89456    |   103706
        9  | 23:02.57 |  3:23.68 |    103707    |   118999
       10  | 26:26.50 |  3:01.70 |    119000    |   132644
       11  | 29:28.45 |  4:19.38 |    132645    |   152107
       12  | 33:48.08 |  4:18.37 |    152108    |   171494

Track  1

     Filename C:\Eyes Set to Kill\(2010) Broken Frames\01 All You Ever Knew.wav

     Peak level 98.8 %
     Track quality 100.0 %
     Test CRC A959168D
     Copy CRC A959168D
     Track not present in AccurateRip database
     Copy OK

Track  2

     Filename C:\Eyes Set to Kill\(2010) Broken Frames\02 Broken Frames.wav

     Peak level 98.8 %
     Track quality 100.0 %
     Test CRC 6D4A0747
     Copy CRC 6D4A0747
     Track not present in AccurateRip database
     Copy OK

Track  3

     Filename C:\Eyes Set to Kill\(2010) Broken Frames\03 The Listening.wav

     Peak level 98.8 %
     Track quality 100.0 %
     Test CRC E4E7B11F
     Copy CRC E4E7B11F
     Track not present in AccurateRip database
     Copy OK

Track  4

     Filename C:\Eyes Set to Kill\(2010) Broken Frames\04 Ticking Bombs.wav

     Peak level 98.8 %
     Track quality 100.0 %
     Test CRC 19D32EDF
     Copy CRC 19D32EDF
     Track not present in AccurateRip database
     Copy OK

Track  5

     Filename C:\Eyes Set to Kill\(2010) Broken Frames\05 Play The Part.wav

     Peak level 98.8 %
     Track quality 99.9 %
     Test CRC C3891A38
     Copy CRC C3891A38
     Track not present in AccurateRip database
     Copy OK

Track  6

     Filename C:\Eyes Set to Kill\(2010) Broken Frames\06 Falling Fast.wav

     Peak level 98.8 %
     Track quality 99.9 %
     Test CRC B075F094
     Copy CRC B075F094
     Track not present in AccurateRip database
     Copy OK

Track  7

     Filename C:\Eyes Set to Kill\(2010) Broken Frames\07 Catch Your Breath.wav

     Peak level 69.3 %
     Track quality 99.6 %
     Test CRC AF51FA0F
     Copy CRC AF51FA0F
     Track not present in AccurateRip database
     Copy OK

Track  8

     Filename C:\Eyes Set to Kill\(2010) Broken Frames\08 Ryan.wav

     Peak level 98.8 %
     Track quality 100.0 %
     Test CRC 5C650548
     Copy CRC 5C650548
     Track not present in AccurateRip database
     Copy OK

Track  9

     Filename C:\Eyes Set to Kill\(2010) Broken Frames\09 Inside The Eye.wav

     Peak level 98.8 %
     Track quality 100.0 %
     Test CRC 8CAA1FA3
     Copy CRC 8CAA1FA3
     Track not present in AccurateRip database
     Copy OK

Track 10

     Filename C:\Eyes Set to Kill\(2010) Broken Frames\10 Two Letter Sins.wav

     Peak level 98.8 %
     Track quality 99.9 %
     Test CRC 8CC74348
     Copy CRC 8CC74348
     Track not present in AccurateRip database
     Copy OK

Track 11

     Filename C:\Eyes Set to Kill\(2010) Broken Frames\11 Escape.wav

     Peak level 98.8 %
     Track quality 100.0 %
     Test CRC 45DE64E5
     Copy CRC 45DE64E5
     Track not present in AccurateRip database
     Copy OK

Track 12

     Filename C:\Eyes Set to Kill\(2010) Broken Frames\12 Let Me In.wav

     Peak level 98.8 %
     Track quality 100.0 %
     Test CRC C7E7455A
     Copy CRC C7E7455A
     Track not present in AccurateRip database
     Copy OK

None of the tracks are present in the AccurateRip database

No errors occurred

End of status report

Код:
Код:
-----------------------

DON'T MODIFY THIS FILE

-----------------------

PERFORMER: auCDtect Task Manager, ver. 1.5.1RC6 build 1.5.1.7
Copyright (c) 2008-2010 y-soft. All rights reserved
http:/y-soft.org

ANALYZER: auCDtect: CD records authenticity detector, version 0.8.2
Copyright (c) 2004 Oleg Berngardt. All rights reserved.
Copyright (c) 2004 Alexander Djourik. All rights reserved.

FILE: 12. Eyes Set To Kill - Let Me In.flac
  Size: 26029760 Hash: 8035233EC1872CACDC056F40049A6C44 Accuracy: -m0
  Conclusion: CDDA 100%
  Signature: 0349B12201772A90EA03537F1B0A7A4B4B359E20
FILE: 11. Eyes Set To Kill - Escape.flac
  Size: 31253259 Hash: 176A5A29399BABAC6D14E3869F6668CF Accuracy: -m0
  Conclusion: CDDA 100%
  Signature: 03558E90CADD9A14C605BB7C55257A6A58745222
FILE: 10. Eyes Set To Kill - Two Letter Sins.flac
  Size: 21803517 Hash: 281EB274BBFBE2BE4CB5D5E3701E0977 Accuracy: -m0
  Conclusion: CDDA 100%
  Signature: D8826B0B2EB3E6A4E7A408CE967F3CA32E03C864
FILE: 09. Eyes Set To Kill - Inside The Eye.flac
  Size: 26373646 Hash: FA8BB041A7D9342A0FF86FE2DEC1CF5F Accuracy: -m0
  Conclusion: CDDA 99%
  Signature: E7ED3A94FBBB2D1C3C37D7B570E7D346BDD0FA25
FILE: 08. Eyes Set To Kill - Ryan.flac
  Size: 21097757 Hash: 6F5F1964A4305CCDEE2D7A97F27CAB8E Accuracy: -m0
  Conclusion: CDDA 100%
  Signature: 0288DD30A52AF8D94DA6094C875F6449D7A68171
FILE: 07. Eyes Set To Kill - Catch Your Breath.flac
  Size: 2465413 Hash: 97CB8B03C1AD933BBEB0A91F75B781BC Accuracy: -m0
  Conclusion: CDDA 99%
  Signature: F2B2A27EA0926BD70942B9B5FF7A4CFB2278B1CE
FILE: 06. Eyes Set To Kill - Falling Fast.flac
  Size: 27333622 Hash: C7CA6CA7AE925C59AA57A8F0872D62A5 Accuracy: -m0
  Conclusion: CDDA 99%
  Signature: 537A0958CCC29D2E600104E7ABA1639B74C995BD
FILE: 05. Eyes Set To Kill - Play The Part.flac
  Size: 20483548 Hash: 9FDA66F08ED8EB924EAF851ECAB514E2 Accuracy: -m0
  Conclusion: CDDA 99%
  Signature: 6FFCEDCFED6A8D1972A92D8A183F8B461FCBD39C
FILE: 04. Eyes Set To Kill - Ticking Bombs.flac
  Size: 23899054 Hash: 7E88CF5872D4BD0AF1164E28B785B403 Accuracy: -m0
  Conclusion: CDDA 100%
  Signature: 9428D1B9FB672A046CD0BD8DD3B1831A7EBC3DCF
FILE: 03. Eyes Set To Kill - The Listening.flac
  Size: 26043190 Hash: 512ADA3AB128F98793177A4F1CC53A7B Accuracy: -m0
  Conclusion: CDDA 100%
  Signature: 153E2B285DF4C4074C93AA18D539E0969638EEF5
FILE: 02. Eyes Set To Kill - Broken Frames.flac
  Size: 22420621 Hash: C9F957DE38F70CFE9DC855E528464516 Accuracy: -m0
  Conclusion: CDDA 99%
  Signature: 66C6B5B21608D713875769043D229B3A83BE50C4
FILE: 01. Eyes Set To Kill - All You Ever Knew.flac
  Size: 24603558 Hash: F3A194764D4FF07F95F746429D94F9C3 Accuracy: -m0
  Conclusion: CDDA 100%
  Signature: D48E20AB1D87E281B703F7AA1088A9923C14CAF5


#777Треклист:

01. The Secrets Between
02. Forget
03. Stuck Underneath
04. Harsh
05. Where I Want to Be
06. Erasing Everything
07. Doll Parts
08. Untitled
09. Polly
10. Harsh (Acoustic)

Продолжительность: 00:32:02


Код:
Код:
Exact Audio Copy V1.0 beta 3 from 29. August 2011

EAC extraction logfile from 11. December 2011, 16:18

Eyes Set to Kill / White Lotus

Used drive  : TSSTcorpCDDVDW SH-222AL   Adapter: 2  ID: 0

Read mode               : Secure
Utilize accurate stream : Yes
Defeat audio cache      : Yes
Make use of C2 pointers : No

Read offset correction                      : 6
Overread into Lead-In and Lead-Out          : No
Fill up missing offset samples with silence : Yes
Delete leading and trailing silent blocks   : No
Null samples used in CRC calculations       : Yes
Used interface                              : Native Win32 interface for Win NT & 2000
Gap handling                                : Appended to previous track

Used output format              : User Defined Encoder
Selected bitrate                : 1024 kBit/s
Quality                         : High
Add ID3 tag                     : No
Command line compressor         : C:\Program Files (x86)\Exact Audio Copy\Flac\flac.exe
Additional command line options : -8 -V -T "ARTIST=%artist%" -T "TITLE=%title%" -T "ALBUM=%albumtitle%" -T "DATE=%year%" -T "TRACKNUMBER=%tracknr%" -T "GENRE=%genre%" -T "PERFORMER=%albuminterpret%" -T "COMPOSER=%composer%" %haslyrics%--tag-from-file=LYRICS="%lyricsfile%"%haslyrics% -T "ALBUMARTIST=%albumartist%" -T "DISCNUMBER=%cdnumber%" -T "TOTALDISCS=%totalcds%" -T "TOTALTRACKS=%numtracks%" -T "COMMENT=%comment%" %source% -o %dest%

TOC of the extracted CD

     Track |   Start  |  Length  | Start sector | End sector
    ---------------------------------------------------------
        1  |  0:00.00 |  3:47.28 |         0    |    17052
        2  |  3:47.28 |  3:21.25 |     17053    |    32152
        3  |  7:08.53 |  1:28.34 |     32153    |    38786
        4  |  8:37.12 |  3:49.30 |     38787    |    55991
        5  | 12:26.42 |  3:17.57 |     55992    |    70823
        6  | 15:44.24 |  3:52.58 |     70824    |    88281
        7  | 19:37.07 |  3:16.02 |     88282    |   102983
        8  | 22:53.09 |  2:38.42 |    102984    |   114875
        9  | 25:31.51 |  3:05.40 |    114876    |   128790
       10  | 28:37.16 |  3:25.30 |    128791    |   144195

Track  1

     Filename E:\EAC\Eyes Set To Kill - White Lotus (2011) [Flac]\01 - The Secrets Between.wav

     Pre-gap length  0:00:02.00

     Peak level 99.1 %
     Extraction speed 1.6 X
     Track quality 99.9 %
     Test CRC A00E3031
     Copy CRC A00E3031
     Track not present in AccurateRip database
     Copy OK

Track  2

     Filename E:\EAC\Eyes Set To Kill - White Lotus (2011) [Flac]\02 - Forget.wav

     Peak level 99.1 %
     Extraction speed 1.8 X
     Track quality 100.0 %
     Test CRC 01B3383B
     Copy CRC 01B3383B
     Track not present in AccurateRip database
     Copy OK

Track  3

     Filename E:\EAC\Eyes Set To Kill - White Lotus (2011) [Flac]\03 - Stuck Underneath.wav

     Peak level 73.4 %
     Extraction speed 1.6 X
     Track quality 100.0 %
     Test CRC 33877B28
     Copy CRC 33877B28
     Track not present in AccurateRip database
     Copy OK

Track  4

     Filename E:\EAC\Eyes Set To Kill - White Lotus (2011) [Flac]\04 - Harsh.wav

     Peak level 99.1 %
     Extraction speed 1.9 X
     Track quality 99.9 %
     Test CRC 4F12BF59
     Copy CRC 4F12BF59
     Track not present in AccurateRip database
     Copy OK

Track  5

     Filename E:\EAC\Eyes Set To Kill - White Lotus (2011) [Flac]\05 - Where I Want to Be.wav

     Peak level 99.1 %
     Extraction speed 2.2 X
     Track quality 100.0 %
     Test CRC BB8A8741
     Copy CRC BB8A8741
     Track not present in AccurateRip database
     Copy OK

Track  6

     Filename E:\EAC\Eyes Set To Kill - White Lotus (2011) [Flac]\06 - Erasing Everything.wav

     Peak level 99.1 %
     Extraction speed 2.4 X
     Track quality 100.0 %
     Test CRC 8EE5F5F5
     Copy CRC 8EE5F5F5
     Track not present in AccurateRip database
     Copy OK

Track  7

     Filename E:\EAC\Eyes Set To Kill - White Lotus (2011) [Flac]\07 - Doll Parts.wav

     Peak level 96.0 %
     Extraction speed 2.4 X
     Track quality 100.0 %
     Test CRC A84ED8DE
     Copy CRC A84ED8DE
     Track not present in AccurateRip database
     Copy OK

Track  8

     Filename E:\EAC\Eyes Set To Kill - White Lotus (2011) [Flac]\08 - Untitled.wav

     Peak level 97.7 %
     Extraction speed 2.4 X
     Track quality 100.0 %
     Test CRC AEFC4A01
     Copy CRC AEFC4A01
     Track not present in AccurateRip database
     Copy OK

Track  9

     Filename E:\EAC\Eyes Set To Kill - White Lotus (2011) [Flac]\09 - Polly.wav

     Peak level 87.5 %
     Extraction speed 2.6 X
     Track quality 100.0 %
     Test CRC E4BF14F7
     Copy CRC E4BF14F7
     Track not present in AccurateRip database
     Copy OK

Track 10

     Filename E:\EAC\Eyes Set To Kill - White Lotus (2011) [Flac]\10 - Harsh (Acoustic).wav

     Peak level 96.3 %
     Extraction speed 2.7 X
     Track quality 100.0 %
     Test CRC A7675F9C
     Copy CRC A7675F9C
     Track not present in AccurateRip database
     Copy OK

None of the tracks are present in the AccurateRip database

No errors occurred

End of status report

---- CUETools DB Plugin V2.1.3

[CTDB TOCID: 3FIgstHkMR9B6FvP4ZtnIRQH_hw-] disk not present in database, Submit result: 3FIgstHkMR9B6FvP4ZtnIRQH_hw- has been uploaded

==== Log checksum 7DEF07500A5AFB87FDEA8213E779C8AAEC9D8F7F409D570134BE3DE8100A7D5E ====


Код:
Код:
-----------------------

DON'T MODIFY THIS FILE

-----------------------

PERFORMER: auCDtect Task Manager, ver. 1.5.1RC6 build 1.5.1.7
Copyright (c) 2008-2010 y-soft. All rights reserved
http:/y-soft.org

ANALYZER: auCDtect: CD records authenticity detector, version 0.8.2
Copyright (c) 2004 Oleg Berngardt. All rights reserved.
Copyright (c) 2004 Alexander Djourik. All rights reserved.

FILE: 10. Eyes Set to Kill - Harsh (Acoustic).flac
  Size: 22372565 Hash: 0F8DB413A67A1EAA5FF0D5F67EE6036E Accuracy: -m0
  Conclusion: CDDA 100%
  Signature: 60A31D7FD3832E69FB8F056765360CB590AB98C7
FILE: 09. Eyes Set to Kill - Polly.flac
  Size: 20061153 Hash: B665F0862A069EA4CB15A29F35AB4361 Accuracy: -m0
  Conclusion: CDDA 100%
  Signature: 01FCA6A2852CBD03CFD691F84821E7384C0F92E1
FILE: 08. Eyes Set to Kill - Untitled.flac
  Size: 18259637 Hash: 97D0977DA83D875FB7496EA5EDF8157D Accuracy: -m0
  Conclusion: CDDA 100%
  Signature: B8D44B57283590ECE8E877E20B4C42FD3624C3E3
FILE: 07. Eyes Set to Kill - Doll Parts.flac
  Size: 21503856 Hash: 6825BF734926F505A7F76E093F6A7479 Accuracy: -m0
  Conclusion: CDDA 100%
  Signature: C2A17F017118573E22A835E2128AB5C498C0008C
FILE: 06. Eyes Set to Kill - Erasing Everything.flac
  Size: 27628896 Hash: F1DE4964C91702B986FA7591230434BD Accuracy: -m0
  Conclusion: CDDA 100%
  Signature: 4E00042D35566B633425F48FBDD46229288A3900
FILE: 05. Eyes Set to Kill - Where I Want to Be.flac
  Size: 25652886 Hash: 1B9FDCC1F454D4AFBDD308DB8DE34E58 Accuracy: -m0
  Conclusion: CDDA 100%
  Signature: 3162AC1D32020C6F4313AF71F6169C4F7D2BD264
FILE: 04. Eyes Set to Kill - Harsh.flac
  Size: 30131408 Hash: 45B9E931667B7FD823C1020813F11621 Accuracy: -m0
  Conclusion: CDDA 100%
  Signature: 69D9DA74F460A5F0BF47CBC0E92196943810077A
FILE: 03. Eyes Set to Kill - Stuck Underneath.flac
  Size: 7399647 Hash: 9A9A5523A8D10587E89FB6F5FFDF8C4A Accuracy: -m0
  Conclusion: CDDA 85%
  Signature: C37E65150C3C0F318BFDACD7BA841324E1649E91
FILE: 02. Eyes Set to Kill - Forget.flac
  Size: 27776492 Hash: D4690152FB6C1CCBBA58E5719A18E6DA Accuracy: -m0
  Conclusion: CDDA 100%
  Signature: 1C00F8A543C118B93AE16F5507D7153B878952A1
FILE: 01. Eyes Set to Kill - The Secrets Between.flac
  Size: 30494555 Hash: 451F5843D4F22FE0AD486C13B8EC1344 Accuracy: -m0
  Conclusion: CDDA 100%
  Signature: EAEC48D42147F09E297998A5D6FAF7D7005D698E


#777Треклист:

01. Masks
02. Killing In Your Name
03. Lost & Forgotten
04. Where I Want To Be
05. True Colors
06. Surface
07. Little Liar
08. Nothing Left To Say
09. The New Plague
10. Infected
11. Secrets Between
12. Haze
13. The Forbidden Line

Продолжительность: 00:45:27


Код:
Код:
-----------------------

DON'T MODIFY THIS FILE

-----------------------

PERFORMER: auCDtect Task Manager, ver. 1.5.1RC6 build 1.5.1.7
Copyright (c) 2008-2010 y-soft. All rights reserved
http:/y-soft.org

ANALYZER: auCDtect: CD records authenticity detector, version 0.8.2
Copyright (c) 2004 Oleg Berngardt. All rights reserved.
Copyright (c) 2004 Alexander Djourik. All rights reserved.

FILE: 13. Eyes Set To Kill - The Forbidden Line.flac
  Size: 31761399 Hash: 52B3788949335D3D5904BA2C00741095 Accuracy: -m0
  Conclusion: CDDA 100%
  Signature: 061A99642DEE38CD4B0C4759F1CA67CF3A912E13
FILE: 12. Eyes Set To Kill - Haze.flac
  Size: 28465168 Hash: 99209B3AF0E144C96EA3768039623936 Accuracy: -m0
  Conclusion: CDDA 100%
  Signature: 9333FED5FC2AA341765902D087F4DE1F1FC277AF
FILE: 11. Eyes Set To Kill - Secrets Between.flac
  Size: 33913781 Hash: 181DA41C11CB4B3423EC314D2DD47B0C Accuracy: -m0
  Conclusion: CDDA 100%
  Signature: 971B65F88AF9846AC110CFE007D1DE6ACCAA8690
FILE: 10. Eyes Set To Kill - Infected.flac
  Size: 23890514 Hash: 4EA30BE135E122E7EF3D57A7214AC1EA Accuracy: -m0
  Conclusion: CDDA 99%
  Signature: 4BE2D540571FCF58B7B5653949EEE2078811EED5
FILE: 09. Eyes Set To Kill - The New Plague.flac
  Size: 25624858 Hash: E8569767FCBD14A3B86113BF7EA8A5DA Accuracy: -m0
  Conclusion: CDDA 100%
  Signature: 09FB1C5AA5BE44174510842670A7BB30A8F725B8
FILE: 08. Eyes Set To Kill - Nothing Left To Say.flac
  Size: 33205038 Hash: C05555D62769D9705EBE09087F560C9B Accuracy: -m0
  Conclusion: CDDA 99%
  Signature: 4799EB43459C1499CDF96DD575E0F04DF5D67B17
FILE: 07. Eyes Set To Kill - Little Liar.flac
  Size: 24753087 Hash: 94F111A50BCCD60B8BAF4C43F922C61C Accuracy: -m0
  Conclusion: CDDA 100%
  Signature: 196BAA8CD7DB1A70818B23652847211A16E41AB9
FILE: 06. Eyes Set To Kill - Surface.flac
  Size: 31810258 Hash: F8913A99EC3ADA977D687C285C099DAD Accuracy: -m0
  Conclusion: CDDA 100%
  Signature: F7F1F858CEDE967DFE8A1404BD798D961BDAC66C
FILE: 05. Eyes Set To Kill - True Colors.flac
  Size: 38170418 Hash: 3AE60E8C4F340CE091EE572D5115BA45 Accuracy: -m0
  Conclusion: CDDA 100%
  Signature: 9CD403B8041D8250F0F53F23786F634A0FFC86BA
FILE: 04. Eyes Set To Kill - Where I Want To Be.flac
  Size: 25820179 Hash: D714669EA481FD04A92AFED655C91F05 Accuracy: -m0
  Conclusion: CDDA 100%
  Signature: B97EC36E3AB94B41274C177F5DCEB2A0DB4E660E
FILE: 03. Eyes Set To Kill - Lost & Forgotten.flac
  Size: 31696046 Hash: 01F942E8EEE66F09488B6AAAFD1E414A Accuracy: -m0
  Conclusion: CDDA 100%
  Signature: FEAA559E443B83526021BB703C5CA200F6523421
FILE: 02. Eyes Set To Kill - Killing In Your Name.flac
  Size: 28945055 Hash: 30867D060C1667289312A332FE1974ED Accuracy: -m0
  Conclusion: CDDA 99%
  Signature: C0A84E24CFE0CF947597956FA950895BD0F16509
FILE: 01. Eyes Set To Kill - Masks.flac
  Size: 12275565 Hash: 04E919269D069CB0BAE306FCA0E97F48 Accuracy: -m0
  Conclusion: CDDA 100%
  Signature: C3EF123D0BC186583680D1D1E1CA664B6F1884C0




Тип рипа: Tracks+.cue
Аудиокодек: FLAC
Битрейт аудио: lossless
Правила, инструкции, FAQ!!!
Торрент  Добавлен [16 мар 2014, 00:48] Скачать торрент Магнет ссылка
Скачать торрент
[ Размер 21.85 КБ / Просмотров 184 ]

Статус  
 
Размер  1.44 ГБ
Приватный: Нет (DHT включён)
.torrent скачан  0
 


     Отправить личное сообщение
   
Страница 1 из 1
Показать сообщения за:  Поле сортировки  
Начать новую тему Ответить на тему


Сейчас этот форум просматривают: нет зарегистрированных пользователей и гости: 0


Вы не можете начинать темы
Вы не можете отвечать на сообщения
Вы не можете редактировать свои сообщения
Вы не можете удалять свои сообщения
Вы не можете добавлять вложения

Перейти:  
cron
cron