Начать новую тему Ответить на тему
Статистика раздачи
Размер: 1.3 ГБ | Добавлен: 24 авг 2016, 12:28 | Скачали: 1
Сидеров: 5  [0 байт/сек]    Личеров: 1  [0 байт/сек]
Пред. тема | След. тема 

Автор
Сообщение

СообщениеДобавлено: 24 авг 2016, 12:28 

Ответить с цитатой 

Ihsahn - Eremita

Жанр: Extreme Progressive Metal
Год выпуска: 2012
Лейбл: Back On Black
Страна-производитель: UK
Аудио кодек: FLAC
Тип рипа: image+.cue
Формат записи: 24/96
Формат раздачи: 24/96
Продолжительность: 00:58:09
Треклист:

A1 Arrival
A2 The Paranoid
A3 Introspection
B1 The Eagle And The Snake
B2 Catharsis
C1 Something Out There
C2 Grief
C3 The Grave
D1 Departure
D2 Recollection (Bonus Track)

Источник оцифровки: автором раздачи
Код класса состояния винила: Mint
Устройство воспроизведения: Sansui SR-929
Головка звукоснимателя: Grado Gold
Предварительный усилитель: ф/к Никитина
АЦП: Zoom H4n
Программа-оцифровщик: ZoomH4n
Обработка: обработка не проводилась







foobar2000 1.1.11 / Dynamic Range Meter 1.1.1
log date: 2012-12-10 13:33:39

--------------------------------------------------------------------------------
Analyzed: Ihsahn / Eremita
--------------------------------------------------------------------------------

DR Peak RMS Duration Track
--------------------------------------------------------------------------------
DR10 -0.85 dB -13.23 dB 5:42 01-Arrival
DR10 -1.19 dB -13.79 dB 4:44 02-The Paranoid
DR10 -0.90 dB -14.37 dB 5:34 03-Introspection
DR11 -0.99 dB -14.09 dB 8:46 04-The Eagle And The Snake
DR11 -2.63 dB -15.05 dB 4:53 05-Catharsis
DR10 -1.42 dB -13.14 dB 5:10 06-Something Out There
DR12 -7.53 dB -22.67 dB 2:21 07-Grief
DR10 -2.39 dB -15.50 dB 8:17 08-The Grave
DR10 -0.84 dB -15.15 dB 7:07 09-Departure
DR11 -1.15 dB -15.11 dB 5:35 10-Recollection (Bonus Track)
--------------------------------------------------------------------------------

Number of tracks: 10
Official DR value: DR11

Samplerate: 96000 Hz
Channels: 2
Bits per sample: 24
Bitrate: 3134 kbps
Codec: FLAC
Правила, инструкции, FAQ!!!
Торрент  Добавлен [24 авг 2016, 12:28] Скачать торрент Магнет ссылка
Скачать торрент
[ Размер 13.69 КБ / Просмотров 4 ]

Статус
Проверен 
 
Размер  1.3 ГБ
Приватный: Нет (DHT включён)
.torrent скачан  1
 


     Отправить личное сообщение
   
Страница 1 из 1
Показать сообщения за:  Поле сортировки  
Начать новую тему Ответить на тему


Сейчас этот форум просматривают: Bing [Bot] и гости: 0


Вы не можете начинать темы
Вы не можете отвечать на сообщения
Вы не можете редактировать свои сообщения
Вы не можете удалять свои сообщения
Вы не можете добавлять вложения

Перейти:  
cron