Начать новую тему Ответить на тему
Статистика раздачи
Размер: 1.5 ГБ | Добавлен: 23 фев 2018, 23:43 | Скачали: 2
Сидеров: 3  [0 байт/сек]    Личеров: 1  [0 байт/сек]
Пред. тема | След. тема 

Автор
Сообщение

СообщениеДобавлено: 23 фев 2018, 23:43 

Ответить с цитатой 

Evelyn “Champagne” King - Call On Me
Формат записи/Источник записи: [TR24][OF]
Наличие водяных знаков: Нет
Издание: Expanded
Год издания/переиздания диска: 1980/2014
Жанр: Disco
Издатель (лейбл): Legacy Recordings
Продолжительность: 67:12
Наличие сканов в содержимом раздачи: Только обложка альбома
Треклист:
01. Let's Get Funky Tonight (7″ Version) (3:36)
02. Your Kind Of Loving (3:51)
03. Call On Me (5:19)
04. I Need Your Love (6:28)
05. Talk Don't Hurt Nobody (6:44)
06. Just A Little Bit Of Love (3:44)
07. Bedroom Eyes (4:41)
08. Universal Girl (6:01)
09. Let's Get Funky Tonight (12″ Version) (6:41)
10. Sweet Delight (5:03)
11. Long Time Waiting On You (4:56)
12. Is It Good (6:01)
13. I Love You (4:07)
 
King's strong, deep-voiced stylings and sensitive edge are the saving graces on her first album of the '80s. Despite overall sturdy production, many of the melodies simply linger on and on and the arrangements don't have much chance to take off. Besides the sassy "Let's Get Funky Tonight" and the warm, understated "Just a Little Bit of Love," there aren't any particularly memorable moments. The title track is a stale midtempo romp with an embarrassing guest vocal by producer T. Life; "Bedroom Eyes" is accordingly sleepy; and "Talk Don't Hurt Nobody" has a decent lyrical theme, but lacks the musical energy needed to get the lyric across. Whereas the previous year's Music Box relied on formulaic disco tracks, Call on Me tries to establish King in a funkier vein. But the material itself is so arid that the album quickly becomes musically ineffective.

Контейнер: FLAC (*.flac)
Тип рипа: tracks
Разрядность: 24/96
Формат: PCM
Количество каналов: 2.0
Код:
foobar2000 1.3.9 / Dynamic Range Meter 1.1.1
log date: 2018-02-07 04:29:52
--------------------------------------------------------------------------------
Analyzed: Evelyn “Champagne” King / Call On Me (Expanded)
--------------------------------------------------------------------------------
DR         Peak         RMS     Duration Track
--------------------------------------------------------------------------------
DR10      -0.03 dB   -10.80 dB      3:36 01-Let's Get Funky Tonight (7″ Version)
DR10      -0.03 dB   -11.41 dB      3:51 02-Your Kind Of Loving
DR10      -0.03 dB   -12.17 dB      5:19 03-Call On Me
DR11      -0.03 dB   -13.02 dB      6:28 04-I Need Your Love
DR10      -0.03 dB   -11.47 dB      6:44 05-Talk Don't Hurt Nobody
DR9       -0.03 dB   -10.88 dB      3:44 06-Just A Little Bit Of Love
DR10      -0.03 dB   -11.55 dB      4:41 07-Bedroom Eyes
DR9       -0.03 dB   -10.90 dB      6:01 08-Universal Girl
DR11      -0.03 dB   -12.52 dB      6:41 09-Let's Get Funky Tonight (12″ Version)
DR10      -0.03 dB   -11.53 dB      5:03 10-Sweet Delight
DR11      -0.03 dB   -11.87 dB      4:56 11-Long Time Waiting On You
DR10      -0.03 dB   -11.71 dB      6:01 12-Is It Good
DR10      -0.03 dB   -11.37 dB      4:07 13-I Love You
--------------------------------------------------------------------------------
Number of tracks:  13
Official DR value: DR10
Samplerate:        96000 Hz
Channels:          2
Bits per sample:   24
Bitrate:           3124 kbps
Codec:             FLAC
================================================================================
Источник: qobuz.com[/spoiler]
Правила, инструкции, FAQ!!!
Торрент  Добавлен [23 фев 2018, 23:43] Скачать торрент Магнет ссылка
Скачать торрент
[ Размер 16.4 КБ / Просмотров 92 ]

Статус
Проверен 
 
Размер  1.5 ГБ
Приватный: Нет (DHT включён)
.torrent скачан  2
 


     Отправить личное сообщение
   
Страница 1 из 1
Показать сообщения за:  Поле сортировки  
Начать новую тему Ответить на тему


Сейчас этот форум просматривают: нет зарегистрированных пользователей и гости: 0


Вы не можете начинать темы
Вы не можете отвечать на сообщения
Вы не можете редактировать свои сообщения
Вы не можете удалять свои сообщения
Вы не можете добавлять вложения

Перейти:  
cron