Начать новую тему Ответить на тему
Статистика раздачи
Размер: 654.66 МБ | Добавлен: 16 мар 2014, 00:37 | Скачали: 4
Сидеров: 3  [0 байт/сек]    Личеров: 0  [0 байт/сек]
Пред. тема | След. тема 

Автор
Сообщение

СообщениеДобавлено: 16 мар 2014, 00:37 

Ответить с цитатой 

Год: 2010-2014
Страна: Германия
Жанр: Post-Hardcore / Electronic
Продолжительность: 01:28:22
Кодек: FLAC
Тип рипа: tracks+.cue
Битрейт: Lossless
Источник (релизер): What.cd (
Only Own Rip's )
Наличие сканов: нет

Издатель (лейбл): Самовыпуск
Barcode: 4260080810760
Продолжительность: 00:15:41
Треклист:
01 - Intro 00:51
02 - Monsieur Moustache vs. Clitcat 02:55
03 - Antichrist Sex Pornstyle 03:31
04 - Hey Mrs. Dramaqueen 03:27
05 - Prom Night 03:22
06 - Outro 01:33
Код:
Код:
Exact Audio Copy V0.99 prebeta 5 from 4. May 2009

EAC extraction logfile from 30. November 2010, 15:29

Eskimo Callboy / Eskimo Callboy

Used drive  : TSSTcorpCD/DVDW SH-S182D   Adapter: 0  ID: 0

Read mode               : Secure
Utilize accurate stream : Yes
Defeat audio cache      : Yes
Make use of C2 pointers : No

Read offset correction                      : 6
Overread into Lead-In and Lead-Out          : No
Fill up missing offset samples with silence : Yes
Delete leading and trailing silent blocks   : No
Null samples used in CRC calculations       : Yes
Used interface                              : Native Win32 interface for Win NT & 2000
Gap handling                                : Appended to previous track

Used output format              : User Defined Encoder
Selected bitrate                : 768 kBit/s
Quality                         : High
Add ID3 tag                     : No
Command line compressor         : E:\Programme\Exact Audio Copy\FLAC\FLAC.EXE
Additional command line options : -8 -V -T "ARTIST=%a" -T "TITLE=%t" -T "ALBUM=%g" -T "DATE=%y" -T "TRACKNUMBER=%n" -T "TOTALTRACKS=%x" -T "GENRE=%m" -T "ALBUMARTIST=%v" -T "ALBUM ARTIST=%v" -T "COMMENT=EAC Secure Mode, Test & Copy, AccurateRip, FLAC -8" %s

TOC of the extracted CD

     Track |   Start  |  Length  | Start sector | End sector
    ---------------------------------------------------------
        1  |  0:00.00 |  0:51.62 |         0    |     3886
        2  |  0:51.62 |  2:54.74 |      3887    |    17010
        3  |  3:46.61 |  3:31.01 |     17011    |    32836
        4  |  7:17.62 |  3:27.32 |     32837    |    48393
        5  | 10:45.19 |  3:22.36 |     48394    |    63579
        6  | 14:07.55 |  1:33.54 |     63580    |    70608

Track  1

     Filename E:\Converted Files\EAC\Eskimo Callboy - Eskimo Callboy (FLAC)\01 - Intro.wav

     Pre-gap length  0:00:02.00

     Peak level 100.0 %
     Track quality 100.0 %
     Test CRC 6B6E4931
     Copy CRC 6B6E4931
     Accurately ripped (confidence 1)  [0C4390C8]
     Copy OK

Track  2

     Filename E:\Converted Files\EAC\Eskimo Callboy - Eskimo Callboy (FLAC)\02 - Monsieur Moustache vs. Clitcat.wav

     Peak level 100.0 %
     Track quality 99.9 %
     Test CRC 4E33E2D5
     Copy CRC 4E33E2D5
     Accurately ripped (confidence 1)  [21FA69F4]
     Copy OK

Track  3

     Filename E:\Converted Files\EAC\Eskimo Callboy - Eskimo Callboy (FLAC)\03 - Antichrist Sex Pornstyle.wav

     Peak level 100.0 %
     Track quality 100.0 %
     Test CRC 115D191D
     Copy CRC 115D191D
     Accurately ripped (confidence 1)  [CE98E7C2]
     Copy OK

Track  4

     Filename E:\Converted Files\EAC\Eskimo Callboy - Eskimo Callboy (FLAC)\04 - Hey Mrs. Dramaqueen.wav

     Peak level 100.0 %
     Track quality 100.0 %
     Test CRC 2E8E032A
     Copy CRC 2E8E032A
     Accurately ripped (confidence 1)  [B83153D3]
     Copy OK

Track  5

     Filename E:\Converted Files\EAC\Eskimo Callboy - Eskimo Callboy (FLAC)\05 - Prom Night.wav

     Peak level 100.0 %
     Track quality 100.0 %
     Test CRC F4C9C87D
     Copy CRC F4C9C87D
     Accurately ripped (confidence 1)  [E2AC5837]
     Copy OK

Track  6

     Filename E:\Converted Files\EAC\Eskimo Callboy - Eskimo Callboy (FLAC)\06 - Outro.wav

     Peak level 100.0 %
     Track quality 100.0 %
     Test CRC 987F4C32
     Copy CRC 987F4C32
     Accurately ripped (confidence 1)  [B6525DB3]
     Copy OK

All tracks accurately ripped

No errors occurred

End of status report
Код:
Код:
-----------------------

DON'T MODIFY THIS FILE

-----------------------

PERFORMER: auCDtect Task Manager, ver. 1.6.0 RC1 build 1.6.0.1
Copyright (c) 2008-2010 y-soft. All rights reserved
http:/y-soft.org

ANALYZER: auCDtect: CD records authenticity detector, version 0.8.2
Copyright (c) 2004 Oleg Berngardt. All rights reserved.
Copyright (c) 2004 Alexander Djourik. All rights reserved.

FILE: 02 - Monsieur Moustache vs. Clitcat.flac
  Size: 23640958 Hash: A3E0A67751302217980FF3FD9DC9D47D Accuracy: -m0
  Conclusion: CDDA 100%
  Signature: 01E4A130357B921E373C56B263BCB575737B13AD
FILE: 01 - Intro.flac
  Size: 6409138 Hash: DAB8A980815E618C0AB438F1B02AAD72 Accuracy: -m0
  Conclusion: CDDA 100%
  Signature: CC28C6F9E35CB592F3479F007C75785923BBC5E3
FILE: 06 - Outro.flac
  Size: 8972876 Hash: F74C878D45FC886EDBBDF6EDB8A20150 Accuracy: -m0
  Conclusion: CDDA 99%
  Signature: 19A29236363D06D6202DB003D487D3366CFDE796
FILE: 05 - Prom Night.flac
  Size: 26133970 Hash: 59D98BF2DB8E3030BE05DDE7D9FBE8CA Accuracy: -m0
  Conclusion: CDDA 99%
  Signature: 377AF07E6CDF799D8FBA01A93B3A1CDE2ABAD260
FILE: 04 - Hey Mrs. Dramaqueen.flac
  Size: 27545455 Hash: 534A889493F07E983148E2F1D3C6BD0E Accuracy: -m0
  Conclusion: CDDA 100%
  Signature: 523542548ED86E981EA76F22C128DF8055C46F3D
FILE: 03 - Antichrist Sex Pornstyle.flac
  Size: 28425144 Hash: 0786AD1CCB61EBEBE545C9700237BE29 Accuracy: -m0
  Conclusion: CDDA 100%
  Signature: A4E2DA92E247C04CD4C07FA47D3C7A52E5FC4A4B
Код:
Код:
REM GENRE Post-Hardcore
REM DATE 2010
REM DISCID 4C03AD06
REM COMMENT "ExactAudioCopy v0.99pb5"
PERFORMER "Eskimo Callboy"
TITLE "Eskimo Callboy"
FILE "01 - Intro.wav" WAVE
  TRACK 01 AUDIO
    TITLE "Intro"
    PERFORMER "Eskimo Callboy"
    INDEX 01 00:00:00
FILE "02 - Monsieur Moustache vs. Clitcat.wav" WAVE
  TRACK 02 AUDIO
    TITLE "Monsieur Moustache vs. Clitcat"
    PERFORMER "Eskimo Callboy"
    INDEX 01 00:00:00
FILE "03 - Antichrist Sex Pornstyle.wav" WAVE
  TRACK 03 AUDIO
    TITLE "Antichrist Sex Pornstyle"
    PERFORMER "Eskimo Callboy"
    INDEX 01 00:00:00
FILE "04 - Hey Mrs. Dramaqueen.wav" WAVE
  TRACK 04 AUDIO
    TITLE "Hey Mrs. Dramaqueen"
    PERFORMER "Eskimo Callboy"
    INDEX 01 00:00:00
FILE "05 - Prom Night.wav" WAVE
  TRACK 05 AUDIO
    TITLE "Prom Night"
    PERFORMER "Eskimo Callboy"
    INDEX 01 00:00:00
FILE "06 - Outro.wav" WAVE
  TRACK 06 AUDIO
    TITLE "Outro"
    PERFORMER "Eskimo Callboy"
    INDEX 01 00:00:00

Издатель (лейбл): Redfield Records
Номер по каталогу: REDFIELD061
Продолжительность: 00:34:36
Треклист:
01 - Bury Me in Vegas 03:22
02 - The Kerosene Dance 03:20
03 - Internude 00:41
04 - Is Anyone Up 03:07
05 - Wonderbra Boulevard 03:32
06 - Legendary Sleeping Assault 01:49
07 - Light The Skyline 04:15
08 - 5$ Bitchcore 03:26
09 - Transilvanian Cunthunger (Feat. One Morning Left) 03:32
10 - Muffin Purper-Gurk 03:25
11 - Snow Covered Polariods 04:03
Код:
Код:
Exact Audio Copy V1.0 beta 3 from 29. August 2011

EAC extraction logfile from 23. March 2012, 14:57

Eskimo Callboy / Bury Me In Vegas

Used drive  : PLDS    DVD-ROM DH-16D2S   Adapter: 2  ID: 0

Read mode               : Secure
Utilize accurate stream : Yes
Defeat audio cache      : Yes
Make use of C2 pointers : No

Read offset correction                      : 6
Overread into Lead-In and Lead-Out          : No
Fill up missing offset samples with silence : Yes
Delete leading and trailing silent blocks   : No
Null samples used in CRC calculations       : Yes
Used interface                              : Native Win32 interface for Win NT & 2000
Gap handling                                : Appended to previous track

Used output format              : User Defined Encoder
Selected bitrate                : 1024 kBit/s
Quality                         : High
Add ID3 tag                     : No
Command line compressor         : C:\Program Files\Exact Audio Copy\Flac\flac.exe
Additional command line options : -8 -V %source% -o %dest%

TOC of the extracted CD

     Track |   Start  |  Length  | Start sector | End sector
    ---------------------------------------------------------
        1  |  0:00.00 |  3:22.28 |         0    |    15177
        2  |  3:22.28 |  3:20.28 |     15178    |    30205
        3  |  6:42.56 |  0:41.21 |     30206    |    33301
        4  |  7:24.02 |  3:07.03 |     33302    |    47329
        5  | 10:31.05 |  3:32.50 |     47330    |    63279
        6  | 14:03.55 |  1:49.31 |     63280    |    71485
        7  | 15:53.11 |  4:14.70 |     71486    |    90605
        8  | 20:08.06 |  3:26.24 |     90606    |   106079
        9  | 23:34.30 |  3:32.42 |    106080    |   122021
       10  | 27:06.72 |  3:25.33 |    122022    |   137429
       11  | 30:32.30 |  4:03.28 |    137430    |   155682

Track  1

     Filename D:\FiH\Eskimo_Callboy-Bury_Me_In_Vegas-CD-FLAC-2012-FiH\01-Eskimo_Callboy-Bury_Me_In_Vegas.wav

     Pre-gap length  0:00:02.00

     Peak level 98.8 %
     Extraction speed 1.8 X
     Track quality 100.0 %
     Test CRC EA523432
     Copy CRC EA523432
     Track not present in AccurateRip database
     Copy OK

Track  2

     Filename D:\FiH\Eskimo_Callboy-Bury_Me_In_Vegas-CD-FLAC-2012-FiH\02-Eskimo_Callboy-The_Kerosene_Dance.wav

     Peak level 98.8 %
     Extraction speed 2.0 X
     Track quality 100.0 %
     Test CRC 518AE088
     Copy CRC 518AE088
     Track not present in AccurateRip database
     Copy OK

Track  3

     Filename D:\FiH\Eskimo_Callboy-Bury_Me_In_Vegas-CD-FLAC-2012-FiH\03-Eskimo_Callboy-Internude.wav

     Peak level 92.4 %
     Extraction speed 1.3 X
     Track quality 100.0 %
     Test CRC 3335FAB7
     Copy CRC 3335FAB7
     Track not present in AccurateRip database
     Copy OK

Track  4

     Filename D:\FiH\Eskimo_Callboy-Bury_Me_In_Vegas-CD-FLAC-2012-FiH\04-Eskimo_Callboy-Is_Anyone_Up.wav

     Peak level 98.8 %
     Extraction speed 2.2 X
     Track quality 100.0 %
     Test CRC E8C65658
     Copy CRC E8C65658
     Track not present in AccurateRip database
     Copy OK

Track  5

     Filename D:\FiH\Eskimo_Callboy-Bury_Me_In_Vegas-CD-FLAC-2012-FiH\05-Eskimo_Callboy-Wonderbra_Boulevard.wav

     Peak level 98.9 %
     Extraction speed 2.4 X
     Track quality 100.0 %
     Test CRC 2D6130E2
     Copy CRC 2D6130E2
     Track not present in AccurateRip database
     Copy OK

Track  6

     Filename D:\FiH\Eskimo_Callboy-Bury_Me_In_Vegas-CD-FLAC-2012-FiH\06-Eskimo_Callboy-Legendary_Sleeping_Assault.wav

     Peak level 98.9 %
     Extraction speed 2.2 X
     Track quality 100.0 %
     Test CRC D62D3FDF
     Copy CRC D62D3FDF
     Track not present in AccurateRip database
     Copy OK

Track  7

     Filename D:\FiH\Eskimo_Callboy-Bury_Me_In_Vegas-CD-FLAC-2012-FiH\07-Eskimo_Callboy-Light_The_Skyline.wav

     Peak level 98.9 %
     Extraction speed 2.4 X
     Track quality 99.9 %
     Test CRC 77D3F1D0
     Copy CRC 77D3F1D0
     Track not present in AccurateRip database
     Copy OK

Track  8

     Filename D:\FiH\Eskimo_Callboy-Bury_Me_In_Vegas-CD-FLAC-2012-FiH\08-Eskimo_Callboy-5$_Bitchcore.wav

     Peak level 98.9 %
     Extraction speed 2.7 X
     Track quality 100.0 %
     Test CRC 40D8DB41
     Copy CRC 40D8DB41
     Track not present in AccurateRip database
     Copy OK

Track  9

     Filename D:\FiH\Eskimo_Callboy-Bury_Me_In_Vegas-CD-FLAC-2012-FiH\09-Eskimo_Callboy-Transilvanian_Cunthunger_''feat._One_Morning_Left''.wav

     Peak level 98.8 %
     Extraction speed 2.9 X
     Track quality 100.0 %
     Test CRC F7C288D8
     Copy CRC F7C288D8
     Track not present in AccurateRip database
     Copy OK

Track 10

     Filename D:\FiH\Eskimo_Callboy-Bury_Me_In_Vegas-CD-FLAC-2012-FiH\10-Eskimo_Callboy-Muffin_Purper-Gurk.wav

     Peak level 98.8 %
     Extraction speed 3.0 X
     Track quality 100.0 %
     Test CRC D7C5A5E5
     Copy CRC D7C5A5E5
     Track not present in AccurateRip database
     Copy OK

Track 11

     Filename D:\FiH\Eskimo_Callboy-Bury_Me_In_Vegas-CD-FLAC-2012-FiH\11-Eskimo_Callboy-Snow_Covered_Polaroids.wav

     Peak level 98.8 %
     Extraction speed 2.8 X
     Track quality 99.9 %
     Test CRC 93C21813
     Copy CRC 93C21813
     Track not present in AccurateRip database
     Copy OK

None of the tracks are present in the AccurateRip database

No errors occurred

End of status report

==== Log checksum 9A2AFD9621019485BDA730F2482521E855A0EDA363C40AEE155E61F0D0DE9D30 ====
Код:
Код:
-----------------------

DON'T MODIFY THIS FILE

-----------------------

PERFORMER: auCDtect Task Manager, ver. 1.6.0 RC1 build 1.6.0.1
Copyright (c) 2008-2010 y-soft. All rights reserved
http:/y-soft.org

ANALYZER: auCDtect: CD records authenticity detector, version 0.8.2
Copyright (c) 2004 Oleg Berngardt. All rights reserved.
Copyright (c) 2004 Alexander Djourik. All rights reserved.

FILE: 04 - Is Anyone Up.flac
  Size: 25816470 Hash: E3F368BEE207A4578719B72C951C1B57 Accuracy: -m0
  Conclusion: CDDA 99%
  Signature: C6CF103BE4854BBC064675828EE83531CB5A0865
FILE: 03 - Internude.flac
  Size: 4739287 Hash: D9C4F5204DA56466D0B685444CA243DB Accuracy: -m0
  Conclusion: CDDA 100%
  Signature: 0B15937FA8195C74234B257C94FBEC6489EB4C70
FILE: 02 - The Kerosene Dance.flac
  Size: 25854264 Hash: AD680F5567635BA3F6443C9BD5181DB4 Accuracy: -m0
  Conclusion: CDDA 100%
  Signature: 2D54D1D3724323360AFF4ABD9259C5A41C65A403
FILE: 01 - Bury Me In Vegas.flac
  Size: 27597773 Hash: 826D6A1BCEC9CA56F8F95D8CFF03DD3B Accuracy: -m0
  Conclusion: CDDA 100%
  Signature: 2E48B214EB9CF24737EC91463B872E3B010F51DF
FILE: 11 - Snow Covered Polaroids.flac
  Size: 30434780 Hash: 6130654B4FCB654BA5CCF2E5ECFAAF4F Accuracy: -m0
  Conclusion: CDDA 100%
  Signature: 6CF8491C6B2DC4C395CD432594D1203EC8D4A8AF
FILE: 10 - Muffin Purper-Gurk.flac
  Size: 26598502 Hash: A73E8090846CF5E207ECF8C375405535 Accuracy: -m0
  Conclusion: CDDA 99%
  Signature: A025FC34C4344865B7951AC0E4F6AC616E7F798A
FILE: 09 - Transilvanian Cunthunger feat. One Morning Left.flac
  Size: 27930252 Hash: 98821439F966C2589A3E10B4831819F8 Accuracy: -m0
  Conclusion: CDDA 100%
  Signature: 948A70CE711FE4652F63E6F1F57D909590692CA6
FILE: 08 - 5 Bitchcore.flac
  Size: 27183288 Hash: 3CB392A532A4C6E27E1D9D1B3F4DEB74 Accuracy: -m0
  Conclusion: CDDA 100%
  Signature: 8EB3B8A7A85F5DAB51F6121B860B693550BD69E6
FILE: 07 - Light The Skyline.flac
  Size: 33295068 Hash: 66363075775B32A35FEE5BC970E2F9F2 Accuracy: -m0
  Conclusion: CDDA 100%
  Signature: 5ADC8BD7106D64138279BD9D7F3CDA8C15791813
FILE: 06 - Legendary Sleeping Assault.flac
  Size: 13871838 Hash: 5A886CA241FD4CE5576400702FA3B4EE Accuracy: -m0
  Conclusion: CDDA 100%
  Signature: 575C4F8F308E7D632DC4221786CE313B6C218380
FILE: 05 - Wonderbra Boulevard.flac
  Size: 28676550 Hash: 1574FDF0B38FF9324922DC670B5D1495 Accuracy: -m0
  Conclusion: CDDA 100%
  Signature: 924B14EE8AE1C1DC956703F64E63A5D863DEDEF7
Код:
Код:
REM GENRE Hardcore
REM DATE 2012
REM DISCID 7F081B0B
REM COMMENT "ExactAudioCopy v1.0b3"
CATALOG 4260080810869
PERFORMER "Eskimo Callboy"
TITLE "Bury Me In Vegas"
FILE "01 - Bury Me In Vegas.wav" WAVE
  TRACK 01 AUDIO
    TITLE "Bury Me In Vegas"
    PERFORMER "Eskimo Callboy"
    ISRC DELL41200048
    FLAGS DCP
    INDEX 01 00:00:00
FILE "02 - The Kerosene Dance.wav" WAVE
  TRACK 02 AUDIO
    TITLE "The Kerosene Dance"
    PERFORMER "Eskimo Callboy"
    ISRC DELL41200049
    FLAGS DCP
    INDEX 01 00:00:00
FILE "03 - Internude.wav" WAVE
  TRACK 03 AUDIO
    TITLE "Internude"
    PERFORMER "Eskimo Callboy"
    ISRC DELL41200050
    FLAGS DCP
    INDEX 01 00:00:00
FILE "04 - Is Anyone Up.wav" WAVE
  TRACK 04 AUDIO
    TITLE "Is Anyone Up"
    PERFORMER "Eskimo Callboy"
    ISRC DELL41200051
    FLAGS DCP
    INDEX 01 00:00:00
FILE "05 - Wonderbra Boulevard.wav" WAVE
  TRACK 05 AUDIO
    TITLE "Wonderbra Boulevard"
    PERFORMER "Eskimo Callboy"
    ISRC DELL41200052
    FLAGS DCP
    INDEX 01 00:00:00
FILE "06 - Legendary Sleeping Assault.wav" WAVE
  TRACK 06 AUDIO
    TITLE "Legendary Sleeping Assault"
    PERFORMER "Eskimo Callboy"
    ISRC DELL41200053
    FLAGS DCP
    INDEX 01 00:00:00
FILE "07 - Light The Skyline.wav" WAVE
  TRACK 07 AUDIO
    TITLE "Light The Skyline"
    PERFORMER "Eskimo Callboy"
    ISRC DELL41200054
    FLAGS DCP
    INDEX 01 00:00:00
FILE "08 - 5 Bitchcore.wav" WAVE
  TRACK 08 AUDIO
    TITLE "5$ Bitchcore"
    PERFORMER "Eskimo Callboy"
    ISRC DELL41200055
    FLAGS DCP
    INDEX 01 00:00:00
FILE "09 - Transilvanian Cunthunger feat. One Morning Left.wav" WAVE
  TRACK 09 AUDIO
    TITLE "Transilvanian Cunthunger "feat. One Morning Left""
    PERFORMER "Eskimo Callboy"
    ISRC DELL41200056
    FLAGS DCP
    INDEX 01 00:00:00
FILE "10 - Muffin Purper-Gurk.wav" WAVE
  TRACK 10 AUDIO
    TITLE "Muffin Purper-Gurk"
    PERFORMER "Eskimo Callboy"
    ISRC DELL41200057
    FLAGS DCP
    INDEX 01 00:00:00
FILE "11 - Snow Covered Polaroids.wav" WAVE
  TRACK 11 AUDIO
    TITLE "Snow Covered Polaroids"
    PERFORMER "Eskimo Callboy"
    ISRC DELL41200058
    FLAGS DCP
    INDEX 01 00:00:00

Издатель (лейбл): Redfield Records
Номер по каталогу: LC12650
Продолжительность: 00:34:35
Треклист:
01 - CSTRP 01:17
02 - We Are The Mess 03:11
03 - Party At The Horror House 03:34
04 - Blood Red Lips 03:36
05 - Never Let You Know 03:20
06 - #elchtransformer 01:22
07 - Jagger Swagger (Feat. Deuce & BastiBasti Of Callejon) 03:21
08 - Ghosts Of The Night 03:28
09 - Final Dance 03:25
10 - Voodoo Circus 03:14
11 - Broadway’s Gonna Kill Us 03:45
12 - RXL 00:57
13 - Never Let You Know (Acoustic) (Bonus Track) 03:30
Код:
Код:
Exact Audio Copy V1.0 beta 3 from 29. August 2011

EAC extraction logfile from 12. January 2014, 23:14

Eskimo Callboy / We Are the Mess

Used drive  : TSSTcorpCDDVDW SH-S223C   Adapter: 3  ID: 1

Read mode               : Secure
Utilize accurate stream : Yes
Defeat audio cache      : Yes
Make use of C2 pointers : No

Read offset correction                      : 697
Overread into Lead-In and Lead-Out          : No
Fill up missing offset samples with silence : Yes
Delete leading and trailing silent blocks   : No
Null samples used in CRC calculations       : Yes
Used interface                              : Native Win32 interface for Win NT & 2000
Gap handling                                : Appended to previous track

Used output format              : User Defined Encoder
Selected bitrate                : 1024 kBit/s
Quality                         : High
Add ID3 tag                     : No
Command line compressor         : C:\Program Files (x86)\Exact Audio Copy\Flac\flac.exe
Additional command line options : -8 -V -T "ARTIST=%artist%" -T "TITLE=%title%" -T "ALBUM=%albumtitle%" -T "DATE=%year%" -T "TRACKNUMBER=%tracknr%" -T "GENRE=%genre%" -T "PERFORMER=%albuminterpret%" -T "COMPOSER=%composer%" %haslyrics%--tag-from-file=LYRICS="%lyricsfile%"%haslyrics% -T "ALBUMARTIST=%albumartist%" -T "DISCNUMBER=%cdnumber%" -T "TOTALDISCS=%totalcds%" -T "TOTALTRACKS=%numtracks%" -T "COMMENT=%comment%" %source% -o %dest%

TOC of the extracted CD

     Track |   Start  |  Length  | Start sector | End sector
    ---------------------------------------------------------
        1  |  0:00.00 |  1:17.38 |         0    |     5812
        2  |  1:17.38 |  3:11.27 |      5813    |    20164
        3  |  4:28.65 |  3:34.70 |     20165    |    36284
        4  |  8:03.60 |  3:35.74 |     36285    |    52483
        5  | 11:39.59 |  3:20.36 |     52484    |    67519
        6  | 15:00.20 |  1:22.08 |     67520    |    73677
        7  | 16:22.28 |  3:21.02 |     73678    |    88754
        8  | 19:43.30 |  3:28.58 |     88755    |   104412
        9  | 23:12.13 |  3:25.13 |    104413    |   119800
       10  | 26:37.26 |  3:14.18 |    119801    |   134368
       11  | 29:51.44 |  3:45.05 |    134369    |   151248
       12  | 33:36.49 |  0:57.63 |    151249    |   155586
       13  | 34:34.37 |  3:30.35 |    155587    |   171371

Track  1

     Filename E:\Eskimo Callboy - We Are The Mess Special Edition (2014) [FLAC]\01 - CSTRP.wav

     Pre-gap length  0:00:02.00

     Peak level 99.1 %
     Extraction speed 1.4 X
     Track quality 100.0 %
     Test CRC DEBDA2D1
     Copy CRC DEBDA2D1
     Track not present in AccurateRip database
     Copy OK

Track  2

     Filename E:\Eskimo Callboy - We Are The Mess Special Edition (2014) [FLAC]\02 - We Are The Mess.wav

     Peak level 99.1 %
     Extraction speed 1.9 X
     Track quality 100.0 %
     Test CRC BEC57FF7
     Copy CRC BEC57FF7
     Track not present in AccurateRip database
     Copy OK

Track  3

     Filename E:\Eskimo Callboy - We Are The Mess Special Edition (2014) [FLAC]\03 - Party At The Horror House.wav

     Peak level 99.1 %
     Extraction speed 2.2 X
     Track quality 100.0 %
     Test CRC 3AAE0934
     Copy CRC 3AAE0934
     Track not present in AccurateRip database
     Copy OK

Track  4

     Filename E:\Eskimo Callboy - We Are The Mess Special Edition (2014) [FLAC]\04 - Blood Red Lips.wav

     Peak level 99.1 %
     Extraction speed 1.7 X
     Track quality 99.9 %
     Test CRC B0CE6C79
     Copy CRC B0CE6C79
     Track not present in AccurateRip database
     Copy OK

Track  5

     Filename E:\Eskimo Callboy - We Are The Mess Special Edition (2014) [FLAC]\05 - Never Let You Know.wav

     Peak level 99.1 %
     Extraction speed 1.3 X
     Track quality 99.8 %
     Test CRC 27C8D7F9
     Copy CRC 27C8D7F9
     Track not present in AccurateRip database
     Copy OK

Track  6

     Filename E:\Eskimo Callboy - We Are The Mess Special Edition (2014) [FLAC]\06 - #elchtransformer.wav

     Peak level 99.1 %
     Extraction speed 2.1 X
     Track quality 100.0 %
     Test CRC CAE114DD
     Copy CRC CAE114DD
     Track not present in AccurateRip database
     Copy OK

Track  7

     Filename E:\Eskimo Callboy - We Are The Mess Special Edition (2014) [FLAC]\07 - Jagger Swagger.wav

     Peak level 99.1 %
     Extraction speed 2.7 X
     Track quality 100.0 %
     Test CRC C5DF3597
     Copy CRC C5DF3597
     Track not present in AccurateRip database
     Copy OK

Track  8

     Filename E:\Eskimo Callboy - We Are The Mess Special Edition (2014) [FLAC]\08 - Ghosts Of The Night.wav

     Peak level 99.1 %
     Extraction speed 2.8 X
     Track quality 100.0 %
     Test CRC 5C2467A7
     Copy CRC 5C2467A7
     Track not present in AccurateRip database
     Copy OK

Track  9

     Filename E:\Eskimo Callboy - We Are The Mess Special Edition (2014) [FLAC]\09 - Final Dance.wav

     Peak level 99.1 %
     Extraction speed 1.0 X
     Track quality 99.6 %
     Test CRC 920896F7
     Copy CRC 920896F7
     Track not present in AccurateRip database
     Copy OK

Track 10

     Filename E:\Eskimo Callboy - We Are The Mess Special Edition (2014) [FLAC]\10 - Voodoo Circus.wav

     Peak level 99.1 %
     Extraction speed 0.9 X
     Track quality 99.6 %
     Test CRC 05CCFF24
     Copy CRC 05CCFF24
     Track not present in AccurateRip database
     Copy OK

Track 11

     Filename E:\Eskimo Callboy - We Are The Mess Special Edition (2014) [FLAC]\11 - Bro adway's Gonna Kill Us.wav

     Peak level 99.1 %
     Extraction speed 0.7 X
     Track quality 99.5 %
     Test CRC 97ED1094
     Copy CRC 97ED1094
     Track not present in AccurateRip database
     Copy OK

Track 12

     Filename E:\Eskimo Callboy - We Are The Mess Special Edition (2014) [FLAC]\12 - RXL.wav

     Peak level 99.1 %
     Extraction speed 2.3 X
     Track quality 100.0 %
     Test CRC D615EE7B
     Copy CRC D615EE7B
     Track not present in AccurateRip database
     Copy OK

Track 13

     Filename E:\Eskimo Callboy - We Are The Mess Special Edition (2014) [FLAC]\13 - Never Let You Know (Acoustic).wav

     Peak level 99.1 %
     Extraction speed 3.3 X
     Track quality 100.0 %
     Test CRC F44B5145
     Copy CRC F44B5145
     Track not present in AccurateRip database
     Copy OK

None of the tracks are present in the AccurateRip database

No errors occurred

End of status report

---- CUETools DB Plugin V2.1.3

[CTDB TOCID: emY_MbA0mYml.9oOTzxgi.yCBvo-] found, Submit result: emY_MbA0mYml.9oOTzxgi.yCBvo- has been confirmed
[85ac6ff3] (3/3) Accurately ripped

==== Log checksum 6F5846D5D210082164626AFA63DC7D6D302DB3D56C7F099D8A9F3DF3E507EE3F ====
Код:
Код:
-----------------------

DON'T MODIFY THIS FILE

-----------------------

PERFORMER: auCDtect Task Manager, ver. 1.6.0 RC1 build 1.6.0.1
Copyright (c) 2008-2010 y-soft. All rights reserved
http:/y-soft.org

ANALYZER: auCDtect: CD records authenticity detector, version 0.8.2
Copyright (c) 2004 Oleg Berngardt. All rights reserved.
Copyright (c) 2004 Alexander Djourik. All rights reserved.

FILE: 06 - #elchtransformer.flac
  Size: 4443664 Hash: C8B1CBA0F525633B43FA216E53EE9D79 Accuracy: -m0
  Conclusion: CDDA 99%
  Signature: DF085624A517BA26F9A153F6CDDF6B54CEF35C14
FILE: 05 - Never Let You Know.flac
  Size: 25367825 Hash: 3CD10B45DC59782EF455D4929DBF30BD Accuracy: -m0
  Conclusion: CDDA 100%
  Signature: 80BB5C40ABAD3ABCE6DA33E1594CCCE752C5661B
FILE: 04 - Blood Red Lips.flac
  Size: 28498419 Hash: D8C6347B9DA7183C718B5181B62F428B Accuracy: -m0
  Conclusion: CDDA 100%
  Signature: A667D3796094F0787CF8B4425CC1463C2618AB45
FILE: 03 - Party At The Horror House.flac
  Size: 28370324 Hash: 687B10F39E82CAE50CB8321A50623796 Accuracy: -m0
  Conclusion: CDDA 100%
  Signature: 19A2B4932A6AEFAEA6927E8275857D46B73D6B6D
FILE: 02 - We Are The Mess.flac
  Size: 26753151 Hash: A0C0BA7EE7892C843BB50EABA9957CB7 Accuracy: -m0
  Conclusion: CDDA 62%
  Signature: 384BB529C386FCEF2E4417F588B3EE4561575C22
FILE: 01 - CSTRP.flac
  Size: 10074647 Hash: 300F7E589A5CA830836E582C32FDA457 Accuracy: -m0
  Conclusion: CDDA 86%
  Signature: 710DEE2C51B1248F8F5CA2AF7B5E0FB28188E3EB
FILE: 13 - Never Let You Know (Acoustic).flac
  Size: 21644701 Hash: A9DE99A2A949F38612EDC5C7104AF76E Accuracy: -m0
  Conclusion: CDDA 99%
  Signature: 26905189B7E6CD227F6D48B0A13B04C9C4B0342B
FILE: 12 - RXL.flac
  Size: 5980820 Hash: 6DBAE8DEAC315B66F509DB5361BEEA57 Accuracy: -m0
  Conclusion: CDDA 87%
  Signature: 477A2EC947E62D86585647DA257E5A08606EA2EE
FILE: 11 - Broadway's Gonna Kill Us.flac
  Size: 29771864 Hash: 98942EBBBADDA1211C27BC8ED84BA663 Accuracy: -m0
  Conclusion: CDDA 100%
  Signature: F46B2625C0D63793888A1A0AEC02FD9B0ADF13BC
FILE: 10 - Voodoo Circus.flac
  Size: 25801454 Hash: ED321DB478DFDA8A3AE996F9D2ED229A Accuracy: -m0
  Conclusion: CDDA 100%
  Signature: CB91F47EC8117A0996701656828E6BAFED252C2E
FILE: 09 - Final Dance.flac
  Size: 27330616 Hash: AB60F383C8D5AB903951EBDC5B856A84 Accuracy: -m0
  Conclusion: CDDA 86%
  Signature: 53C825857E28BCF3465DB48352AC19BA6618FEC6
FILE: 08 - Ghosts Of The Night.flac
  Size: 25666841 Hash: 88CDD0E0BB36AA20D5290AA081C86E50 Accuracy: -m0
  Conclusion: CDDA 94%
  Signature: B081DFCAB37BE2435102F05FEB36A05B7151B438
FILE: 07 - Jagger Swagger.flac
  Size: 26547349 Hash: B7C295EAA7C4354F79989E3290407531 Accuracy: -m0
  Conclusion: CDDA 100%
  Signature: 74174F1CE793571488DCC76A69C2A37BB1315F8F
Код:
Код:
REM GENRE Metal
REM DATE 2014
REM DISCID BA08EC0D
REM COMMENT "ExactAudioCopy v1.0b3"
PERFORMER "Eskimo Callboy"
TITLE "We Are the Mess"
FILE "01 - CSTRP.wav" WAVE
  TRACK 01 AUDIO
    TITLE "CSTRP"
    PERFORMER "Eskimo Callboy"
    ISRC DELL41400122
    FLAGS DCP
    INDEX 01 00:00:00
FILE "02 - We Are The Mess.wav" WAVE
  TRACK 02 AUDIO
    TITLE "We Are The Mess"
    PERFORMER "Eskimo Callboy"
    ISRC DELL41400123
    FLAGS DCP
    INDEX 01 00:00:00
FILE "03 - Party At The Horror House.wav" WAVE
  TRACK 03 AUDIO
    TITLE "Party At The Horror House "
    PERFORMER "Eskimo Callboy"
    ISRC DELL41400124
    FLAGS DCP
    INDEX 01 00:00:00
FILE "04 - Blood Red Lips.wav" WAVE
  TRACK 04 AUDIO
    TITLE "Blood Red Lips"
    PERFORMER "Eskimo Callboy"
    ISRC DELL41400125
    FLAGS DCP
    INDEX 01 00:00:00
FILE "05 - Never Let You Know.wav" WAVE
  TRACK 05 AUDIO
    TITLE "Never Let You Know"
    PERFORMER "Eskimo Callboy"
    ISRC DELL41400126
    FLAGS DCP
    INDEX 01 00:00:00
FILE "06 - #elchtransformer.wav" WAVE
  TRACK 06 AUDIO
    TITLE "#elchtransformer"
    PERFORMER "Eskimo Callboy"
    ISRC DELL41400127
    FLAGS DCP
    INDEX 01 00:00:00
FILE "07 - Jagger Swagger.wav" WAVE
  TRACK 07 AUDIO
    TITLE "Jagger Swagger"
    PERFORMER "Eskimo Callboy"
    ISRC DELL41400128
    FLAGS DCP
    INDEX 01 00:00:00
FILE "08 - Ghosts Of The Night.wav" WAVE
  TRACK 08 AUDIO
    TITLE "Ghosts Of The Night"
    PERFORMER "Eskimo Callboy"
    ISRC DELL41400128
    FLAGS DCP
    INDEX 01 00:00:00
FILE "09 - Final Dance.wav" WAVE
  TRACK 09 AUDIO
    TITLE "Final Dance"
    PERFORMER "Eskimo Callboy"
    ISRC DELL41400130
    FLAGS DCP
    INDEX 01 00:00:00
FILE "10 - Voodoo Circus.wav" WAVE
  TRACK 10 AUDIO
    TITLE "Voodoo Circus"
    PERFORMER "Eskimo Callboy"
    ISRC DELL41400131
    FLAGS DCP
    INDEX 01 00:00:00
FILE "11 - Bro adway's Gonna Kill Us.wav" WAVE
  TRACK 11 AUDIO
    TITLE "Bro adway's Gonna Kill Us"
    PERFORMER "Eskimo Callboy"
    ISRC DELL41400132
    FLAGS DCP
    INDEX 01 00:00:00
FILE "12 - RXL.wav" WAVE
  TRACK 12 AUDIO
    TITLE "RXL"
    PERFORMER "Eskimo Callboy"
    ISRC DELL41400132
    FLAGS DCP
    INDEX 01 00:00:00
FILE "13 - Never Let You Know (Acoustic).wav" WAVE
  TRACK 13 AUDIO
    TITLE "Never Let You Know (Acoustic)"
    PERFORMER "Eskimo Callboy"
    ISRC DELL41400134
    FLAGS DCP
    INDEX 01 00:00:00


Castrop-Rauxel, Германия (2010 – по сей день)


Eskimo Callboy не имеет ничего общего с эскимосами и мальчиками легкого поведения. Эта группа в 2010 основана 2 Даниэлями, Паскалем, Кевином и Михой во главе с Себастьяном ака Суши в городе Castrop-Rauxel, Германия.
Пацаны ищут свою нотку, которая спряталась где-то между Attack Attack! и Asking Alexandria. Также они полны желания привнести свежий потенциал в это направление. Дерзкие тексты, жёсткие брейкдауны, знобящее электро - всё в наличии.
В августе 2010 года был записан первый EP
«Eskimo Callboy 2010», состоящий из 6 треков. Ещё до релиза EP на MySpace были выложены две песни «Monsieur Moustache Versus Clitcat» и «Hey Mrs. Dramaqueen», которые набрали более 100 тысяч прослушиваний. Также был записан «California Gurls (Katy Perry cover)» и даже снят на него клип.
9 декабря был выпущен первый сингл «Is Anyone Up», а так же клип на эту песню. Альбом
«Bury Me in Vegas» вышел 23 марта 2012 года. Альбом был успешно продан по всему миру, После выхода успешного дебютного альбома группа была в туре с Callejon и Asking Alexandria.
Второй студийный альбом
«We Are the Mess» вышел 10 января 2014 г. (уже с новым драммером - Дэвид Фридрих)
Состав:

Sebastian "Sushi" Biesler - lead vocals (2010–present)
Kevin Ratajczak - lead vocals, keyboards (2010–present)
Daniel Haniß - guitar (2010–present)
Pascal Schillo - guitar (2010–present)
Daniel Klossek - bass guitar (2010–present)
David Friedrich - drums (2012–present)
Former members
Michael "Micha" Malitzki - drums (2010–2012)

Если вам понравился альбом, пожалуйста, купите CD, поддержите исполнителя!
Правила, инструкции, FAQ!!!
Торрент  Добавлен [16 мар 2014, 00:37] Скачать торрент Магнет ссылка
Скачать торрент
[ Размер 17.24 КБ / Просмотров 143 ]

Статус  
 
Размер  654.66 МБ
Приватный: Нет (DHT включён)
.torrent скачан  4
 


     Отправить личное сообщение
   
Страница 1 из 1
Показать сообщения за:  Поле сортировки  
Начать новую тему Ответить на тему


Сейчас этот форум просматривают: нет зарегистрированных пользователей и гости: 0


Вы не можете начинать темы
Вы не можете отвечать на сообщения
Вы не можете редактировать свои сообщения
Вы не можете удалять свои сообщения
Вы не можете добавлять вложения

Перейти:  
cron
cron