Начать новую тему Ответить на тему
Статистика раздачи
Размер: 408.6 МБ | Добавлен: 03 май 2020, 19:51 | Скачали: 0
Сидеров: 0  [0 байт/сек]    Личеров: 0  [0 байт/сек]
Пред. тема | След. тема 

Автор
Сообщение

СообщениеДобавлено: 03 май 2020, 19:51 

Ответить с цитатой 

Andras / Reliquien... (This is not a compilation of songs from former albums)
Жанр: Epic Pagan Metal
Носитель: CD
Страна-производитель диска: Germany
Год издания: 2019
Издатель (лейбл): Sturmglanz Black Metal Manufaktur
Номер по каталогу: N/A
Страна исполнителя (группы): Germany
Аудиокодек: FLAC (*.flac)
Тип рипа: image+.cue
Продолжительность: 00:41:46
Источник: собственный рип
Наличие сканов в содержимом раздачи: да

Треклист:
1. Diabolical Christening (Re-Arrangement) - 05:25
2. Dunwich (Re-Arrangement) - 06:24
3. Thy Last Redeemer - 07:02
4. In the Shadow of the Light (Re-Arrangement) - 05:32
5. Das Schwert unserer Ahnen (Re-Arrangement) - 03:28
6. Flames of Hate (Re-Arrangement) 03:39
7. Die Vorboten (Re-Arrangement) - 03:25
8. The Cry of the Banshee (Re-Arrangement) - 03:47
9. Man of Iron - 06:07 (Bathory cover)
10. Aufbruch - 03:04 (instrumental)
Код:
Exact Audio Copy V1.3 from 2. September 2016
Отчёт EAC об извлечении, выполненном 8. апреля 2020, 20:06
Andras / Reliquien
Дисковод: TSSTcorpCDDVDW SH-S203B   Adapter: 1  ID: 0
Режим чтения                 : Достоверность
Использование точного потока : Да
Отключение кэша аудио        : Да
Использование указателей C2  : Нет
Коррекция смещения при чтении                     : 6
Способность читать области Lead-in и Lead-out     : Нет
Заполнение пропущенных сэмплов тишиной            : Да
Удаление блоков с тишиной в начале и конце        : Нет
При вычислениях CRC использовались нулевые сэмплы : Да
Интерфейс                                         : Встроенный Win32-интерфейс для Win NT/2000
Выходной формат          : Пользовательский кодировщик
Выбранный битрейт        : 1024 kBit/s
Качество                 : Высокий
Добавление ID3-тега      : Нет
Утилита сжатия           : C:\Program Files\Exact Audio Copy\Flac\flac.exe
Дополнительные параметры : -V -8 -T "Date=%year%" -T "Genre=%genre%" %source%
TOC извлечённого CD
     Трек |   Старт  | Длительность | Начальный сектор | Конечный сектор
    ---------------------------------------------------------------------
       1  |  0:00.00 |    5:27.54   |           0      |      24578
       2  |  5:27.54 |    6:25.23   |       24579      |      53476
       3  | 11:53.02 |    7:04.64   |       53477      |      85340
       4  | 18:57.66 |    5:33.20   |       85341      |     110335
       5  | 24:31.11 |    3:30.60   |      110336      |     126145
       6  | 28:01.71 |    3:40.30   |      126146      |     142675
       7  | 31:42.26 |    3:26.11   |      142676      |     158136
       8  | 35:08.37 |    3:50.00   |      158137      |     175386
       9  | 38:58.37 |    6:07.14   |      175387      |     202925
      10  | 45:05.51 |    3:04.15   |      202926      |     216740
Характеристики диапазона извлечения и сообщения об ошибках
Выбранный диапазон
     Имя файла G:\ЧерБор\Andras\2019 - Reliquien\Andras - Reliquien.wav
     Пиковый уровень 95.5 %
     Скорость извлечения 6.8 X
     Качество диапазона 100.0 %
     CRC теста 48759A7F
     CRC копии 48759A7F
     Копирование... OK
Ошибок не произошло
AccurateRip: сводка
Трек  1  отсутствует в базе данных
Трек  2  отсутствует в базе данных
Трек  3  отсутствует в базе данных
Трек  4  отсутствует в базе данных
Трек  5  отсутствует в базе данных
Трек  6  отсутствует в базе данных
Трек  7  отсутствует в базе данных
Трек  8  отсутствует в базе данных
Трек  9  отсутствует в базе данных
Трек 10  отсутствует в базе данных
Ни одного трека нет в базе AccurateRip
Конец отчёта
---- CUETools DB Plugin V2.1.6
[CTDB TOCID: m8HBTLxL22yZcHiD2VdrhWerjQM-] disk not present in database
Submit result: m8HBTLxL22yZcHiD2VdrhWerjQM- has been uploaded
==== Контрольная сумма отчёта 15D1ADD02941515F87256754E5B5D058B924CFA02384B5348C869C0F8E87E0AB ====
Код:
REM GENRE "Epic Pagan Metal"
REM DATE 2019
REM DISCID 770B490A
REM COMMENT "ExactAudioCopy v1.3"
PERFORMER "Andras"
TITLE "Reliquien"
REM COMPOSER ""
FILE "Andras - Reliquien.flac" WAVE
  TRACK 01 AUDIO
    TITLE "Diabolical Christening"
    PERFORMER "Andras"
    REM COMPOSER ""
    INDEX 01 00:00:00
  TRACK 02 AUDIO
    TITLE "Dunwich"
    PERFORMER "Andras"
    REM COMPOSER ""
    INDEX 00 05:25:54
    INDEX 01 05:27:54
  TRACK 03 AUDIO
    TITLE "Thy last Redeemer"
    PERFORMER "Andras"
    REM COMPOSER ""
    INDEX 00 11:51:02
    INDEX 01 11:53:02
  TRACK 04 AUDIO
    TITLE "In the Shadow of the Light"
    PERFORMER "Andras"
    REM COMPOSER ""
    INDEX 00 18:55:66
    INDEX 01 18:57:66
  TRACK 05 AUDIO
    TITLE "Das Schwert unserer Ahnen"
    PERFORMER "Andras"
    REM COMPOSER ""
    INDEX 00 24:29:11
    INDEX 01 24:31:11
  TRACK 06 AUDIO
    TITLE "Flames of Hate"
    PERFORMER "Andras"
    REM COMPOSER ""
    INDEX 00 27:59:71
    INDEX 01 28:01:71
  TRACK 07 AUDIO
    TITLE "Die Vorboten"
    PERFORMER "Andras"
    REM COMPOSER ""
    INDEX 00 31:40:26
    INDEX 01 31:42:26
  TRACK 08 AUDIO
    TITLE "The Cry of the Banshee"
    PERFORMER "Andras"
    REM COMPOSER ""
    INDEX 00 35:06:37
    INDEX 01 35:08:37
  TRACK 09 AUDIO
    TITLE "Man of Iron (Tribut an Bathory)"
    PERFORMER "Andras"
    REM COMPOSER ""
    INDEX 00 38:56:37
    INDEX 01 38:58:37
  TRACK 10 AUDIO
    TITLE "Aufbruch"
    PERFORMER "Andras"
    REM COMPOSER ""
    INDEX 00 45:03:51
    INDEX 01 45:05:51
Правила, инструкции, FAQ!!!
Торрент  Добавлен [03 май 2020, 19:51] Скачать торрент Магнет ссылка
Скачать торрент
[ Размер 17.01 КБ / Просмотров 5 ]

Статус
Проверен 
 
Размер  408.6 МБ
Приватный: Нет (DHT включён)
.torrent скачан  0
 


     Отправить личное сообщение
   
Страница 1 из 1
Показать сообщения за:  Поле сортировки  
Начать новую тему Ответить на тему


Сейчас этот форум просматривают: нет зарегистрированных пользователей и гости: 0


Вы не можете начинать темы
Вы не можете отвечать на сообщения
Вы не можете редактировать свои сообщения
Вы не можете удалять свои сообщения
Вы не можете добавлять вложения

Перейти:  
cron
cron