Начать новую тему Ответить на тему
Статистика раздачи
Размер: 282.05 МБ | Добавлен: 16 мар 2014, 00:41 | Скачали: 0
Сидеров: 1  [0 байт/сек]    Личеров: 3  [0 байт/сек]
Пред. тема | След. тема 

Автор
Сообщение

СообщениеДобавлено: 16 мар 2014, 00:41 

Ответить с цитатой 

EMF - Schubert Dip (1991)

Год: 1991
Жанр: Punk
Продолжительность: 00:40:31

Кодек: FLAC
Битрейт: Lossless

Треклист:
01 - Children
02 - Long Summer Days
03 - When You're Mine
04 - Travelling Not Running
05 - I Believe
06 - Unbelievable
07 - Girl Of An Age
08 - Admit It
09 - Lies
10 - Longtime
Код:
Код:
Checking AccurateRip database

Track ->> Ripping Status ->>  ->> [Disc ID: 000f7a8f-71097f0a]

 1 ->> Track not present in database.    [4af6ead5]
 2 ->> Track not present in database.    [f576dda4]
 3 ->> Track not present in database.    [09f7c405]
 4 ->> Track not present in database.    [f7e44207]
 5 ->> Track not present in database.    [cbf3aeaf]
 6 ->> Track not present in database.    [83aac168]
 7 ->> Track not present in database.    [db114d56]
 8 ->> Track not present in database.    [febf81c8]
 9 ->> Track not present in database.    [9d57402f]
 10 ->> Track not present in database.    [649933c6]

_______________________

Disc not present in AccurateRip database.
Код:
Код:
Exact Audio Copy V1.0 beta 3 from 29. August 2011

EAC extraction logfile from 9. March 2014, 23:05

EMF / Schubert Dip

Used drive  : hp      DVD RW AD-7740H   Adapter: 2  ID: 0

Read mode               : Secure
Utilize accurate stream : Yes
Defeat audio cache      : Yes
Make use of C2 pointers : No

Read offset correction                      : 48
Overread into Lead-In and Lead-Out          : No
Fill up missing offset samples with silence : Yes
Delete leading and trailing silent blocks   : No
Null samples used in CRC calculations       : Yes
Used interface                              : Installed external ASPI interface

Used output format              : User Defined Encoder
Selected bitrate                : 1024 kBit/s
Quality                         : High
Add ID3 tag                     : No
Command line compressor         : C:\Program Files (x86)\Exact Audio Copy\Flac\flac.exe
Additional command line options : -V -8 -T "Date=%year%" -T "Genre=%genre%" %source%

TOC of the extracted CD

     Track |   Start  |  Length  | Start sector | End sector
    ---------------------------------------------------------
        1  |  0:00.00 |  5:15.42 |         0    |    23666
        2  |  5:15.42 |  4:00.05 |     23667    |    41671
        3  |  9:15.47 |  3:22.40 |     41672    |    56861
        4  | 12:38.12 |  4:20.65 |     56862    |    76426
        5  | 16:59.02 |  3:43.15 |     76427    |    93166
        6  | 20:42.17 |  3:29.48 |     93167    |   108889
        7  | 24:11.65 |  3:56.52 |    108890    |   126641
        8  | 28:08.42 |  3:29.40 |    126642    |   142356
        9  | 31:38.07 |  4:27.13 |    142357    |   162394
       10  | 36:05.20 |  4:25.66 |    162395    |   182335

Range status and errors

Selected range

     Filename D:\Конвертация\EMF - Schubert Dip.wav

     Peak level 100.0 %
     Extraction speed 1.9 X
     Range quality 100.0 %
     Copy CRC BF2E8B42
     Copy OK

No errors occurred

AccurateRip summary

Track  1  not present in database
Track  2  not present in database
Track  3  not present in database
Track  4  not present in database
Track  5  not present in database
Track  6  not present in database
Track  7  not present in database
Track  8  not present in database
Track  9  not present in database
Track 10  not present in database

None of the tracks are present in the AccurateRip database

End of status report

---- CUETools DB Plugin V2.1.3

[CTDB TOCID: _XEVIevwMuAfuRrgN735Cnmzsog-] disk not present in database, Submit result: _XEVIevwMuAfuRrgN735Cnmzsog- has been uploaded

==== Log checksum 9E67215C9B2C9C30FE22EC1CEC9FBECFCD423B122E29F35D8EE3C2EB322B234A ====
Код:
Код:
-----------------------

DON'T MODIFY THIS FILE

-----------------------

PERFORMER: auCDtect Task Manager, ver. 1.6.0 RC1 build 1.6.0.1
Copyright (c) 2008-2010 y-soft. All rights reserved
http:/y-soft.org

ANALYZER: auCDtect: CD records authenticity detector, version 0.8.2
Copyright (c) 2004 Oleg Berngardt. All rights reserved.
Copyright (c) 2004 Alexander Djourik. All rights reserved.

FILE: EMF - Schubert Dip.flac
  Size: 295494878 Hash: F69B0476F202B96F15D5C5B0113A4B0A Accuracy: -m0
  Conclusion: CDDA 100%
  Signature: 1097B3375CD5B8102D7DEB314E2832CEC238467F
Правила, инструкции, FAQ!!!
Торрент  Добавлен [16 мар 2014, 00:41] Скачать торрент Магнет ссылка
Скачать торрент
[ Размер 12.03 КБ / Просмотров 59 ]

Статус  
 
Размер  282.05 МБ
Приватный: Нет (DHT включён)
.torrent скачан  0
 


     Отправить личное сообщение
   
Страница 1 из 1
Показать сообщения за:  Поле сортировки  
Начать новую тему Ответить на тему


Сейчас этот форум просматривают: нет зарегистрированных пользователей и гости: 0


Вы не можете начинать темы
Вы не можете отвечать на сообщения
Вы не можете редактировать свои сообщения
Вы не можете удалять свои сообщения
Вы не можете добавлять вложения

Перейти:  
cron