Начать новую тему Ответить на тему
Статистика раздачи
Размер: 123.5 МБ | Добавлен: 24 авг 2016, 12:06 | Скачали: 0
Сидеров: 3  [0 байт/сек]    Личеров: 1  [0 байт/сек]
Пред. тема | След. тема 

Автор
Сообщение

СообщениеДобавлено: 24 авг 2016, 12:06 

Ответить с цитатой 

Bhaobhan Sidhe / Jinx (Demo)

Жанр: Electronic/Dark Ambient
Страна-производитель диска: Netherlands
Год издания диска: 1996
Издатель (лейбл): Self-released/independent
Номер по каталогу: None
Страна: Netherlands, (Oisterwijk, North Brabant)
Аудио кодек: FLAC (*.flac)
Тип рипа: image+.cue
Битрейт аудио: lossless
Продолжительность: 00:19:40
Источник (релизер): Original MC
Наличие сканов в содержимом раздачи: да
Треклист:
01 - Intro: Jinxed
02 - Execution XTC
03 - Unsound Nidus
04 - Global Death-Knell / Orgasm At The Crack Of Doom
05 - Wolf vs. Worm
06 - Cockroach Combat
07 - The Pyramid (Tomb Of Mankind)
08 - Outro: Barberism
Код:
Exact Audio Copy V0.99 prebeta 5 from 4. May 2009

Отчёт EAC об извлечении, выполненном 26. мая 2011, 9:43

Bhaobhan Sidhe / Jinx

Дисковод: ASUS    DVD-E616A2   Adapter: 0  ID: 1

Режим чтения                 : Достоверность
Использование точного потока : Да
Отключение кэша аудио        : Да
Использование указателей C2  : Нет

Коррекция смещения при чтении                     : 6
Способность читать области Lead-in и Lead-out     : Нет
Заполнение пропущенных сэмплов тишиной            : Да
Удаление блоков с тишиной в начале и конце        : Нет
При вычислениях CRC использовались нулевые сэмплы : Да
Интерфейс                                         : Встроенный Win32-интерфейс для Win NT/2000

Выходной формат          : Пользовательский кодировщик
Выбранный битрейт        : 1024 kBit/s
Качество                 : Высокий
Добавление ID3-тэга      : Нет
Утилита сжатия           : C:\Program Files\Exact Audio Copy\FLAC\FLAC.EXE
Дополнительные параметры : -6 -V -T "ARTIST=%a" -T "TITLE=%t" -T "ALBUM=%g" -T "DATE=%y" -T "TRACKNUMBER=%n" -T "GENRE=%m" -T "COMMENT=%e" %s -o %d

TOC извлечённого CD

     Трек |   Старт  | Длительность | Начальный сектор | Конечный сектор
    ---------------------------------------------------------------------
       1  |  0:00.00 |    1:29.47   |           0      |       6721
       2  |  1:29.47 |    2:15.52   |        6722      |      16898
       3  |  3:45.24 |    3:07.04   |       16899      |      30927
       4  |  6:52.28 |    3:12.40   |       30928      |      45367
       5  | 10:04.68 |    2:11.10   |       45368      |      55202
       6  | 12:16.03 |    1:39.70   |       55203      |      62697
       7  | 13:55.73 |    3:28.73   |       62698      |      78370
       8  | 17:24.71 |    2:15.17   |       78371      |      88512

Характеристики диапазона извлечения и сообщения об ошибках

Выбранный диапазон

     Имя файла E:\WORK FOLDER\Bhaobhan Sidhe - 1996 - Jinx (Demo)\Bhaobhan Sidhe - Jinx.wav

     Пиковый уровень 100.0 %
     Качество диапазона 99.9 %
     CRC теста B4732484
     CRC копии B4732484
     Копирование... OK

Ошибок не произошло

AccurateRip: сводка

Трек  1  нет в базе данных
Трек  2  нет в базе данных
Трек  3  нет в базе данных
Трек  4  нет в базе данных
Трек  5  нет в базе данных
Трек  6  нет в базе данных
Трек  7  нет в базе данных
Трек  8  нет в базе данных

Ни одного трека нет в базе AccurateRip

Конец отчёта
Код:
REM GENRE "Electronic/Dark Ambient"
REM DATE 1996
REM DISCID 5B049C08
REM COMMENT "ExactAudioCopy v0.99pb5"
PERFORMER "Bhaobhan Sidhe"
TITLE "Jinx"
FILE "Bhaobhan Sidhe - Jinx.flac" WAVE
  TRACK 01 AUDIO
    TITLE "Intro: Jinxed"
    PERFORMER "Bhaobhan Sidhe"
    FLAGS DCP
    INDEX 01 00:00:00
  TRACK 02 AUDIO
    TITLE "Execution XTC"
    PERFORMER "Bhaobhan Sidhe"
    FLAGS DCP
    INDEX 01 01:29:47
  TRACK 03 AUDIO
    TITLE "Unsound Nidus"
    PERFORMER "Bhaobhan Sidhe"
    FLAGS DCP
    INDEX 01 03:45:24
  TRACK 04 AUDIO
    TITLE "Global Death-Knell / Orgasm At The Crack Of Doom"
    PERFORMER "Bhaobhan Sidhe"
    FLAGS DCP
    INDEX 01 06:52:28
  TRACK 05 AUDIO
    TITLE "Wolf vs. Worm"
    PERFORMER "Bhaobhan Sidhe"
    FLAGS DCP
    INDEX 01 10:04:68
  TRACK 06 AUDIO
    TITLE "Cockroach Combat"
    PERFORMER "Bhaobhan Sidhe"
    FLAGS DCP
    INDEX 01 12:16:03
  TRACK 07 AUDIO
    TITLE "The Pyramid (Tomb Of Mankind)"
    PERFORMER "Bhaobhan Sidhe"
    FLAGS DCP
    INDEX 01 13:55:73
  TRACK 08 AUDIO
    TITLE "Outro: Barberism"
    PERFORMER "Bhaobhan Sidhe"
    FLAGS DCP
    INDEX 01 17:24:71


Доп. информация: Никакой обработки звука не производилось. Оцифровка произведена с оригинальной кассеты (прислана самой группой из Голландии). На CD данное демо никогда не переиздавалось.
Кое-какую информацию можно узреть здесь: http://www.metal-archives.com/bands/Bhaobhan_Sidhe
Данное демо будет интересно тем людям, которые не обходят стороной такие формации как: De Infernali, Diabolos Rising, Dryft, Hocico, Inade, Desiderii Marginis, Nordvargr, etc.
Lord Aliboron - Programming
Conscicide Dominus Arcula - Vocals, Programming
Правила, инструкции, FAQ!!!
Торрент  Добавлен [24 авг 2016, 12:06] Скачать торрент Магнет ссылка
Скачать торрент
[ Размер 20.01 КБ / Просмотров 12 ]

Статус
Проверен 
 
Размер  123.5 МБ
Приватный: Нет (DHT включён)
.torrent скачан  0
 


     Отправить личное сообщение
   
Страница 1 из 1
Показать сообщения за:  Поле сортировки  
Начать новую тему Ответить на тему


Сейчас этот форум просматривают: нет зарегистрированных пользователей и гости: 0


Вы не можете начинать темы
Вы не можете отвечать на сообщения
Вы не можете редактировать свои сообщения
Вы не можете удалять свои сообщения
Вы не можете добавлять вложения

Перейти:  
cron
cron