Начать новую тему Ответить на тему
Статистика раздачи
Размер: 408.69 МБ | Добавлен: 16 мар 2014, 00:16 | Скачали: 2
Сидеров: 10  [0 байт/сек]    Личеров: 19  [0 байт/сек]
Пред. тема | След. тема 

Автор
Сообщение

СообщениеДобавлено: 16 мар 2014, 00:16 

Ответить с цитатой 

Electric Light Orchestra - Time (1981)

Год: 1981
Жанр: Classic Rock, Symphonic Rock
Лейбл: Epic, Legacy
Каталог #: EK 85421
Продолжительность: 00:54:36
Кодек: FLAC
Тип рипа: image + .cue
Битрейт: Lossless
Треклист:
01. Prologue (1:16)
02. Twilight (3:42)
03. Yours Truly, 2095 (3:12)
04. Ticket To The Moon (4:07)
05. The Way Life's Meant To Be (4:39)
06. Another Heart Breaks (3:49)
07. Rain Is Falling (3:56)
08. From The End Of The World (3:17)
09. The Lights Go Down (3:33)
10. Here Is The News (3:50)
11. 21st Century Man (4:03)
12. Hold On Tight (3:06)
13. Epilogue (1:36)
14. The Bouncer (3:15)
15. When Time Stood Still (3:33)
16. Julie Don't Live Here (3:42)
Код:
Код:
Exact Audio Copy V1.0 beta 3 from 29. August 2011

EAC extraction logfile from 27. November 2012, 16:55

Electric Light Orchestra / Time (EK 85421)

Used drive  : PLEXTOR DVDR   PX-891SA   Adapter: 1  ID: 0

Read mode               : Secure
Utilize accurate stream : Yes
Defeat audio cache      : Yes
Make use of C2 pointers : No

Read offset correction                      : 6
Overread into Lead-In and Lead-Out          : No
Fill up missing offset samples with silence : Yes
Delete leading and trailing silent blocks   : No
Null samples used in CRC calculations       : Yes
Used interface                              : Native Win32 interface for Win NT & 2000

Used output format              : User Defined Encoder
Selected bitrate                : 1024 kBit/s
Quality                         : High
Add ID3 tag                     : No
Command line compressor         : C:\Program Files\Exact Audio Copy\Flac\flac.exe
Additional command line options : -V -8 -T "Genre=%genre%" -T "Artist=%artist%" -T "Title=%title%" -T "Album=%albumtitle%" -T "Date=%year%" -T "Tracknumber=%tracknr%" -T "Comment=%comment%" %source%

TOC of the extracted CD

     Track |   Start  |  Length  | Start sector | End sector
    ---------------------------------------------------------
        1  |  0:00.00 |  1:16.35 |         0    |     5734
        2  |  1:16.35 |  3:41.65 |      5735    |    22374
        3  |  4:58.25 |  3:11.63 |     22375    |    36762
        4  |  8:10.13 |  4:07.25 |     36763    |    55312
        5  | 12:17.38 |  4:38.55 |     55313    |    76217
        6  | 16:56.18 |  3:49.27 |     76218    |    93419
        7  | 20:45.45 |  3:55.50 |     93420    |   111094
        8  | 24:41.20 |  3:16.48 |    111095    |   125842
        9  | 27:57.68 |  3:33.35 |    125843    |   141852
       10  | 31:31.28 |  3:49.55 |    141853    |   159082
       11  | 35:21.08 |  4:02.70 |    159083    |   177302
       12  | 39:24.03 |  3:06.30 |    177303    |   191282
       13  | 42:30.33 |  1:35.65 |    191283    |   198472
       14  | 44:06.23 |  3:14.50 |    198473    |   213072
       15  | 47:20.73 |  3:33.00 |    213073    |   229047
       16  | 50:53.73 |  3:42.20 |    229048    |   245717

Range status and errors

Selected range

     Filename H:\dafnaplus\Electric Light Orchestra - Time\Electric Light Orchestra - Time (EK 85421).wav

     Peak level 100.0 %
     Extraction speed 8.5 X
     Range quality 99.9 %
     Test CRC 09EE8E6B
     Copy CRC 09EE8E6B
     Copy OK

No errors occurred

AccurateRip summary

Track  1  accurately ripped (confidence 1)  [970BD551]  (AR v2)
Track  2  accurately ripped (confidence 1)  [462D92E4]  (AR v2)
Track  3  accurately ripped (confidence 1)  [27D49020]  (AR v2)
Track  4  accurately ripped (confidence 1)  [5B3A39F1]  (AR v2)
Track  5  accurately ripped (confidence 1)  [084D33B5]  (AR v2)
Track  6  accurately ripped (confidence 1)  [2908C4D2]  (AR v2)
Track  7  accurately ripped (confidence 1)  [17083789]  (AR v2)
Track  8  accurately ripped (confidence 1)  [90B27978]  (AR v2)
Track  9  accurately ripped (confidence 1)  [F40E3830]  (AR v2)
Track 10  accurately ripped (confidence 1)  [A6132865]  (AR v2)
Track 11  accurately ripped (confidence 1)  [F95E76D5]  (AR v2)
Track 12  accurately ripped (confidence 1)  [9788DC58]  (AR v2)
Track 13  accurately ripped (confidence 1)  [70902223]  (AR v2)
Track 14  accurately ripped (confidence 1)  [E6B81954]  (AR v2)
Track 15  accurately ripped (confidence 1)  [40EC3E31]  (AR v2)
Track 16  accurately ripped (confidence 1)  [D3F5D852]  (AR v2)

All tracks accurately ripped

End of status report

==== Log checksum 719DB89B84D1597A119CA83745F922C00C1A9DCD62CF14CA49E42A34C90293EE ====

Код:
Код:
-----------------------

DON'T MODIFY THIS FILE

-----------------------

PERFORMER: auCDtect Task Manager, ver. 1.6.0 RC1 build 1.6.0.1
Copyright (c) 2008-2010 y-soft. All rights reserved
http:/y-soft.org

ANALYZER: auCDtect: CD records authenticity detector, version 0.8.2
Copyright (c) 2004 Oleg Berngardt. All rights reserved.
Copyright (c) 2004 Alexander Djourik. All rights reserved.

FILE: Electric Light Orchestra - Time (EK 85421).flac
  Size: 390725728 Hash: 50ADC6A66D146311EB661F01E77942FE Accuracy: -m0
  Conclusion: CDDA 100%
  Signature: 3D091B77C1C43D1713A75ADB715504B86F5B41D7

Код:
Код:
REM GENRE "Progressive Rock"
REM DATE 2001
REM DISCID E20CCC10
REM COMMENT "ExactAudioCopy v1.0b3"
CATALOG 0000000000000
PERFORMER "Electric Light Orchestra"
TITLE "Time (EK 85421)"
FILE "Electric Light Orchestra - Time (EK 85421).flac" WAVE
  TRACK 01 AUDIO
    TITLE "Prologue"
    PERFORMER "Electric Light Orchestra"
    ISRC USSM18100549
    INDEX 01 00:00:00
  TRACK 02 AUDIO
    TITLE "Twilight"
    PERFORMER "Electric Light Orchestra"
    ISRC USSM18100550
    INDEX 01 01:16:35
  TRACK 03 AUDIO
    TITLE "Yours Truly, 2095"
    PERFORMER "Electric Light Orchestra"
    ISRC USSM18100551
    INDEX 01 04:58:25
  TRACK 04 AUDIO
    TITLE "Ticket To The Moon"
    PERFORMER "Electric Light Orchestra"
    ISRC USSM18100552
    INDEX 00 08:09:00
    INDEX 01 08:10:13
  TRACK 05 AUDIO
    TITLE "The Way Life's Meant To Be"
    PERFORMER "Electric Light Orchestra"
    ISRC USSM18100553
    INDEX 01 12:17:38
  TRACK 06 AUDIO
    TITLE "Another Heart Breaks"
    PERFORMER "Electric Light Orchestra"
    ISRC USSM18100554
    INDEX 00 16:56:05
    INDEX 01 16:56:18
  TRACK 07 AUDIO
    TITLE "Rain Is Falling"
    PERFORMER "Electric Light Orchestra"
    ISRC USSM18100555
    INDEX 00 20:45:28
    INDEX 01 20:45:45
  TRACK 08 AUDIO
    TITLE "From The End Of The World"
    PERFORMER "Electric Light Orchestra"
    ISRC USSM18100556
    INDEX 01 24:41:20
  TRACK 09 AUDIO
    TITLE "The Lights Go Down"
    PERFORMER "Electric Light Orchestra"
    ISRC USSM18100557
    INDEX 01 27:57:68
  TRACK 10 AUDIO
    TITLE "Here Is The News"
    PERFORMER "Electric Light Orchestra"
    ISRC USSM18100558
    INDEX 01 31:31:28
  TRACK 11 AUDIO
    TITLE "21st Century Man"
    PERFORMER "Electric Light Orchestra"
    ISRC USSM18100559
    INDEX 01 35:21:08
  TRACK 12 AUDIO
    TITLE "Hold On Tight"
    PERFORMER "Electric Light Orchestra"
    ISRC USSM18100353
    INDEX 01 39:24:03
  TRACK 13 AUDIO
    TITLE "Epilogue"
    PERFORMER "Electric Light Orchestra"
    ISRC USSM18100560
    INDEX 01 42:30:33
  TRACK 14 AUDIO
    TITLE "The Bouncer"
    PERFORMER "Electric Light Orchestra"
    ISRC USSM10103079
    INDEX 00 44:01:43
    INDEX 01 44:06:23
  TRACK 15 AUDIO
    TITLE "When Time Stood Still"
    PERFORMER "Electric Light Orchestra"
    ISRC USSM10103080
    INDEX 00 47:19:60
    INDEX 01 47:20:73
  TRACK 16 AUDIO
    TITLE "Julie Don't Live Here"
    PERFORMER "Electric Light Orchestra"
    ISRC USSM10103081
    INDEX 00 50:52:58
    INDEX 01 50:53:73

Код:
Код:
[CUETools log; Date: 07.01.2014 22:57:39; Version: 2.1.4]
[CTDB TOCID: AT3fYN6jpX6FN47WDQck0wiKFPM-] found.
Track | CTDB Status
  1   | (3/3) Accurately ripped
  2   | (3/3) Accurately ripped
  3   | (3/3) Accurately ripped
  4   | (3/3) Accurately ripped
  5   | (3/3) Accurately ripped
  6   | (3/3) Accurately ripped
  7   | (3/3) Accurately ripped
  8   | (3/3) Accurately ripped
  9   | (3/3) Accurately ripped
 10   | (3/3) Accurately ripped
 11   | (3/3) Accurately ripped
 12   | (3/3) Accurately ripped
 13   | (3/3) Accurately ripped
 14   | (3/3) Accurately ripped
 15   | (3/3) Accurately ripped
 16   | (3/3) Accurately ripped
[AccurateRip ID: 001fc724-01810b51-e20ccc10] found.
Track   [  CRC   |   V2   ] Status
 01     [50fffa4b|970bd551] (00+10/10) Accurately ripped
 02     [8e1254d3|462d92e4] (00+10/10) Accurately ripped
 03     [0e60cd6a|27d49020] (00+10/10) Accurately ripped
 04     [df6fb7aa|5b3a39f1] (00+10/10) Accurately ripped
 05     [cf4a3dfd|084d33b5] (00+10/10) Accurately ripped
 06     [e783924e|2908c4d2] (00+10/10) Accurately ripped
 07     [31346762|17083789] (00+10/10) Accurately ripped
 08     [0eeb7623|90b27978] (00+10/10) Accurately ripped
 09     [decd3698|f40e3830] (00+09/09) Accurately ripped
 10     [74818684|a6132865] (00+10/10) Accurately ripped
 11     [5f0b07bd|f95e76d5] (00+10/10) Accurately ripped
 12     [4d62dfa5|9788dc58] (00+10/10) Accurately ripped
 13     [facf27ec|70902223] (00+10/10) Accurately ripped
 14     [08c37ebd|e6b81954] (00+09/09) Accurately ripped
 15     [a9baa69b|40ec3e31] (00+09/09) Accurately ripped
 16     [35e265f2|d3f5d852] (00+08/08) Accurately ripped

Track Peak [ CRC32  ] [W/O NULL] [  LOG   ]
 --   99,9 [09EE8E6B] [72424D55]   CRC32
 01   99,8 [A338BC84] [93A932FB]
 02   99,8 [41DC207F] [8DF4E72A]
 03   99,8 [2862B9D9] [14449D7D]
 04   99,8 [A90CA439] [F8599DDB]
 05   99,8 [2517C09E] [93224319]
 06   99,9 [2B0D545C] [F6FFF65B]
 07   99,8 [B79C51A0] [1D105D26]
 08   99,9 [5E6C3C57] [818F16C1]
 09   99,8 [9891EF5C] [25E8695E]
 10   99,8 [9C338BD7] [AABE146A]
 11   99,8 [D72EB20F] [8A5994C9]
 12   99,8 [46CFB38B] [319C37D0]
 13   99,8 [37780EBA] [FB69BEA3]
 14   99,8 [17272866] [28880668]
 15   99,8 [5C4A6526] [84D263E5]
 16   99,8 [EB32E7B2] [79F52885]

Правила, инструкции, FAQ!!!
Торрент  Добавлен [16 мар 2014, 00:16] Скачать торрент Магнет ссылка
Скачать торрент
[ Размер 17.36 КБ / Просмотров 52 ]

Статус  
 
Размер  408.69 МБ
Приватный: Нет (DHT включён)
.torrent скачан  2
 


     Отправить личное сообщение
   
Страница 1 из 1
Показать сообщения за:  Поле сортировки  
Начать новую тему Ответить на тему


Сейчас этот форум просматривают: нет зарегистрированных пользователей и гости: 0


Вы не можете начинать темы
Вы не можете отвечать на сообщения
Вы не можете редактировать свои сообщения
Вы не можете удалять свои сообщения
Вы не можете добавлять вложения

Перейти:  
cron