Начать новую тему Ответить на тему
Статистика раздачи
Размер: 824.81 МБ | Добавлен: 16 мар 2014, 00:09 | Скачали: 4
Сидеров: 7  [0 байт/сек]    Личеров: 1  [0 байт/сек]
Пред. тема | След. тема 

Автор
Сообщение

СообщениеДобавлено: 16 мар 2014, 00:09 

Ответить с цитатой 

Electric Light Orchestra - Strange Magic: The Best Of Electric Light Orchestra (1995)


Год:
1995
Жанр: Classic Rock, Symphonic Rock
Лейбл: Legacy
Каталог #: Z2K 64157
Продолжительность: 02:02:21
Кодек: FLAC
Тип рипа: image + .cue
Битрейт: Lossless
Треклист:
01. 10538 Overture (5:32)
02. Roll Over Beethoven (8:11)
03. Showdown (4:11)
04. Daybreaker (3:31)
05. Ma-Ma-Ma Belle (4:13)
06. Can't Get It Out Of My Head (4:22)
07. Boy Blue (5:21)
08. Evil Woman (4:21)
09. Strange Magic (4:32)
10. Livin' Thing (3:34)
11. Do Ya (3:47)
12. Telephone Line (4:42)
13. Rockaria! (3:14)

Продолжительность: 00:59:30
Код:
Код:
Exact Audio Copy V1.0 beta 3 from 29. August 2011

EAC extraction logfile from 23. November 2013, 0:47

Electric Light Orchestra / Strange Magic: The Best Of Electric Light Orchestra

Used drive  : PLEXTOR DVDR   PX-810SA   Adapter: 2  ID: 0

Read mode               : Secure
Utilize accurate stream : Yes
Defeat audio cache      : Yes
Make use of C2 pointers : No

Read offset correction                      : 48
Overread into Lead-In and Lead-Out          : No
Fill up missing offset samples with silence : Yes
Delete leading and trailing silent blocks   : No
Null samples used in CRC calculations       : Yes
Used interface                              : Installed external ASPI interface

Used output format              : User Defined Encoder
Selected bitrate                : 1024 kBit/s
Quality                         : High
Add ID3 tag                     : No
Command line compressor         : C:\Program Files (x86)\Exact Audio Copy\Flac\flac.exe
Additional command line options : -8 -V -T "Date=%year%" -T "Genre=%genre%" -T "COMMENT=ripped by bvstudio®" %source%

TOC of the extracted CD

     Track |   Start  |  Length  | Start sector | End sector
    ---------------------------------------------------------
        1  |  0:00.00 |  5:32.05 |         0    |    24904
        2  |  5:32.05 |  8:10.57 |     24905    |    61711
        3  | 13:42.62 |  4:11.20 |     61712    |    80556
        4  | 17:54.07 |  3:30.73 |     80557    |    96379
        5  | 21:25.05 |  4:12.55 |     96380    |   115334
        6  | 25:37.60 |  4:21.65 |    115335    |   134974
        7  | 29:59.50 |  5:20.50 |    134975    |   159024
        8  | 35:20.25 |  4:21.05 |    159025    |   178604
        9  | 39:41.30 |  4:31.65 |    178605    |   198994
       10  | 44:13.20 |  3:34.30 |    198995    |   215074
       11  | 47:47.50 |  3:46.62 |    215075    |   232086
       12  | 51:34.37 |  4:41.68 |    232087    |   253229
       13  | 56:16.30 |  3:13.60 |    253230    |   267764

Range status and errors

Selected range

     Filename F:\Electric Light Orchestra\1995 - Strange Magic - The Best Of ELO (1995 - Sony Music. USA - Z2K 64157)\CD1\Electric Light Orchestra - Strange Magic - The Best Of Electric Light Orchestra.wav

     Peak level 100.0 %
     Extraction speed 7.8 X
     Range quality 100.0 %
     Test CRC 30CA9BAE
     Copy CRC 30CA9BAE
     Copy OK

No errors occurred

AccurateRip summary

Track  1  accurately ripped (confidence 18)  [E0E06BD1]  (AR v2)
Track  2  accurately ripped (confidence 17)  [8B0D58F1]  (AR v2)
Track  3  accurately ripped (confidence 18)  [0382478F]  (AR v2)
Track  4  accurately ripped (confidence 17)  [273E4B98]  (AR v2)
Track  5  accurately ripped (confidence 17)  [8CF299E1]  (AR v2)
Track  6  accurately ripped (confidence 18)  [D0E0120E]  (AR v2)
Track  7  accurately ripped (confidence 15)  [11112D85]  (AR v2)
Track  8  accurately ripped (confidence 17)  [F100B68C]  (AR v2)
Track  9  accurately ripped (confidence 17)  [F9B532E4]  (AR v2)
Track 10  accurately ripped (confidence 17)  [B5D25345]  (AR v2)
Track 11  accurately ripped (confidence 17)  [1AC51F47]  (AR v2)
Track 12  accurately ripped (confidence 18)  [1698EF81]  (AR v2)
Track 13  accurately ripped (confidence 17)  [C843221F]  (AR v2)

All tracks accurately ripped

End of status report

---- CUETools DB Plugin V2.1.5

[CTDB TOCID: j..BzSfF2Rh3V1_Ah6sClBxwSOY-] found
Submit result: j..BzSfF2Rh3V1_Ah6sClBxwSOY- has been confirmed
Track | CTDB Status
  1   | (22/22) Accurately ripped
  2   | (22/22) Accurately ripped
  3   | (22/22) Accurately ripped
  4   | (22/22) Accurately ripped
  5   | (22/22) Accurately ripped
  6   | (22/22) Accurately ripped
  7   | (21/22) Accurately ripped
  8   | (22/22) Accurately ripped
  9   | (21/22) Accurately ripped
 10   | (22/22) Accurately ripped
 11   | (22/22) Accurately ripped
 12   | (21/22) Accurately ripped
 13   | (22/22) Accurately ripped

==== Log checksum B6EB713302D06B1E0B736BAB626682CD5A58D843D69B249B42FAC96FA3CD8B6E ====

Код:
Код:
-----------------------

DON'T MODIFY THIS FILE

-----------------------

PERFORMER: auCDtect Task Manager, ver. 1.6.0 RC1 build 1.6.0.1
Copyright (c) 2008-2010 y-soft. All rights reserved
http:/y-soft.org

ANALYZER: auCDtect: CD records authenticity detector, version 0.8.2
Copyright (c) 2004 Oleg Berngardt. All rights reserved.
Copyright (c) 2004 Alexander Djourik. All rights reserved.

FILE: Electric Light Orchestra - Strange Magic - The Best Of Electric Light Orchestra CD1.flac
  Size: 383807198 Hash: 9B817602BCD417284002DAEC9235E080 Accuracy: -m0
  Conclusion: CDDA 100%
  Signature: 477C93423C644EF8769B468AB3871EB35675D4E4

Код:
Код:
REM GENRE Rock
REM DATE 1995
REM DISCID BF0DF20D
REM COMMENT "ExactAudioCopy v1.0b3"
PERFORMER "Electric Light Orchestra"
TITLE "Strange Magic: The Best Of Electric Light Orchestra CD1"
FILE "Electric Light Orchestra - Strange Magic - The Best Of Electric Light Orchestra CD1.flac" WAVE
  TRACK 01 AUDIO
    TITLE "10538 Overture"
    PERFORMER "Electric Light Orchestra"
    INDEX 01 00:00:00
  TRACK 02 AUDIO
    TITLE "Roll Over Beethoven"
    PERFORMER "Electric Light Orchestra"
    INDEX 00 05:30:25
    INDEX 01 05:32:05
  TRACK 03 AUDIO
    TITLE "Showdown"
    PERFORMER "Electric Light Orchestra"
    INDEX 00 13:41:11
    INDEX 01 13:42:62
  TRACK 04 AUDIO
    TITLE "Daybreaker"
    PERFORMER "Electric Light Orchestra"
    INDEX 00 17:52:33
    INDEX 01 17:54:07
  TRACK 05 AUDIO
    TITLE "Ma-Ma-Ma Belle"
    PERFORMER "Electric Light Orchestra"
    INDEX 01 21:25:05
  TRACK 06 AUDIO
    TITLE "Can't Get It Out Of My Head"
    PERFORMER "Electric Light Orchestra"
    INDEX 00 25:36:05
    INDEX 01 25:37:60
  TRACK 07 AUDIO
    TITLE "Boy Blue"
    PERFORMER "Electric Light Orchestra"
    INDEX 01 29:59:50
  TRACK 08 AUDIO
    TITLE "Evil Woman"
    PERFORMER "Electric Light Orchestra"
    INDEX 00 35:18:56
    INDEX 01 35:20:25
  TRACK 09 AUDIO
    TITLE "Strange Magic"
    PERFORMER "Electric Light Orchestra"
    INDEX 00 39:39:60
    INDEX 01 39:41:30
  TRACK 10 AUDIO
    TITLE "Livin' Thing"
    PERFORMER "Electric Light Orchestra"
    INDEX 00 44:11:40
    INDEX 01 44:13:20
  TRACK 11 AUDIO
    TITLE "Do Ya"
    PERFORMER "Electric Light Orchestra"
    INDEX 00 47:45:71
    INDEX 01 47:47:50
  TRACK 12 AUDIO
    TITLE "Telephone Line"
    PERFORMER "Electric Light Orchestra"
    INDEX 00 51:32:53
    INDEX 01 51:34:37
  TRACK 13 AUDIO
    TITLE "Rockaria!"
    PERFORMER "Electric Light Orchestra"
    INDEX 00 56:14:55
    INDEX 01 56:16:30

Код:
Код:
[CUETools log; Date: 16.01.2014 19:25:02; Version: 2.1.4]
[CTDB TOCID: j..BzSfF2Rh3V1_Ah6sClBxwSOY-] found.
Track | CTDB Status
  1   | (23/23) Accurately ripped
  2   | (23/23) Accurately ripped
  3   | (23/23) Accurately ripped
  4   | (23/23) Accurately ripped
  5   | (23/23) Accurately ripped
  6   | (23/23) Accurately ripped
  7   | (22/23) Accurately ripped
  8   | (23/23) Accurately ripped
  9   | (22/23) Accurately ripped
 10   | (23/23) Accurately ripped
 11   | (23/23) Accurately ripped
 12   | (22/23) Accurately ripped
 13   | (23/23) Accurately ripped
[AccurateRip ID: 001ecd56-012d29f2-bf0df20d] found.
Track   [  CRC   |   V2   ] Status
 01     [7485f5aa|e0e06bd1] (037+019/112) Accurately ripped
 02     [09db2022|8b0d58f1] (037+018/112) Accurately ripped
 03     [3311b480|0382478f] (038+019/114) Accurately ripped
 04     [2a4f1a63|273e4b98] (037+018/113) Accurately ripped
 05     [6f883dc4|8cf299e1] (037+018/110) Accurately ripped
 06     [b4ae8f3c|d0e0120e] (038+019/114) Accurately ripped
 07     [67d7367c|11112d85] (037+016/108) Accurately ripped
 08     [dee450a6|f100b68c] (038+018/114) Accurately ripped
 09     [0db6dd72|f9b532e4] (038+018/114) Accurately ripped
 10     [d6f8fbd1|b5d25345] (038+018/112) Accurately ripped
 11     [984bba51|1ac51f47] (038+018/115) Accurately ripped
 12     [48b76953|1698ef81] (038+019/113) Accurately ripped
 13     [030a06df|c843221f] (037+018/106) Accurately ripped
Offsetted by -900:
 01     [59c90792] (002/112) Accurately ripped
 02     [3917ded2] (002/112) Accurately ripped
 03     [d6e0162c] (002/114) Accurately ripped
 04     [0a64a44a] (002/113) Accurately ripped
 05     [29dd3d89] (002/110) Accurately ripped
 06     [1fcffd05] (002/114) Accurately ripped
 07     [11d0c977] (002/108) Accurately ripped
 08     [e83c9c2e] (002/114) Accurately ripped
 09     [c2ad8dc2] (002/114) Accurately ripped
 10     [441c8bad] (002/112) Accurately ripped
 11     [5abdb5dd] (002/115) Accurately ripped
 12     [04c1b023] (002/113) Accurately ripped
 13     [951617c3] (002/106) Accurately ripped
Offsetted by -57:
 01     [8b939814] (003/112) Accurately ripped
 02     [7d26caee] (003/112) Accurately ripped
 03     [1e2657b3] (003/114) Accurately ripped
 04     [56e72974] (003/113) Accurately ripped
 05     [f9d82282] (003/110) Accurately ripped
 06     [52617cbe] (003/114) Accurately ripped
 07     [5528453b] (003/108) Accurately ripped
 08     [f7608538] (003/114) Accurately ripped
 09     [67ae9866] (003/114) Accurately ripped
 10     [74ecbab0] (003/112) Accurately ripped
 11     [a2e76d3c] (003/115) Accurately ripped
 12     [ef1438e7] (003/113) Accurately ripped
 13     [568760b0] (003/106) Accurately ripped
Offsetted by 1058:
 01     [b6a852f6] (009/112) Accurately ripped
 02     [a816f84a] (009/112) Accurately ripped
 03     [3ca2618a] (009/114) Accurately ripped
 04     [b6bcc34c] (009/113) Accurately ripped
 05     [4276f071] (008/110) Accurately ripped
 06     [97e7b753] (009/114) Accurately ripped
 07     [93baf9d3] (009/108) Accurately ripped
 08     [7fb5fa22] (009/114) Accurately ripped
 09     [9e3e65ca] (009/114) Accurately ripped
 10     [8b949543] (008/112) Accurately ripped
 11     [1b409d6b] (009/115) Accurately ripped
 12     [26d44a6b] (008/113) Accurately ripped
 13     [14caeb0d] (009/106) Accurately ripped
Offsetted by 1161:
 01     [332ce120] (008/112) Accurately ripped
 02     [e59fe796] (008/112) Accurately ripped
 03     [03b7c5dd] (008/114) Accurately ripped
 04     [50f20ab6] (008/113) Accurately ripped
 05     [345b1006] (008/110) Accurately ripped
 06     [75b6c28c] (008/114) Accurately ripped
 07     [6a6a46fb] (007/108) Accurately ripped
 08     [57f4f974] (009/114) Accurately ripped
 09     [6bf3843e] (009/114) Accurately ripped
 10     [38436dc2] (008/112) Accurately ripped
 11     [6f61a676] (009/115) Accurately ripped
 12     [a062797f] (008/113) Accurately ripped
 13     [1b1e4d3e] (006/106) Accurately ripped
Offsetted by 1393:
 01     [53195090] (004/112) Accurately ripped
 02     [97fe97b6] (004/112) Accurately ripped
 03     [a8cc9de5] (004/114) Accurately ripped
 04     [9ce0172a] (004/113) Accurately ripped
 05     [73578a4e] (004/110) Accurately ripped
 06     [85cc27fe] (004/114) Accurately ripped
 07     [91d93521] (004/108) Accurately ripped
 08     [2135d2a4] (003/114) Accurately ripped
 09     [6092ee1e] (004/114) Accurately ripped
 10     [9a6c52ea] (004/112) Accurately ripped
 11     [4d2fc9be] (004/115) Accurately ripped
 12     [7903aa5f] (003/113) Accurately ripped
 13     [eb3b0c96] (004/106) Accurately ripped
Offsetted by 1405:
 01     [c7823bd8] (003/112) Accurately ripped
 02     [13faa9a6] (003/112) Accurately ripped
 03     [9faecc61] (004/114) Accurately ripped
 04     [f052013b] (003/113) Accurately ripped
 05     [8ec0ea4d] (003/110) Accurately ripped
 06     [cf249770] (003/114) Accurately ripped
 07     [0e0d4fc3] (003/108) Accurately ripped
 08     [a2cad50c] (004/114) Accurately ripped
 09     [760def2e] (004/114) Accurately ripped
 10     [2853f4d6] (004/112) Accurately ripped
 11     [65e6969a] (004/115) Accurately ripped
 12     [cf40f7ef] (004/113) Accurately ripped
 13     [4571806a] (003/106) Accurately ripped
Offsetted by 1479:
 01     [c0093c14] (013/112) Accurately ripped
 02     [3b37c2ee] (013/112) Accurately ripped
 03     [922195b3] (013/114) Accurately ripped
 04     [cef2da0a] (014/113) Accurately ripped
 05     [c98ef1bc] (013/110) Accurately ripped
 06     [f6680b75] (013/114) Accurately ripped
 07     [513a2224] (013/108) Accurately ripped
 08     [c1e1b938] (013/114) Accurately ripped
 09     [252f2066] (013/114) Accurately ripped
 10     [68bdb0b0] (013/112) Accurately ripped
 11     [fe4ddb3c] (013/115) Accurately ripped
 12     [0dbb00e7] (013/113) Accurately ripped
 13     [71c14ab0] (012/106) Accurately ripped
Offsetted by 2169:
 01     [659a14c0] (002/112) Accurately ripped
 02     [5938ca56] (003/112) Accurately ripped
 03     [03f8068d] (003/114) Accurately ripped
 04     [1ec8df09] (003/113) Accurately ripped
 05     [53a2305b] (002/110) Accurately ripped
 06     [e5b4523c] (003/114) Accurately ripped
 07     [51498adb] (002/108) Accurately ripped
 08     [dcd9c394] (003/114) Accurately ripped
 09     [784fdd7e] (003/114) Accurately ripped
 10     [c8448f32] (003/112) Accurately ripped
 11     [8b5cdea6] (003/115) Accurately ripped
 12     [ec7fecbf] (003/113) Accurately ripped
 13     [b4fc4ece] (002/106) Accurately ripped
Offsetted by 1035:
 01     [ecdf3aac] (000/112) No match (V2 was not tested)
 02     [4fc92b3e] (000/112) No match (V2 was not tested)
 03     [e370ddc7] (000/114) No match (V2 was not tested)
 04     [c2ba6c31] (000/113) No match (V2 was not tested)
 05     [495535a5] (000/110) No match (V2 was not tested)
 06     [62fcfdcc] (000/114) No match (V2 was not tested)
 07     [34321c89] (000/108) No match (V2 was not tested)
 08     [07586030] (000/114) No match (V2 was not tested)
 09     [0a67f916] (000/114) No match (V2 was not tested)
 10     [e6434994] (000/112) No match (V2 was not tested)
 11     [6be23f70] (000/115) No match (V2 was not tested)
 12     [96decb17] (000/113) No match (V2 was not tested)
 13     [67e28d0c] (000/106) No match (V2 was not tested)

Track Peak [ CRC32  ] [W/O NULL] [  LOG   ]
 --  100,0 [30CA9BAE] [4727D68B]   CRC32
 01   99,9 [77A15145] [ECF6A8F3]
 02  100,0 [1969EAA9] [F1D3F777]
 03  100,0 [0B60E40F] [02476D1D]
 04   97,7 [0CE48488] [01F6FC81]
 05   97,7 [F8D28E88] [A58D2963]
 06  100,0 [32772387] [5C061E9B]
 07   81,2 [5C3DE217] [CB234607]
 08   98,0 [79D8CABE] [2430E3D3]
 09   95,3 [CE061DE6] [FD30E000]
 10   93,9 [17CBBE27] [9501980A]
 11   99,7 [00FB7865] [4D6750E8]
 12   99,9 [324F5F30] [F70900D3]
 13   99,3 [EB0F36A5] [BB06848E]

#777Треклист:
01. Turn To Stone (3:50)
02. Sweet Talkin' Woman (3:50)
03. Mr. Blue Sky (5:05)
04. It's Over (4:11)
05. Shine A Little Love (4:43)
06. Don't Bring Me Down (4:04)
07. Confusion (3:43)
08. Last Train To London (4:32)
09. Hold On Tight (3:08)
10. Twilight (3:43)
11. Rain Is Falling (3:57)
12. Rock 'N' Roll Is King (3:18)
13. Four Little Diamonds (4:05)
14. Stranger (4:29)
15. Calling America (3:30)
16. So Serious (2:42)

Продолжительность: 01:02:51
Код:
Код:
Exact Audio Copy V1.0 beta 3 from 29. August 2011

EAC extraction logfile from 23. November 2013, 1:08

Electric Light Orchestra / Strange Magic: The Best Of Electric Light Orchestra

Used drive  : PLEXTOR DVDR   PX-810SA   Adapter: 2  ID: 0

Read mode               : Secure
Utilize accurate stream : Yes
Defeat audio cache      : Yes
Make use of C2 pointers : No

Read offset correction                      : 48
Overread into Lead-In and Lead-Out          : No
Fill up missing offset samples with silence : Yes
Delete leading and trailing silent blocks   : No
Null samples used in CRC calculations       : Yes
Used interface                              : Installed external ASPI interface

Used output format              : User Defined Encoder
Selected bitrate                : 1024 kBit/s
Quality                         : High
Add ID3 tag                     : No
Command line compressor         : C:\Program Files (x86)\Exact Audio Copy\Flac\flac.exe
Additional command line options : -8 -V -T "Date=%year%" -T "Genre=%genre%" -T "COMMENT=ripped by bvstudio®" %source%

TOC of the extracted CD

     Track |   Start  |  Length  | Start sector | End sector
    ---------------------------------------------------------
        1  |  0:00.00 |  3:49.50 |         0    |    17224
        2  |  3:49.50 |  3:50.00 |     17225    |    34474
        3  |  7:39.50 |  5:04.60 |     34475    |    57334
        4  | 12:44.35 |  4:10.47 |     57335    |    76131
        5  | 16:55.07 |  4:43.08 |     76132    |    97364
        6  | 21:38.15 |  4:04.25 |     97365    |   115689
        7  | 25:42.40 |  3:42.70 |    115690    |   132409
        8  | 29:25.35 |  4:32.22 |    132410    |   152831
        9  | 33:57.57 |  3:07.68 |    152832    |   166924
       10  | 37:05.50 |  3:43.05 |    166925    |   183654
       11  | 40:48.55 |  3:57.30 |    183655    |   201459
       12  | 44:46.10 |  3:18.12 |    201460    |   216321
       13  | 48:04.22 |  4:05.30 |    216322    |   234726
       14  | 52:09.52 |  4:29.13 |    234727    |   254914
       15  | 56:38.65 |  3:30.37 |    254915    |   270701
       16  | 60:09.27 |  2:41.53 |    270702    |   282829

Range status and errors

Selected range

     Filename F:\Electric Light Orchestra\1995 - Strange Magic - The Best Of ELO (1995 - Sony Music. USA - Z2K 64157)\CD2\Electric Light Orchestra - Strange Magic - The Best Of Electric Light Orchestra.wav

     Peak level 100.0 %
     Extraction speed 7.8 X
     Range quality 100.0 %
     Test CRC 867BD2AC
     Copy CRC 867BD2AC
     Copy OK

No errors occurred

AccurateRip summary

Track  1  accurately ripped (confidence 2)  [E9939ABA]  (AR v2)
Track  2  accurately ripped (confidence 2)  [469861E2]  (AR v2)
Track  3  accurately ripped (confidence 2)  [898627AE]  (AR v2)
Track  4  accurately ripped (confidence 2)  [AE71680C]  (AR v2)
Track  5  accurately ripped (confidence 2)  [1D6F2495]  (AR v2)
Track  6  accurately ripped (confidence 2)  [0D724D04]  (AR v2)
Track  7  accurately ripped (confidence 2)  [7DB30C52]  (AR v2)
Track  8  accurately ripped (confidence 2)  [C61B90C3]  (AR v2)
Track  9  accurately ripped (confidence 2)  [80C52DB4]  (AR v2)
Track 10  accurately ripped (confidence 2)  [25F63A01]  (AR v2)
Track 11  accurately ripped (confidence 2)  [6DE92D28]  (AR v2)
Track 12  accurately ripped (confidence 2)  [71EA0CC7]  (AR v2)
Track 13  accurately ripped (confidence 2)  [04DA6444]  (AR v2)
Track 14  accurately ripped (confidence 2)  [08644738]  (AR v2)
Track 15  accurately ripped (confidence 2)  [C14E4EE7]  (AR v2)
Track 16  accurately ripped (confidence 2)  [60372456]  (AR v2)

All tracks accurately ripped

End of status report

---- CUETools DB Plugin V2.1.5

[CTDB TOCID: r6cLUKSwQvYf.0huGew5Mml9T6g-] found
Submit result: r6cLUKSwQvYf.0huGew5Mml9T6g- has been confirmed
Track | CTDB Status
  1   | (16/16) Accurately ripped
  2   | (16/16) Accurately ripped
  3   | (16/16) Accurately ripped
  4   | (16/16) Accurately ripped
  5   | (16/16) Accurately ripped
  6   | (16/16) Accurately ripped
  7   | (16/16) Accurately ripped
  8   | (15/16) Accurately ripped
  9   | (16/16) Accurately ripped
 10   | (16/16) Accurately ripped
 11   | (15/16) Accurately ripped
 12   | (15/16) Accurately ripped
 13   | (16/16) Accurately ripped
 14   | (16/16) Accurately ripped
 15   | (16/16) Accurately ripped
 16   | ( 8/16) Accurately ripped, or (7/16) differs in 382 samples @02:41:43

==== Log checksum 70D61A52D53C3BBD54CC2E74199599ACB3A48156294C183337DC463CA21E7D29 ====

Код:
Код:
-----------------------

DON'T MODIFY THIS FILE

-----------------------

PERFORMER: auCDtect Task Manager, ver. 1.6.0 RC1 build 1.6.0.1
Copyright (c) 2008-2010 y-soft. All rights reserved
http:/y-soft.org

ANALYZER: auCDtect: CD records authenticity detector, version 0.8.2
Copyright (c) 2004 Oleg Berngardt. All rights reserved.
Copyright (c) 2004 Alexander Djourik. All rights reserved.

FILE: Electric Light Orchestra - Strange Magic - The Best Of Electric Light Orchestra CD2.flac
  Size: 435481073 Hash: A5D15DD429CDBCEBA9191FCAC92B2E85 Accuracy: -m0
  Conclusion: CDDA 100%
  Signature: 264ED2E86F568F8F3E7248537F041AB9D6D6901A

Код:
Код:
REM GENRE Rock
REM DATE 1995
REM DISCID C60EBB10
REM COMMENT "ExactAudioCopy v1.0b3"
PERFORMER "Electric Light Orchestra"
TITLE "Strange Magic: The Best Of Electric Light Orchestra CD2"
FILE "Electric Light Orchestra - Strange Magic - The Best Of Electric Light Orchestra CD2.flac" WAVE
  TRACK 01 AUDIO
    TITLE "Turn To Stone"
    PERFORMER "Electric Light Orchestra"
    INDEX 01 00:00:00
  TRACK 02 AUDIO
    TITLE "Sweet Talkin' Woman"
    PERFORMER "Electric Light Orchestra"
    INDEX 00 03:47:68
    INDEX 01 03:49:50
  TRACK 03 AUDIO
    TITLE "Mr. Blue Sky"
    PERFORMER "Electric Light Orchestra"
    INDEX 00 07:37:70
    INDEX 01 07:39:50
  TRACK 04 AUDIO
    TITLE "It's Over"
    PERFORMER "Electric Light Orchestra"
    INDEX 00 12:42:54
    INDEX 01 12:44:35
  TRACK 05 AUDIO
    TITLE "Shine A Little Love"
    PERFORMER "Electric Light Orchestra"
    INDEX 00 16:53:29
    INDEX 01 16:55:07
  TRACK 06 AUDIO
    TITLE "Don't Bring Me Down"
    PERFORMER "Electric Light Orchestra"
    INDEX 00 21:36:33
    INDEX 01 21:38:15
  TRACK 07 AUDIO
    TITLE "Confusion"
    PERFORMER "Electric Light Orchestra"
    INDEX 00 25:40:65
    INDEX 01 25:42:40
  TRACK 08 AUDIO
    TITLE "Last Train To London"
    PERFORMER "Electric Light Orchestra"
    INDEX 00 29:23:59
    INDEX 01 29:25:35
  TRACK 09 AUDIO
    TITLE "Hold On Tight"
    PERFORMER "Electric Light Orchestra"
    INDEX 00 33:56:05
    INDEX 01 33:57:57
  TRACK 10 AUDIO
    TITLE "Twilight"
    PERFORMER "Electric Light Orchestra"
    INDEX 00 37:03:68
    INDEX 01 37:05:50
  TRACK 11 AUDIO
    TITLE "Rain Is Falling"
    PERFORMER "Electric Light Orchestra"
    INDEX 00 40:47:00
    INDEX 01 40:48:55
  TRACK 12 AUDIO
    TITLE "Rock 'N' Roll Is King"
    PERFORMER "Electric Light Orchestra"
    INDEX 00 44:44:29
    INDEX 01 44:46:10
  TRACK 13 AUDIO
    TITLE "Four Little Diamonds"
    PERFORMER "Electric Light Orchestra"
    INDEX 00 48:02:40
    INDEX 01 48:04:22
  TRACK 14 AUDIO
    TITLE "Stranger"
    PERFORMER "Electric Light Orchestra"
    INDEX 01 52:09:52
  TRACK 15 AUDIO
    TITLE "Calling America"
    PERFORMER "Electric Light Orchestra"
    INDEX 00 56:37:11
    INDEX 01 56:38:65
  TRACK 16 AUDIO
    TITLE "So Serious"
    PERFORMER "Electric Light Orchestra"
    INDEX 00 60:07:45
    INDEX 01 60:09:27

Код:
Код:
[CUETools log; Date: 16.01.2014 19:28:43; Version: 2.1.4]
[CTDB TOCID: r6cLUKSwQvYf.0huGew5Mml9T6g-] found.
Track | CTDB Status
  1   | (17/17) Accurately ripped
  2   | (17/17) Accurately ripped
  3   | (17/17) Accurately ripped
  4   | (17/17) Accurately ripped
  5   | (17/17) Accurately ripped
  6   | (17/17) Accurately ripped
  7   | (17/17) Accurately ripped
  8   | (16/17) Accurately ripped
  9   | (17/17) Accurately ripped
 10   | (17/17) Accurately ripped
 11   | (16/17) Accurately ripped
 12   | (16/17) Accurately ripped
 13   | (17/17) Accurately ripped
 14   | (17/17) Accurately ripped
 15   | (17/17) Accurately ripped
 16   | ( 9/17) Accurately ripped, or (7/17) differs in 382 samples @02:41:43
[AccurateRip ID: 00261218-01c5dfae-c60ebb10] found.
Track   [  CRC   |   V2   ] Status
 01     [de22e2ab|e9939aba] (08+03/78) Accurately ripped
 02     [77de71e3|469861e2] (08+03/79) Accurately ripped
 03     [da83f6a5|898627ae] (08+03/77) Accurately ripped
 04     [b54072fc|ae71680c] (08+03/78) Accurately ripped
 05     [5e3f1826|1d6f2495] (08+03/80) Accurately ripped
 06     [b64fc22b|0d724d04] (08+03/82) Accurately ripped
 07     [2597ebc0|7db30c52] (08+03/78) Accurately ripped
 08     [d3b0544e|c61b90c3] (08+03/78) Accurately ripped
 09     [e4dbb7cd|80c52db4] (08+03/82) Accurately ripped
 10     [8336963b|25f63a01] (08+03/79) Accurately ripped
 11     [d14b1d80|6de92d28] (08+03/79) Accurately ripped
 12     [ae779f56|71ea0cc7] (08+03/80) Accurately ripped
 13     [409ec6f4|04da6444] (08+03/77) Accurately ripped
 14     [e3e37cda|08644738] (08+03/78) Accurately ripped
 15     [1f631488|c14e4ee7] (08+03/78) Accurately ripped
 16     [2ee0f6da|60372456] (06+03/77) Accurately ripped
Offsetted by -902:
 01     [42fc11f9] (02/78) Accurately ripped
 02     [591a6363] (02/79) Accurately ripped
 03     [9d6a5803] (02/77) Accurately ripped
 04     [bb704cd8] (02/78) Accurately ripped
 05     [15b576be] (02/80) Accurately ripped
 06     [261862d5] (02/82) Accurately ripped
 07     [48f04218] (02/78) Accurately ripped
 08     [b3228168] (02/78) Accurately ripped
 09     [778a60fb] (02/82) Accurately ripped
 10     [7a1f8405] (02/79) Accurately ripped
 11     [fb53eabc] (02/79) Accurately ripped
 12     [fa9b97c8] (02/80) Accurately ripped
 13     [76ab0654] (02/77) Accurately ripped
 14     [8b9b1364] (02/78) Accurately ripped
 15     [1421415e] (02/78) Accurately ripped
 16     [bca31824] (00/77) No match (V2 was not tested)
Offsetted by -264:
 01     [f568b213] (07/78) Accurately ripped
 02     [8e1573e3] (07/79) Accurately ripped
 03     [fa9570cd] (07/77) Accurately ripped
 04     [851c80cc] (07/78) Accurately ripped
 05     [238d7246] (07/80) Accurately ripped
 06     [b7cf2963] (07/82) Accurately ripped
 07     [6e609ae0] (07/78) Accurately ripped
 08     [21934ec6] (07/78) Accurately ripped
 09     [2f0259b5] (07/82) Accurately ripped
 10     [8d0a5ef3] (07/79) Accurately ripped
 11     [f6925fd0] (07/79) Accurately ripped
 12     [a58864ee] (07/80) Accurately ripped
 13     [c3182fc7] (07/77) Accurately ripped
 14     [c2a68c93] (07/78) Accurately ripped
 15     [28947f50] (07/78) Accurately ripped
 16     [7dd51992] (00/77) No match (V2 was not tested)
Offsetted by -1:
 01     [eeb592f8] (18/78) Accurately ripped
 02     [b12a4a23] (19/79) Accurately ripped
 03     [f9aad14a] (19/77) Accurately ripped
 04     [4495a576] (19/78) Accurately ripped
 05     [6f7a8aea] (19/80) Accurately ripped
 06     [da322e32] (19/82) Accurately ripped
 07     [3b33d524] (19/78) Accurately ripped
 08     [3ea685bd] (19/78) Accurately ripped
 09     [5888786a] (19/82) Accurately ripped
 10     [6deac872] (19/79) Accurately ripped
 11     [e0f3248a] (19/79) Accurately ripped
 12     [524feda9] (19/80) Accurately ripped
 13     [3ba2abdd] (19/77) Accurately ripped
 14     [7a2ac6e6] (19/78) Accurately ripped
 15     [215c7ac1] (18/78) Accurately ripped
 16     [4c44cc51] (00/77) No match (V2 was not tested)
Offsetted by 191:
 01     [80b15938] (22/78) Accurately ripped
 02     [b8481a23] (22/79) Accurately ripped
 03     [9c86d58a] (21/77) Accurately ripped
 04     [c4afc9f6] (21/78) Accurately ripped
 05     [82e477ea] (23/80) Accurately ripped
 06     [f06128f2] (22/82) Accurately ripped
 07     [0644ca24] (20/78) Accurately ripped
 08     [0601727d] (20/78) Accurately ripped
 09     [96f802aa] (22/82) Accurately ripped
 10     [66c51f32] (20/79) Accurately ripped
 11     [22eddd0a] (21/79) Accurately ripped
 12     [70152f69] (21/80) Accurately ripped
 13     [8e400e5c] (21/77) Accurately ripped
 14     [44c3f04f] (21/78) Accurately ripped
 15     [a64fd001] (21/78) Accurately ripped
 16     [4164b311] (00/77) No match (V2 was not tested)
Offsetted by 953:
 01     [2c109406] (02/78) Accurately ripped
 02     [2c866ba3] (02/79) Accurately ripped
 03     [e2e00668] (02/77) Accurately ripped
 04     [21178ad2] (02/78) Accurately ripped
 05     [37f0dc82] (02/80) Accurately ripped
 06     [206b9c1c] (02/82) Accurately ripped
 07     [b430167c] (02/78) Accurately ripped
 08     [a5324e17] (02/78) Accurately ripped
 09     [46c2af58] (02/82) Accurately ripped
 10     [ca67a77c] (02/79) Accurately ripped
 11     [88c8e946] (02/79) Accurately ripped
 12     [be3c0c5b] (02/80) Accurately ripped
 13     [faa7d78b] (00/77) No match (V2 was not tested)
 14     [fa89a022] (02/78) Accurately ripped
 15     [c5f58a57] (02/78) Accurately ripped
 16     [c63b4edb] (00/77) No match (V2 was not tested)

Track Peak [ CRC32  ] [W/O NULL] [  LOG   ]
 --  100,0 [867BD2AC] [12E0EA33]   CRC32
 01   97,0 [8EC648E0] [1D3CE551]
 02  100,0 [A931C92D] [F3936970]
 03   99,7 [8D8DA3B1] [EB47F968]
 04   99,2 [D44BDFB8] [04D76131]
 05   99,6 [14F1A5F4] [2BD6DF5B]
 06   78,7 [A99363B3] [47D101E9]
 07  100,0 [07710CAD] [D793813D]
 08  100,0 [EE6E9D81] [EBAAD8CC]
 09   99,6 [00803D70] [9456263A]
 10  100,0 [BFE665D1] [177FF073]
 11   90,6 [410837E6] [30AD0D13]
 12  100,0 [FEBF120E] [2A20CBEE]
 13  100,0 [9F506897] [901F5F7E]
 14   96,8 [273CC7A7] [E9363AD2]
 15  100,0 [A7B7607B] [FD1AD595]
 16  100,0 [9CBE38A7] [63884FED]

Правила, инструкции, FAQ!!!
Торрент  Добавлен [16 мар 2014, 00:09] Скачать торрент Магнет ссылка
Скачать торрент
[ Размер 18.25 КБ / Просмотров 59 ]

Статус  
 
Размер  824.81 МБ
Приватный: Нет (DHT включён)
.torrent скачан  4
 


     Отправить личное сообщение
   
Страница 1 из 1
Показать сообщения за:  Поле сортировки  
Начать новую тему Ответить на тему


Сейчас этот форум просматривают: нет зарегистрированных пользователей и гости: 0


Вы не можете начинать темы
Вы не можете отвечать на сообщения
Вы не можете редактировать свои сообщения
Вы не можете удалять свои сообщения
Вы не можете добавлять вложения

Перейти:  
cron